  0
SECTION
  2
HEADER
  9
$ACADVER
  1
AC1015
  9
$ACADMAINTVER
 70
     6
  9
$DWGCODEPAGE
  3
ANSI_1252
  9
$INSBASE
 10
0.0
 20
0.0
 30
0.0
  9
$EXTMIN
 10
0.0
 20
0.0
 30
0.0
  9
$EXTMAX
 10
50.0
 20
30.0
 30
0.0
  9
$LIMMIN
 10
0.0
 20
0.0
  9
$LIMMAX
 10
50.0
 20
30.0
  9
$ORTHOMODE
 70
     0
  9
$REGENMODE
 70
     1
  9
$FILLMODE
 70
     1
  9
$QTEXTMODE
 70
     0
  9
$MIRRTEXT
 70
     1
  9
$LTSCALE
 40
1.0
  9
$ATTMODE
 70
     1
  9
$TEXTSIZE
 40
0.25
  9
$TRACEWID
 40
0.05
  9
$TEXTSTYLE
  7
Standard
  9
$CLAYER
  8
0
  9
$CELTYPE
  6
ByLayer
  9
$CECOLOR
 62
   256
  9
$CELTSCALE
 40
1.0
  9
$DISPSILH
 70
     0
  9
$DIMSCALE
 40
1.0
  9
$DIMASZ
 40
0.15
  9
$DIMEXO
 40
0.05
  9
$DIMDLI
 40
0.38
  9
$DIMRND
 40
0.0
  9
$DIMDLE
 40
0.0
  9
$DIMEXE
 40
0.075
  9
$DIMTP
 40
0.0
  9
$DIMTM
 40
0.0
  9
$DIMTXT
 40
0.2
  9
$DIMCEN
 40
0.09
  9
$DIMTSZ
 40
0.0
  9
$DIMTOL
 70
     0
  9
$DIMLIM
 70
     0
  9
$DIMTIH
 70
     1
  9
$DIMTOH
 70
     1
  9
$DIMSE1
 70
     0
  9
$DIMSE2
 70
     0
  9
$DIMTAD
 70
     0
  9
$DIMZIN
 70
     0
  9
$DIMBLK
  1

  9
$DIMASO
 70
     1
  9
$DIMSHO
 70
     1
  9
$DIMPOST
  1

  9
$DIMAPOST
  1

  9
$DIMALT
 70
     0
  9
$DIMALTD
 70
     2
  9
$DIMALTF
 40
25.4
  9
$DIMLFAC
 40
1.0
  9
$DIMTOFL
 70
     0
  9
$DIMTVP
 40
0.0
  9
$DIMTIX
 70
     0
  9
$DIMSOXD
 70
     0
  9
$DIMSAH
 70
     0
  9
$DIMBLK1
  1

  9
$DIMBLK2
  1

  9
$DIMSTYLE
  2
Standard
  9
$DIMCLRD
 70
     0
  9
$DIMCLRE
 70
     0
  9
$DIMCLRT
 70
     0
  9
$DIMTFAC
 40
1.0
  9
$DIMGAP
 40
0.06
  9
$DIMJUST
 70
     0
  9
$DIMSD1
 70
     0
  9
$DIMSD2
 70
     0
  9
$DIMTOLJ
 70
     1
  9
$DIMTZIN
 70
     0
  9
$DIMALTZ
 70
     0
  9
$DIMALTTZ
 70
     0
  9
$DIMUPT
 70
     0
  9
$DIMDEC
 70
     3
  9
$DIMTDEC
 70
     3
  9
$DIMALTU
 70
     2
  9
$DIMALTTD
 70
     2
  9
$DIMTXSTY
  7
Standard
  9
$DIMAUNIT
 70
     0
  9
$DIMADEC
 70
     2
  9
$DIMALTRND
 40
0.0
  9
$DIMAZIN
 70
     0
  9
$DIMDSEP
 70
    46
  9
$DIMATFIT
 70
     3
  9
$DIMFRAC
 70
     0
  9
$DIMLDRBLK
  1

  9
$DIMLUNIT
 70
     2
  9
$DIMLWD
 70
    -2
  9
$DIMLWE
 70
    -2
  9
$DIMTMOVE
 70
     0
  9
$LUNITS
 70
     2
  9
$LUPREC
 70
     3
  9
$SKETCHINC
 40
0.1
  9
$FILLETRAD
 40
0.5
  9
$AUNITS
 70
     0
  9
$AUPREC
 70
     2
  9
$MENU
  1
.
  9
$ELEVATION
 40
0.0
  9
$PELEVATION
 40
0.0
  9
$THICKNESS
 40
0.0
  9
$LIMCHECK
 70
     0
  9
$CHAMFERA
 40
0.0
  9
$CHAMFERB
 40
0.0
  9
$CHAMFERC
 40
0.0
  9
$CHAMFERD
 40
0.0
  9
$SKPOLY
 70
     0
  9
$TDCREATE
 40
2459845.318415243
  9
$TDUCREATE
 40
2459845.61008191
  9
$TDUPDATE
 40
2459845.318416366
  9
$TDUUPDATE
 40
2459845.610083032
  9
$TDINDWG
 40
0.0000000116
  9
$TDUSRTIMER
 40
0.0000000116
  9
$USRTIMER
 70
     1
  9
$ANGBASE
 50
0.0
  9
$ANGDIR
 70
     0
  9
$PDMODE
 70
     0
  9
$PDSIZE
 40
-1.0
  9
$PLINEWID
 40
0.0
  9
$SPLFRAME
 70
     0
  9
$SPLINETYPE
 70
     6
  9
$SPLINESEGS
 70
     8
  9
$HANDSEED
  5
472
  9
$SURFTAB1
 70
     6
  9
$SURFTAB2
 70
     6
  9
$SURFTYPE
 70
     6
  9
$SURFU
 70
     6
  9
$SURFV
 70
     6
  9
$UCSBASE
  2

  9
$UCSNAME
  2

  9
$UCSORG
 10
0.0
 20
0.0
 30
0.0
  9
$UCSXDIR
 10
1.0
 20
0.0
 30
0.0
  9
$UCSYDIR
 10
0.0
 20
1.0
 30
0.0
  9
$UCSORTHOREF
  2

  9
$UCSORTHOVIEW
 70
     0
  9
$UCSORGTOP
 10
0.0
 20
0.0
 30
0.0
  9
$UCSORGBOTTOM
 10
0.0
 20
0.0
 30
0.0
  9
$UCSORGLEFT
 10
0.0
 20
0.0
 30
0.0
  9
$UCSORGRIGHT
 10
0.0
 20
0.0
 30
0.0
  9
$UCSORGFRONT
 10
0.0
 20
0.0
 30
0.0
  9
$UCSORGBACK
 10
0.0
 20
0.0
 30
0.0
  9
$PUCSBASE
  2

  9
$PUCSNAME
  2

  9
$PUCSORG
 10
0.0
 20
0.0
 30
0.0
  9
$PUCSXDIR
 10
1.0
 20
0.0
 30
0.0
  9
$PUCSYDIR
 10
0.0
 20
1.0
 30
0.0
  9
$PUCSORTHOREF
  2

  9
$PUCSORTHOVIEW
 70
     0
  9
$PUCSORGTOP
 10
0.0
 20
0.0
 30
0.0
  9
$PUCSORGBOTTOM
 10
0.0
 20
0.0
 30
0.0
  9
$PUCSORGLEFT
 10
0.0
 20
0.0
 30
0.0
  9
$PUCSORGRIGHT
 10
0.0
 20
0.0
 30
0.0
  9
$PUCSORGFRONT
 10
0.0
 20
0.0
 30
0.0
  9
$PUCSORGBACK
 10
0.0
 20
0.0
 30
0.0
  9
$USERI1
 70
     0
  9
$USERI2
 70
     0
  9
$USERI3
 70
     0
  9
$USERI4
 70
     0
  9
$USERI5
 70
     0
  9
$USERR1
 40
0.0
  9
$USERR2
 40
0.0
  9
$USERR3
 40
0.0
  9
$USERR4
 40
0.0
  9
$USERR5
 40
0.0
  9
$WORLDVIEW
 70
     1
  9
$SHADEDGE
 70
     3
  9
$SHADEDIF
 70
    70
  9
$TILEMODE
 70
     1
  9
$MAXACTVP
 70
    64
  9
$PINSBASE
 10
0.0
 20
0.0
 30
0.0
  9
$PLIMCHECK
 70
     0
  9
$PEXTMIN
 10
1.0000000000E+20
 20
1.0000000000E+20
 30
1.0000000000E+20
  9
$PEXTMAX
 10
-1.0000000000E+20
 20
-1.0000000000E+20
 30
-1.0000000000E+20
  9
$PLIMMIN
 10
0.0
 20
0.0
  9
$PLIMMAX
 10
12.0
 20
9.0
  9
$UNITMODE
 70
     0
  9
$VISRETAIN
 70
     1
  9
$PLINEGEN
 70
     0
  9
$PSLTSCALE
 70
     1
  9
$TREEDEPTH
 70
  3020
  9
$CMLSTYLE
  2
Standard
  9
$CMLJUST
 70
     0
  9
$CMLSCALE
 40
1.0
  9
$PROXYGRAPHICS
 70
     1
  9
$MEASUREMENT
 70
     0
  9
$CELWEIGHT
370
    -1
  9
$ENDCAPS
280
     0
  9
$JOINSTYLE
280
     0
  9
$LWDISPLAY
290
     1
  9
$INSUNITS
 70
     1
  9
$HYPERLINKBASE
  1

  9
$STYLESHEET
  1

  9
$XEDIT
290
     1
  9
$CEPSNTYPE
380
     0
  9
$PSTYLEMODE
290
     1
  9
$FINGERPRINTGUID
  2
{648c09d6-0394-4e6a-b5ea-ce740f7d2688}
  9
$VERSIONGUID
  2
{FAEB1C32-E019-11D5-929B-00C0DF256EC4}
  9
$EXTNAMES
290
     1
  9
$PSVPSCALE
 40
0.0
  9
$OLESTARTUP
290
     0
  0
ENDSEC
  0
SECTION
  2
CLASSES
  0
CLASS
  1
ACDBDICTIONARYWDFLT
  2
AcDbDictionaryWithDefault
  3
ObjectDBX Classes
 90
        0
280
     0
281
     0
  0
CLASS
  1
VISUALSTYLE
  2
AcDbVisualStyle
  3
ObjectDBX Classes
 90
     4095
280
     0
281
     0
  0
CLASS
  1
MATERIAL
  2
AcDbMaterial
  3
ObjectDBX Classes
 90
     1153
280
     0
281
     0
  0
CLASS
  1
SCALE
  2
AcDbScale
  3
ObjectDBX Classes
 90
     1153
280
     0
281
     0
  0
CLASS
  1
TABLESTYLE
  2
AcDbTableStyle
  3
ObjectDBX Classes
 90
     4095
280
     0
281
     0
  0
CLASS
  1
MLEADERSTYLE
  2
AcDbMLeaderStyle
  3
ACDB_MLEADERSTYLE_CLASS
 90
     4095
280
     0
281
     0
  0
CLASS
  1
SUN
  2
AcDbSun
  3
SCENEOE
 90
     1153
280
     0
281
     0
  0
CLASS
  1
ACDBPLACEHOLDER
  2
AcDbPlaceHolder
  3
ObjectDBX Classes
 90
        0
280
     0
281
     0
  0
CLASS
  1
LAYOUT
  2
AcDbLayout
  3
ObjectDBX Classes
 90
        0
280
     0
281
     0
  0
ENDSEC
  0
SECTION
  2
TABLES
  0
TABLE
  2
VPORT
  5
8
330
0
100
AcDbSymbolTable
 70
     1
  0
VPORT
  5
29
330
8
100
AcDbSymbolTableRecord
100
AcDbViewportTableRecord
  2
*Active
 70
     0
 10
0.0
 20
0.0
 11
1.0
 21
1.0
 12
25.0
 22
15.0
 13
0.0
 23
0.0
 14
0.5
 24
0.5
 15
0.5
 25
0.5
 16
0.0
 26
0.0
 36
1.0
 17
0.0
 27
0.0
 37
0.0
 40
30.0
 41
1.6666666667
 42
50.0
 43
0.0
 44
0.0
 50
0.0
 51
0.0
 71
     0
 72
  2000
 73
     1
 74
     3
 75
     0
 76
     0
 77
     0
 78
     0
281
     0
 65
     1
110
0.0
120
0.0
130
0.0
111
1.0
121
0.0
131
0.0
112
0.0
122
1.0
132
0.0
 79
     0
146
0.0
  0
ENDTAB
  0
TABLE
  2
LTYPE
  5
5
330
0
100
AcDbSymbolTable
 70
     6
  0
LTYPE
  5
14
330
5
100
AcDbSymbolTableRecord
100
AcDbLinetypeTableRecord
  2
ByBlock
 70
     0
  3

 72
    65
 73
     0
 40
0.0
  0
LTYPE
  5
15
330
5
100
AcDbSymbolTableRecord
100
AcDbLinetypeTableRecord
  2
ByLayer
 70
     0
  3

 72
    65
 73
     0
 40
0.0
  0
LTYPE
  5
16
330
5
100
AcDbSymbolTableRecord
100
AcDbLinetypeTableRecord
  2
Continuous
 70
     0
  3
Solid line
 72
    65
 73
     0
 40
0.0
  0
LTYPE
  5
6E
330
5
100
AcDbSymbolTableRecord
100
AcDbLinetypeTableRecord
  2
HIDDEN
 70
     0
  3
Hidden __ __ __ __ __ __ __ __ __ __ __ __ __ __
 72
    65
 73
     2
 40
0.075
 49
0.05
 74
     0
 49
-0.025
 74
     0
  0
LTYPE
  5
6F
330
5
100
AcDbSymbolTableRecord
100
AcDbLinetypeTableRecord
  2
PHANTOM
 70
     0
  3
Phantom ______  __  __  ______  __  __  ______
 72
    65
 73
     6
 40
0.5
 49
0.25
 74
     0
 49
-0.05
 74
     0
 49
0.05
 74
     0
 49
-0.05
 74
     0
 49
0.05
 74
     0
 49
-0.05
 74
     0
  0
LTYPE
  5
70
330
5
100
AcDbSymbolTableRecord
100
AcDbLinetypeTableRecord
  2
CENTER
 70
     0
  3
Center ____ _ ____ _ ____ _ ____ _ ____ _ ____
 72
    65
 73
     4
 40
0.4
 49
0.25
 74
     0
 49
-0.05
 74
     0
 49
0.05
 74
     0
 49
-0.05
 74
     0
  0
LTYPE
  5
71
330
5
100
AcDbSymbolTableRecord
100
AcDbLinetypeTableRecord
  2
CENTERX2
 70
     0
  3
Center (2x) ________  __  ________  __  _____
 72
    65
 73
     4
 40
0.8
 49
0.5
 74
     0
 49
-0.1
 74
     0
 49
0.1
 74
     0
 49
-0.1
 74
     0
  0
LTYPE
  5
72
330
5
100
AcDbSymbolTableRecord
100
AcDbLinetypeTableRecord
  2
DOT2
 70
     0
  3
Dot (.5x) ........................................
 72
    65
 73
     2
 40
0.025
 49
0.0
 74
     0
 49
-0.025
 74
     0
  0
ENDTAB
  0
TABLE
  2
LAYER
  5
2
330
0
100
AcDbSymbolTable
 70
     3
  0
LAYER
  5
10
330
2
100
AcDbSymbolTableRecord
100
AcDbLayerTableRecord
  2
0
 70
     0
 62
     7
  6
Continuous
370
    -3
390
F
  0
LAYER
  5
73
330
2
100
AcDbSymbolTableRecord
100
AcDbLayerTableRecord
  2
FORMAT
 70
     0
 62
     7
  6
Continuous
370
    -3
390
F
  0
LAYER
  5
74
330
2
100
AcDbSymbolTableRecord
100
AcDbLayerTableRecord
  2
1
 70
     0
 62
   179
  6
Continuous
370
    -3
390
F
  0
ENDTAB
  0
TABLE
  2
STYLE
  5
3
330
0
100
AcDbSymbolTable
 70
     2
  0
STYLE
  5
11
330
3
100
AcDbSymbolTableRecord
100
AcDbTextStyleTableRecord
  2
Standard
 70
     0
 40
0.0
 41
1.0
 50
0.0
 71
     0
 42
0.25
  3
txt
  4

  0
STYLE
  5
78
330
3
100
AcDbSymbolTableRecord
100
AcDbTextStyleTableRecord
  2
SLDTEXTSTYLE0
 70
     0
 40
0.0
 41
0.605
 50
0.0
 71
     0
 42
0.25
  3
TXT
  4

  0
ENDTAB
  0
TABLE
  2
VIEW
  5
6
330
0
100
AcDbSymbolTable
 70
     0
  0
ENDTAB
  0
TABLE
  2
UCS
  5
7
330
0
100
AcDbSymbolTable
 70
     0
  0
ENDTAB
  0
TABLE
  2
APPID
  5
9
330
0
100
AcDbSymbolTable
 70
     1
  0
APPID
  5
12
330
9
100
AcDbSymbolTableRecord
100
AcDbRegAppTableRecord
  2
ACAD
 70
     0
  0
ENDTAB
  0
TABLE
  2
DIMSTYLE
  5
A
330
0
100
AcDbSymbolTable
 70
     3
100
AcDbDimStyleTable
  0
DIMSTYLE
105
27
330
A
100
AcDbSymbolTableRecord
100
AcDbDimStyleTableRecord
  2
Standard
 70
     0
178
     0
340
11
  0
DIMSTYLE
105
D6
102
{ACAD_REACTORS
330
D5
330
E8
330
14E
330
160
330
185
102
}
330
A
100
AcDbSymbolTableRecord
100
AcDbDimStyleTableRecord
  2
SLDDIMSTYLE0
 70
     0
 41
0.15
 44
0.0
 45
0.000000001
 78
    12
 79
     3
140
0.2
147
0.05
148
0.000000001
170
     1
173
     1
178
     0
271
     2
272
     2
276
     2
284
    12
340
78
  0
DIMSTYLE
105
173
102
{ACAD_REACTORS
330
172
102
}
330
A
100
AcDbSymbolTableRecord
100
AcDbDimStyleTableRecord
  2
SLDDIMSTYLE1
 70
     0
 41
0.15
 44
0.0
 45
0.000000001
 78
    12
 79
     3
140
0.2
147
0.05
148
0.000000001
170
     1
172
     1
173
     1
178
     0
271
     2
272
     2
276
     2
284
    12
289
     0
340
78
  0
ENDTAB
  0
TABLE
  2
BLOCK_RECORD
  5
1
330
0
100
AcDbSymbolTable
 70
     8
  0
BLOCK_RECORD
  5
1F
330
1
100
AcDbSymbolTableRecord
100
AcDbBlockTableRecord
  2
*Model_Space
340
22
  0
BLOCK_RECORD
  5
1B
330
1
100
AcDbSymbolTableRecord
100
AcDbBlockTableRecord
  2
*Paper_Space
340
1E
  0
BLOCK_RECORD
  5
23
330
1
100
AcDbSymbolTableRecord
100
AcDbBlockTableRecord
  2
*Paper_Space0
340
26
  0
BLOCK_RECORD
  5
75
330
1
100
AcDbSymbolTableRecord
100
AcDbBlockTableRecord
  2
SW_NOTE_0
340
0
102
{BLKREFS
331
7C
102
}
  0
BLOCK_RECORD
  5
D7
330
1
100
AcDbSymbolTableRecord
100
AcDbBlockTableRecord
  2
_D
340
0
  0
BLOCK_RECORD
  5
E9
330
1
100
AcDbSymbolTableRecord
100
AcDbBlockTableRecord
  2
_D_1
340
0
  0
BLOCK_RECORD
  5
14F
330
1
100
AcDbSymbolTableRecord
100
AcDbBlockTableRecord
  2
_D_2
340
0
  0
BLOCK_RECORD
  5
161
330
1
100
AcDbSymbolTableRecord
100
AcDbBlockTableRecord
  2
_D_3
340
0
  0
BLOCK_RECORD
  5
174
330
1
100
AcDbSymbolTableRecord
100
AcDbBlockTableRecord
  2
_D_4
340
0
  0
BLOCK_RECORD
  5
186
330
1
100
AcDbSymbolTableRecord
100
AcDbBlockTableRecord
  2
_D_5
340
0
  0
ENDTAB
  0
ENDSEC
  0
SECTION
  2
BLOCKS
  0
BLOCK
  5
20
330
1F
100
AcDbEntity
  8
0
100
AcDbBlockBegin
  2
*Model_Space
 70
     0
 10
0.0
 20
0.0
 30
0.0
  3
*Model_Space
  1

  0
ENDBLK
  5
21
330
1F
100
AcDbEntity
  8
0
100
AcDbBlockEnd
  0
BLOCK
  5
1C
330
1B
100
AcDbEntity
 67
     1
  8
0
100
AcDbBlockBegin
  2
*Paper_Space
 70
     0
 10
0.0
 20
0.0
 30
0.0
  3
*Paper_Space
  1

  0
ENDBLK
  5
1D
330
1B
100
AcDbEntity
 67
     1
  8
0
100
AcDbBlockEnd
  0
BLOCK
  5
24
330
23
100
AcDbEntity
  8
0
100
AcDbBlockBegin
  2
*Paper_Space0
 70
     0
 10
0.0
 20
0.0
 30
0.0
  3
*Paper_Space0
  1

  0
ENDBLK
  5
25
330
23
100
AcDbEntity
  8
0
100
AcDbBlockEnd
  0
BLOCK
  5
76
330
75
100
AcDbEntity
  8
0
100
AcDbBlockBegin
  2
SW_NOTE_0
 70
     0
 10
0.0
 20
0.0
 30
0.0
  3
SW_NOTE_0
  1

  0
MTEXT
  5
79
330
75
100
AcDbEntity
  8
FORMAT
 62
     0
100
AcDbMText
 10
0.71875
 20
0.3222669349
 30
0.0
 40
0.25
 41
0.0
 71
     2
 72
     1
  1
LEVITON
  7
SLDTEXTSTYLE0
 73
     1
 44
1.0
  0
MTEXT
  5
7A
330
75
100
AcDbEntity
  8
FORMAT
 62
     0
100
AcDbMText
 10
0.7165798052
 20
-0.0006497347
 30
0.0
 40
0.25
 41
0.0
 71
     2
 72
     1
  1
47617-RBH
  7
SLDTEXTSTYLE0
 73
     1
 44
1.0
  0
MTEXT
  5
7B
330
75
100
AcDbEntity
  8
FORMAT
 62
     0
100
AcDbMText
 10
0.6283862147
 20
-0.3235664043
 30
0.0
 40
0.25
 41
0.0
 71
     2
 72
     1
  1
RECESSED ENTERTAINMENT BOX WITH HIGH PROFILE COVER
  7
SLDTEXTSTYLE0
 73
     1
 44
1.0
  0
ENDBLK
  5
77
330
75
100
AcDbEntity
  8
0
100
AcDbBlockEnd
  0
BLOCK
  5
D8
330
D7
100
AcDbEntity
  8
0
100
AcDbBlockBegin
  2
_D
 70
     0
 10
0.0
 20
0.0
 30
0.0
  3
_D
  1

  0
SOLID
  5
DA
330
D7
100
AcDbEntity
  8
FORMAT
 62
     7
100
AcDbTrace
 10
9.638445119
 20
19.1317678225
 30
0.0
 11
9.788445119
 21
19.1017678225
 31
0.0
 12
9.788445119
 22
19.1617678225
 32
0.0
 13
9.788445119
 23
19.1617678225
 33
0.0
  0
SOLID
  5
DB
330
D7
100
AcDbEntity
  8
FORMAT
 62
     7
100
AcDbTrace
 10
19.160445119
 20
19.1317678225
 30
0.0
 11
19.010445119
 21
19.1617678225
 31
0.0
 12
19.010445119
 22
19.1017678225
 32
0.0
 13
19.010445119
 23
19.1017678225
 33
0.0
  0
LINE
  5
DC
330
D7
100
AcDbEntity
  8
FORMAT
 62
     7
100
AcDbLine
 10
14.0639480381
 20
19.1560733618
 30
0.0
 11
13.9951980348
 21
19.1560733618
 31
0.0
  0
LINE
  5
DD
330
D7
100
AcDbEntity
  8
FORMAT
 62
     7
100
AcDbLine
 10
13.9951980348
 20
19.1560733618
 30
0.0
 11
13.9951980348
 21
18.8491289109
 31
0.0
  0
LINE
  5
DE
330
D7
100
AcDbEntity
  8
FORMAT
 62
     7
100
AcDbLine
 10
13.9951980348
 20
18.8491289109
 30
0.0
 11
14.0639480381
 21
18.8491289109
 31
0.0
  0
LINE
  5
DF
330
D7
100
AcDbEntity
  8
FORMAT
 62
     7
100
AcDbLine
 10
14.9042257644
 20
19.1560733618
 30
0.0
 11
14.9729757677
 21
19.1560733618
 31
0.0
  0
LINE
  5
E0
330
D7
100
AcDbEntity
  8
FORMAT
 62
     7
100
AcDbLine
 10
14.9729757677
 20
19.1560733618
 30
0.0
 11
14.9729757677
 21
18.8491289109
 31
0.0
  0
LINE
  5
E1
330
D7
100
AcDbEntity
  8
FORMAT
 62
     7
100
AcDbLine
 10
14.9729757677
 20
18.8491289109
 30
0.0
 11
14.9042257644
 21
18.8491289109
 31
0.0
  0
LINE
  5
E2
330
D7
100
AcDbEntity
  8
FORMAT
 62
     7
100
AcDbLine
 10
9.638445119
 20
18.0336909603
 30
0.0
 11
9.638445119
 21
19.2067678225
 31
0.0
  0
LINE
  5
E3
330
D7
100
AcDbEntity
  8
FORMAT
 62
     7
100
AcDbLine
 10
19.160445119
 20
18.0336909603
 30
0.0
 11
19.160445119
 21
19.2067678225
 31
0.0
  0
LINE
  5
E4
330
D7
100
AcDbEntity
  8
FORMAT
 62
     7
100
AcDbLine
 10
9.638445119
 20
19.1317678225
 30
0.0
 11
13.8806401788
 21
19.1317678225
 31
0.0
  0
LINE
  5
E5
330
D7
100
AcDbEntity
  8
FORMAT
 62
     7
100
AcDbLine
 10
19.160445119
 20
19.1317678225
 30
0.0
 11
15.087533587
 21
19.1317678225
 31
0.0
  0
MTEXT
  5
E6
330
D7
100
AcDbEntity
  8
FORMAT
 62
     7
100
AcDbMText
 10
14.2167257682
 20
19.4597202452
 30
0.0
 40
0.2
 41
0.0
 71
     1
 72
     1
  1
9.52
  7
SLDTEXTSTYLE0
 73
     1
 44
1.0
  0
MTEXT
  5
E7
330
D7
100
AcDbEntity
  8
FORMAT
 62
     7
100
AcDbMText
 10
14.0639480381
 20
19.1069424681
 30
0.0
 40
0.2
 41
0.0
 71
     1
 72
     1
  1
241.86
  7
SLDTEXTSTYLE0
 73
     1
 44
1.0
  0
ENDBLK
  5
D9
330
D7
100
AcDbEntity
  8
0
100
AcDbBlockEnd
  0
BLOCK
  5
EA
330
E9
100
AcDbEntity
  8
0
100
AcDbBlockBegin
  2
_D_1
 70
     0
 10
0.0
 20
0.0
 30
0.0
  3
_D_1
  1

  0
SOLID
  5
EC
330
E9
100
AcDbEntity
  8
FORMAT
 62
     7
100
AcDbTrace
 10
8.638445119
 20
18.1836909603
 30
0.0
 11
8.608445119
 21
18.0336909603
 31
0.0
 12
8.668445119
 22
18.0336909603
 32
0.0
 13
8.668445119
 23
18.0336909603
 33
0.0
  0
SOLID
  5
ED
330
E9
100
AcDbEntity
  8
FORMAT
 62
     7
100
AcDbTrace
 10
8.638445119
 20
10.1736909603
 30
0.0
 11
8.668445119
 21
10.3236909603
 31
0.0
 12
8.608445119
 22
10.3236909603
 32
0.0
 13
8.608445119
 23
10.3236909603
 33
0.0
  0
LINE
  5
EE
330
E9
100
AcDbEntity
  8
FORMAT
 62
     7
100
AcDbLine
 10
8.2183062742
 20
14.1876224793
 30
0.0
 11
8.1495562709
 21
14.1876224793
 31
0.0
  0
LINE
  5
EF
330
E9
100
AcDbEntity
  8
FORMAT
 62
     7
100
AcDbLine
 10
8.1495562709
 20
14.1876224793
 30
0.0
 11
8.1495562709
 21
13.8806780285
 31
0.0
  0
LINE
  5
F0
330
E9
100
AcDbEntity
  8
FORMAT
 62
     7
100
AcDbLine
 10
8.1495562709
 20
13.8806780285
 30
0.0
 11
8.2183062742
 21
13.8806780285
 31
0.0
  0
LINE
  5
F1
330
E9
100
AcDbEntity
  8
FORMAT
 62
     7
100
AcDbLine
 10
9.0585840006
 20
14.1876224793
 30
0.0
 11
9.1273340039
 21
14.1876224793
 31
0.0
  0
LINE
  5
F2
330
E9
100
AcDbEntity
  8
FORMAT
 62
     7
100
AcDbLine
 10
9.1273340039
 20
14.1876224793
 30
0.0
 11
9.1273340039
 21
13.8806780285
 31
0.0
  0
LINE
  5
F3
330
E9
100
AcDbEntity
  8
FORMAT
 62
     7
100
AcDbLine
 10
9.1273340039
 20
13.8806780285
 30
0.0
 11
9.0585840006
 21
13.8806780285
 31
0.0
  0
LINE
  5
F4
330
E9
100
AcDbEntity
  8
FORMAT
 62
     7
100
AcDbLine
 10
9.788445119
 20
18.1836909603
 30
0.0
 11
8.563445119
 21
18.1836909603
 31
0.0
  0
LINE
  5
F5
330
E9
100
AcDbEntity
  8
FORMAT
 62
     7
100
AcDbLine
 10
9.788445119
 20
10.1736909603
 30
0.0
 11
8.563445119
 21
10.1736909603
 31
0.0
  0
LINE
  5
F6
330
E9
100
AcDbEntity
  8
FORMAT
 62
     7
100
AcDbLine
 10
8.638445119
 20
18.1836909603
 30
0.0
 11
8.638445119
 21
14.4917891689
 31
0.0
  0
LINE
  5
F7
330
E9
100
AcDbEntity
  8
FORMAT
 62
     7
100
AcDbLine
 10
8.638445119
 20
10.1736909603
 30
0.0
 11
8.638445119
 21
13.8348447113
 31
0.0
  0
MTEXT
  5
F8
330
E9
100
AcDbEntity
  8
FORMAT
 62
     7
100
AcDbMText
 10
8.3710840043
 20
14.4912693628
 30
0.0
 40
0.2
 41
0.0
 71
     1
 72
     1
  1
8.01
  7
SLDTEXTSTYLE0
 73
     1
 44
1.0
  0
MTEXT
  5
F9
330
E9
100
AcDbEntity
  8
FORMAT
 62
     7
100
AcDbMText
 10
8.2183062742
 20
14.1384915856
 30
0.0
 40
0.2
 41
0.0
 71
     1
 72
     1
  1
203.45
  7
SLDTEXTSTYLE0
 73
     1
 44
1.0
  0
ENDBLK
  5
EB
330
E9
100
AcDbEntity
  8
0
100
AcDbBlockEnd
  0
BLOCK
  5
150
330
14F
100
AcDbEntity
  8
0
100
AcDbBlockBegin
  2
_D_2
 70
     0
 10
0.0
 20
0.0
 30
0.0
  3
_D_2
  1

  0
SOLID
  5
152
330
14F
100
AcDbEntity
  8
FORMAT
 62
     7
100
AcDbTrace
 10
27.4631687792
 20
16.0536909603
 30
0.0
 11
27.4331687792
 21
15.9036909603
 31
0.0
 12
27.4931687792
 22
15.9036909603
 32
0.0
 13
27.4931687792
 23
15.9036909603
 33
0.0
  0
SOLID
  5
153
330
14F
100
AcDbEntity
  8
FORMAT
 62
     7
100
AcDbTrace
 10
27.4631687792
 20
12.3036909603
 30
0.0
 11
27.4931687792
 21
12.4536909603
 31
0.0
 12
27.4331687792
 22
12.4536909603
 32
0.0
 13
27.4331687792
 23
12.4536909603
 33
0.0
  0
LINE
  5
154
330
14F
100
AcDbEntity
  8
FORMAT
 62
     7
100
AcDbLine
 10
27.1194187719
 20
14.3961044608
 30
0.0
 11
27.0506687686
 21
14.3961044608
 31
0.0
  0
LINE
  5
155
330
14F
100
AcDbEntity
  8
FORMAT
 62
     7
100
AcDbLine
 10
27.0506687686
 20
14.3961044608
 30
0.0
 11
27.0506687686
 21
14.08916001
 31
0.0
  0
LINE
  5
156
330
14F
100
AcDbEntity
  8
FORMAT
 62
     7
100
AcDbLine
 10
27.0506687686
 20
14.08916001
 30
0.0
 11
27.1194187719
 21
14.08916001
 31
0.0
  0
LINE
  5
157
330
14F
100
AcDbEntity
  8
FORMAT
 62
     7
100
AcDbLine
 10
27.8069187498
 20
14.3961044608
 30
0.0
 11
27.8756687531
 21
14.3961044608
 31
0.0
  0
LINE
  5
158
330
14F
100
AcDbEntity
  8
FORMAT
 62
     7
100
AcDbLine
 10
27.8756687531
 20
14.3961044608
 30
0.0
 11
27.8756687531
 21
14.08916001
 31
0.0
  0
LINE
  5
159
330
14F
100
AcDbEntity
  8
FORMAT
 62
     7
100
AcDbLine
 10
27.8756687531
 20
14.08916001
 30
0.0
 11
27.8069187498
 21
14.08916001
 31
0.0
  0
LINE
  5
15A
330
14F
100
AcDbEntity
  8
FORMAT
 62
     7
100
AcDbLine
 10
25.9251687792
 20
16.0536909603
 30
0.0
 11
27.5381687792
 21
16.0536909603
 31
0.0
  0
LINE
  5
15B
330
14F
100
AcDbEntity
  8
FORMAT
 62
     7
100
AcDbLine
 10
25.9251687792
 20
12.3036909603
 30
0.0
 11
27.5381687792
 21
12.3036909603
 31
0.0
  0
LINE
  5
15C
330
14F
100
AcDbEntity
  8
FORMAT
 62
     7
100
AcDbLine
 10
27.4631687792
 20
16.0536909603
 30
0.0
 11
27.4631687792
 21
14.7002711504
 31
0.0
  0
LINE
  5
15D
330
14F
100
AcDbEntity
  8
FORMAT
 62
     7
100
AcDbLine
 10
27.4631687792
 20
12.3036909603
 30
0.0
 11
27.4631687792
 21
14.0433266928
 31
0.0
  0
MTEXT
  5
15E
330
14F
100
AcDbEntity
  8
FORMAT
 62
     7
100
AcDbMText
 10
27.1958076644
 20
14.6997513443
 30
0.0
 40
0.2
 41
0.0
 71
     1
 72
     1
  1
3.75
  7
SLDTEXTSTYLE0
 73
     1
 44
1.0
  0
MTEXT
  5
15F
330
14F
100
AcDbEntity
  8
FORMAT
 62
     7
100
AcDbMText
 10
27.1194187719
 20
14.3469735671
 30
0.0
 40
0.2
 41
0.0
 71
     1
 72
     1
  1
95.25
  7
SLDTEXTSTYLE0
 73
     1
 44
1.0
  0
ENDBLK
  5
151
330
14F
100
AcDbEntity
  8
0
100
AcDbBlockEnd
  0
BLOCK
  5
162
330
161
100
AcDbEntity
  8
0
100
AcDbBlockBegin
  2
_D_3
 70
     0
 10
0.0
 20
0.0
 30
0.0
  3
_D_3
  1

  0
SOLID
  5
164
330
161
100
AcDbEntity
  8
FORMAT
 62
     7
100
AcDbTrace
 10
23.6831687792
 20
9.7111909603
 30
0.0
 11
23.8331687792
 21
9.6811909603
 31
0.0
 12
23.8331687792
 22
9.7411909603
 32
0.0
 13
23.8331687792
 23
9.7411909603
 33
0.0
  0
SOLID
  5
165
330
161
100
AcDbEntity
  8
FORMAT
 62
     7
100
AcDbTrace
 10
25.8751687792
 20
9.7111909603
 30
0.0
 11
25.7251687792
 21
9.7411909603
 31
0.0
 12
25.7251687792
 22
9.6811909603
 32
0.0
 13
25.7251687792
 23
9.6811909603
 33
0.0
  0
LINE
  5
166
330
161
100
AcDbEntity
  8
FORMAT
 62
     7
100
AcDbLine
 10
24.4010008369
 20
9.7354964995
 30
0.0
 11
24.3322508336
 21
9.7354964995
 31
0.0
  0
LINE
  5
167
330
161
100
AcDbEntity
  8
FORMAT
 62
     7
100
AcDbLine
 10
24.3322508336
 20
9.7354964995
 30
0.0
 11
24.3322508336
 21
9.4285520487
 31
0.0
  0
LINE
  5
168
330
161
100
AcDbEntity
  8
FORMAT
 62
     7
100
AcDbLine
 10
24.3322508336
 20
9.4285520487
 30
0.0
 11
24.4010008369
 21
9.4285520487
 31
0.0
  0
LINE
  5
169
330
161
100
AcDbEntity
  8
FORMAT
 62
     7
100
AcDbLine
 10
25.0885008149
 20
9.7354964995
 30
0.0
 11
25.1572508182
 21
9.7354964995
 31
0.0
  0
LINE
  5
16A
330
161
100
AcDbEntity
  8
FORMAT
 62
     7
100
AcDbLine
 10
25.1572508182
 20
9.7354964995
 30
0.0
 11
25.1572508182
 21
9.4285520487
 31
0.0
  0
LINE
  5
16B
330
161
100
AcDbEntity
  8
FORMAT
 62
     7
100
AcDbLine
 10
25.1572508182
 20
9.4285520487
 30
0.0
 11
25.0885008149
 21
9.4285520487
 31
0.0
  0
LINE
  5
16C
330
161
100
AcDbEntity
  8
FORMAT
 62
     7
100
AcDbLine
 10
23.6831687792
 20
12.2536909603
 30
0.0
 11
23.6831687792
 21
9.6361909603
 31
0.0
  0
LINE
  5
16D
330
161
100
AcDbEntity
  8
FORMAT
 62
     7
100
AcDbLine
 10
25.8751687792
 20
12.2536909603
 30
0.0
 11
25.8751687792
 21
9.6361909603
 31
0.0
  0
LINE
  5
16E
330
161
100
AcDbEntity
  8
FORMAT
 62
     7
100
AcDbLine
 10
23.6831687792
 20
9.7111909603
 30
0.0
 11
24.2176929777
 21
9.7111909603
 31
0.0
  0
LINE
  5
16F
330
161
100
AcDbEntity
  8
FORMAT
 62
     7
100
AcDbLine
 10
25.8751687792
 20
9.7111909603
 30
0.0
 11
25.2718087108
 21
9.7111909603
 31
0.0
  0
MTEXT
  5
170
330
161
100
AcDbEntity
  8
FORMAT
 62
     7
100
AcDbMText
 10
24.4773897295
 20
10.039143383
 30
0.0
 40
0.2
 41
0.0
 71
     1
 72
     1
  1
2.29
  7
SLDTEXTSTYLE0
 73
     1
 44
1.0
  0
MTEXT
  5
171
330
161
100
AcDbEntity
  8
FORMAT
 62
     7
100
AcDbMText
 10
24.4010008369
 20
9.6863656058
 30
0.0
 40
0.2
 41
0.0
 71
     1
 72
     1
  1
58.17
  7
SLDTEXTSTYLE0
 73
     1
 44
1.0
  0
ENDBLK
  5
163
330
161
100
AcDbEntity
  8
0
100
AcDbBlockEnd
  0
BLOCK
  5
175
330
174
100
AcDbEntity
  8
0
100
AcDbBlockBegin
  2
_D_4
 70
     0
 10
0.0
 20
0.0
 30
0.0
  3
_D_4
  1

  0
SOLID
  5
177
330
174
100
AcDbEntity
  8
FORMAT
 62
     7
100
AcDbTrace
 10
21.7931687792
 20
19.1836909603
 30
0.0
 11
21.6431687792
 21
19.2136909603
 31
0.0
 12
21.6431687792
 22
19.1536909603
 32
0.0
 13
21.6431687792
 23
19.1536909603
 33
0.0
  0
SOLID
  5
178
330
174
100
AcDbEntity
  8
FORMAT
 62
     7
100
AcDbTrace
 10
22.7231687792
 20
19.1836909603
 30
0.0
 11
22.8731687792
 21
19.1536909603
 31
0.0
 12
22.8731687792
 22
19.2136909603
 32
0.0
 13
22.8731687792
 23
19.2136909603
 33
0.0
  0
LINE
  5
179
330
174
100
AcDbEntity
  8
FORMAT
 62
     7
100
AcDbLine
 10
23.1696907929
 20
19.2079964995
 30
0.0
 11
23.1009407896
 21
19.2079964995
 31
0.0
  0
LINE
  5
17A
330
174
100
AcDbEntity
  8
FORMAT
 62
     7
100
AcDbLine
 10
23.1009407896
 20
19.2079964995
 30
0.0
 11
23.1009407896
 21
18.9010520487
 31
0.0
  0
LINE
  5
17B
330
174
100
AcDbEntity
  8
FORMAT
 62
     7
100
AcDbLine
 10
23.1009407896
 20
18.9010520487
 30
0.0
 11
23.1696907929
 21
18.9010520487
 31
0.0
  0
LINE
  5
17C
330
174
100
AcDbEntity
  8
FORMAT
 62
     7
100
AcDbLine
 10
23.8571907708
 20
19.2079964995
 30
0.0
 11
23.9259407741
 21
19.2079964995
 31
0.0
  0
LINE
  5
17D
330
174
100
AcDbEntity
  8
FORMAT
 62
     7
100
AcDbLine
 10
23.9259407741
 20
19.2079964995
 30
0.0
 11
23.9259407741
 21
18.9010520487
 31
0.0
  0
LINE
  5
17E
330
174
100
AcDbEntity
  8
FORMAT
 62
     7
100
AcDbLine
 10
23.9259407741
 20
18.9010520487
 30
0.0
 11
23.8571907708
 21
18.9010520487
 31
0.0
  0
LINE
  5
17F
330
174
100
AcDbEntity
  8
FORMAT
 62
     7
100
AcDbLine
 10
21.7931687792
 20
17.8379316237
 30
0.0
 11
21.7931687792
 21
19.2586909603
 31
0.0
  0
LINE
  5
180
330
174
100
AcDbEntity
  8
FORMAT
 62
     7
100
AcDbLine
 10
22.7231687792
 20
18.2336909603
 30
0.0
 11
22.7231687792
 21
19.2586909603
 31
0.0
  0
LINE
  5
181
330
174
100
AcDbEntity
  8
FORMAT
 62
     7
100
AcDbLine
 10
21.7931687792
 20
19.1836909603
 30
0.0
 11
21.5431687792
 21
19.1836909603
 31
0.0
  0
LINE
  5
182
330
174
100
AcDbEntity
  8
FORMAT
 62
     7
100
AcDbLine
 10
22.7231687792
 20
19.1836909603
 30
0.0
 11
22.9863829336
 21
19.1836909603
 31
0.0
  0
MTEXT
  5
183
330
174
100
AcDbEntity
  8
FORMAT
 62
     7
100
AcDbMText
 10
23.322468578
 20
19.511643383
 30
0.0
 40
0.2
 41
0.0
 71
     1
 72
     1
  1
.93
  7
SLDTEXTSTYLE0
 73
     1
 44
1.0
  0
MTEXT
  5
184
330
174
100
AcDbEntity
  8
FORMAT
 62
     7
100
AcDbMText
 10
23.1696907929
 20
19.1588656058
 30
0.0
 40
0.2
 41
0.0
 71
     1
 72
     1
  1
23.62
  7
SLDTEXTSTYLE0
 73
     1
 44
1.0
  0
ENDBLK
  5
176
330
174
100
AcDbEntity
  8
0
100
AcDbBlockEnd
  0
BLOCK
  5
187
330
186
100
AcDbEntity
  8
0
100
AcDbBlockBegin
  2
_D_5
 70
     0
 10
0.0
 20
0.0
 30
0.0
  3
_D_5
  1

  0
SOLID
  5
189
330
186
100
AcDbEntity
  8
FORMAT
 62
     7
100
AcDbTrace
 10
21.7931687792
 20
20.1836909603
 30
0.0
 11
21.9431687792
 21
20.1536909603
 31
0.0
 12
21.9431687792
 22
20.2136909603
 32
0.0
 13
21.9431687792
 23
20.2136909603
 33
0.0
  0
SOLID
  5
18A
330
186
100
AcDbEntity
  8
FORMAT
 62
     7
100
AcDbTrace
 10
26.4631687792
 20
20.1836909603
 30
0.0
 11
26.3131687792
 21
20.2136909603
 31
0.0
 12
26.3131687792
 22
20.1536909603
 32
0.0
 13
26.3131687792
 23
20.1536909603
 33
0.0
  0
LINE
  5
18B
330
186
100
AcDbEntity
  8
FORMAT
 62
     7
100
AcDbLine
 10
23.6662196251
 20
20.2079964995
 30
0.0
 11
23.5974696218
 21
20.2079964995
 31
0.0
  0
LINE
  5
18C
330
186
100
AcDbEntity
  8
FORMAT
 62
     7
100
AcDbLine
 10
23.5974696218
 20
20.2079964995
 30
0.0
 11
23.5974696218
 21
19.9010520487
 31
0.0
  0
LINE
  5
18D
330
186
100
AcDbEntity
  8
FORMAT
 62
     7
100
AcDbLine
 10
23.5974696218
 20
19.9010520487
 30
0.0
 11
23.6662196251
 21
19.9010520487
 31
0.0
  0
LINE
  5
18E
330
186
100
AcDbEntity
  8
FORMAT
 62
     7
100
AcDbLine
 10
24.5064973515
 20
20.2079964995
 30
0.0
 11
24.5752473548
 21
20.2079964995
 31
0.0
  0
LINE
  5
18F
330
186
100
AcDbEntity
  8
FORMAT
 62
     7
100
AcDbLine
 10
24.5752473548
 20
20.2079964995
 30
0.0
 11
24.5752473548
 21
19.9010520487
 31
0.0
  0
LINE
  5
190
330
186
100
AcDbEntity
  8
FORMAT
 62
     7
100
AcDbLine
 10
24.5752473548
 20
19.9010520487
 30
0.0
 11
24.5064973515
 21
19.9010520487
 31
0.0
  0
LINE
  5
191
330
186
100
AcDbEntity
  8
FORMAT
 62
     7
100
AcDbLine
 10
21.7931687792
 20
17.8379316237
 30
0.0
 11
21.7931687792
 21
20.2586909603
 31
0.0
  0
LINE
  5
192
330
186
100
AcDbEntity
  8
FORMAT
 62
     7
100
AcDbLine
 10
26.4631687792
 20
15.3961909603
 30
0.0
 11
26.4631687792
 21
20.2586909603
 31
0.0
  0
LINE
  5
193
330
186
100
AcDbEntity
  8
FORMAT
 62
     7
100
AcDbLine
 10
21.7931687792
 20
20.1836909603
 30
0.0
 11
23.4829117659
 21
20.1836909603
 31
0.0
  0
LINE
  5
194
330
186
100
AcDbEntity
  8
FORMAT
 62
     7
100
AcDbLine
 10
26.4631687792
 20
20.1836909603
 30
0.0
 11
24.6898051741
 21
20.1836909603
 31
0.0
  0
MTEXT
  5
195
330
186
100
AcDbEntity
  8
FORMAT
 62
     7
100
AcDbMText
 10
23.8189973552
 20
20.511643383
 30
0.0
 40
0.2
 41
0.0
 71
     1
 72
     1
  1
4.67
  7
SLDTEXTSTYLE0
 73
     1
 44
1.0
  0
MTEXT
  5
196
330
186
100
AcDbEntity
  8
FORMAT
 62
     7
100
AcDbMText
 10
23.6662196251
 20
20.1588656058
 30
0.0
 40
0.2
 41
0.0
 71
     1
 72
     1
  1
118.62
  7
SLDTEXTSTYLE0
 73
     1
 44
1.0
  0
ENDBLK
  5
188
330
186
100
AcDbEntity
  8
0
100
AcDbBlockEnd
  0
ENDSEC
  0
SECTION
  2
ENTITIES
  0
INSERT
  5
7C
330
1F
100
AcDbEntity
  8
FORMAT
 62
     7
100
AcDbBlockReference
  2
SW_NOTE_0
 10
24.7605268577
 20
1.6746649099
 30
0.0
  0
ARC
  5
7D
330
1F
100
AcDbEntity
  8
0
  6
Continuous
 62
     7
370
    25
100
AcDbCircle
 10
9.884445119
 20
17.856540535
 30
0.0
 40
0.0600000000000005
100
AcDbArc
 50
90.0
 51
180.0
  0
LINE
  5
7E
330
1F
100
AcDbEntity
  8
0
  6
Continuous
 62
     7
370
    25
100
AcDbLine
 10
18.914445119
 20
17.916540535
 30
0.0
 11
9.884445119
 21
17.916540535
 31
0.0
  0
ARC
  5
7F
330
1F
100
AcDbEntity
  8
0
  6
Continuous
 62
     7
370
    25
100
AcDbCircle
 10
18.914445119
 20
17.856540535
 30
0.0
 40
0.0599999999999987
100
AcDbArc
 50
0.0
 51
90.0
  0
LINE
  5
80
330
1F
100
AcDbEntity
  8
0
  6
Continuous
 62
     7
370
    25
100
AcDbLine
 10
18.974445119
 20
17.7896771302
 30
0.0
 11
18.974445119
 21
17.856540535
 31
0.0
  0
LINE
  5
81
330
1F
100
AcDbEntity
  8
0
  6
Continuous
 62
     7
370
    25
100
AcDbLine
 10
9.824445119
 20
17.856540535
 30
0.0
 11
9.824445119
 21
17.7896771302
 31
0.0
  0
LINE
  5
82
330
1F
100
AcDbEntity
  8
0
  6
Continuous
 62
     7
370
    25
100
AcDbLine
 10
11.9304720137
 20
10.316540535
 30
0.0
 11
16.8684182244
 21
10.316540535
 31
0.0
  0
LINE
  5
83
330
1F
100
AcDbEntity
  8
0
  6
Continuous
 62
     7
370
    25
100
AcDbLine
 10
18.7889402759
 20
10.5451958035
 30
0.0
 11
18.7906857824
 21
10.543450297
 31
0.0
  0
LINE
  5
84
330
1F
100
AcDbEntity
  8
0
  6
Continuous
 62
     7
370
    25
100
AcDbLine
 10
16.874445119
 20
10.543450297
 30
0.0
 11
18.7906857824
 21
10.543450297
 31
0.0
  0
LINE
  5
85
330
1F
100
AcDbEntity
  8
0
  6
Continuous
 62
     7
370
    25
100
AcDbLine
 10
16.8692043411
 20
10.5451958035
 30
0.0
 11
16.874445119
 21
10.543450297
 31
0.0
  0
LINE
  5
86
330
1F
100
AcDbEntity
  8
0
  6
Continuous
 62
     7
370
    25
100
AcDbLine
 10
18.7889402759
 20
10.5451958035
 30
0.0
 11
16.8692043411
 21
10.5451958035
 31
0.0
  0
LINE
  5
87
330
1F
100
AcDbEntity
  8
0
  6
Continuous
 62
     7
370
    25
100
AcDbLine
 10
11.9613926034
 20
10.1854827107
 30
0.0
 11
11.9274250171
 21
10.219450297
 31
0.0
  0
ELLIPSE
  5
88
330
1F
100
AcDbEntity
  8
0
  6
Continuous
 62
     7
370
    25
100
AcDbEllipse
 10
11.9275895858
 20
10.2793680691
 30
0.0
 11
0.0
 21
0.0600000000000005
 31
0.0
210
0.0
220
0.0
230
1.0
 40
0.0524077793
 41
1.570796326794897
 42
3.089232776030574
  0
LINE
  5
89
330
1F
100
AcDbEntity
  8
0
  6
Continuous
 62
     7
370
    25
100
AcDbLine
 10
11.924445119
 20
10.543450297
 30
0.0
 11
11.924445119
 21
10.2793680691
 31
0.0
  0
LINE
  5
8A
330
1F
100
AcDbEntity
  8
0
  6
Continuous
 62
     7
370
    25
100
AcDbLine
 10
11.924445119
 20
10.543450297
 30
0.0
 11
11.929685897
 21
10.5451958035
 31
0.0
  0
LINE
  5
8B
330
1F
100
AcDbEntity
  8
0
  6
Continuous
 62
     7
370
    25
100
AcDbLine
 10
11.929685897
 20
10.5451958035
 30
0.0
 11
11.929685897
 21
10.3173266517
 31
0.0
  0
LINE
  5
8C
330
1F
100
AcDbEntity
  8
0
  6
Continuous
 62
     7
370
    25
100
AcDbLine
 10
11.9613926034
 20
10.2856199453
 30
0.0
 11
11.929685897
 21
10.3173266517
 31
0.0
  0
LINE
  5
8D
330
1F
100
AcDbEntity
  8
0
  6
Continuous
 62
     7
370
    25
100
AcDbLine
 10
11.9613926034
 20
10.1854827107
 30
0.0
 11
11.9613926034
 21
10.2856199453
 31
0.0
  0
LINE
  5
8E
330
1F
100
AcDbEntity
  8
0
  6
Continuous
 62
     7
370
    25
100
AcDbLine
 10
10.0082044557
 20
17.7879316237
 30
0.0
 11
10.0082044557
 21
10.543450297
 31
0.0
  0
LINE
  5
8F
330
1F
100
AcDbEntity
  8
0
  6
Continuous
 62
     7
370
    25
100
AcDbLine
 10
10.0082044557
 20
10.543450297
 30
0.0
 11
11.924445119
 21
10.543450297
 31
0.0
  0
LINE
  5
90
330
1F
100
AcDbEntity
  8
0
  6
Continuous
 62
     7
370
    25
100
AcDbLine
 10
9.838445119
 20
10.2793680691
 30
0.0
 11
11.924445119
 21
10.2793680691
 31
0.0
  0
ARC
  5
91
330
1F
100
AcDbEntity
  8
0
  6
Continuous
 62
     7
370
    25
100
AcDbCircle
 10
9.838445119
 20
10.3736909603
 30
0.0
 40
0.0943228912638787
100
AcDbArc
 50
180.0
 51
270.0
  0
LINE
  5
92
330
1F
100
AcDbEntity
  8
0
  6
Continuous
 62
     7
370
    25
100
AcDbLine
 10
9.7441222278
 20
17.7879316237
 30
0.0
 11
9.7441222278
 21
10.3736909603
 31
0.0
  0
LINE
  5
93
330
1F
100
AcDbEntity
  8
0
  6
Continuous
 62
     7
370
    25
100
AcDbLine
 10
9.7441222278
 20
17.7879316237
 30
0.0
 11
10.0082044557
 21
17.7879316237
 31
0.0
  0
LINE
  5
94
330
1F
100
AcDbEntity
  8
0
  6
Continuous
 62
     7
370
    25
100
AcDbLine
 10
11.9274250171
 20
10.219450297
 30
0.0
 11
9.838445119
 21
10.219450297
 31
0.0
  0
LINE
  5
95
330
1F
100
AcDbEntity
  8
0
  6
Continuous
 62
     7
370
    25
100
AcDbLine
 10
9.838445119
 20
10.219450297
 30
0.0
 11
9.838445119
 21
10.2793680691
 31
0.0
  0
LINE
  5
96
330
1F
100
AcDbEntity
  8
0
  6
Continuous
 62
     7
370
    25
100
AcDbLine
 10
10.0099499622
 20
10.5451958035
 30
0.0
 11
10.0082044557
 21
10.543450297
 31
0.0
  0
LINE
  5
97
330
1F
100
AcDbEntity
  8
0
  6
Continuous
 62
     7
370
    25
100
AcDbLine
 10
11.929685897
 20
10.5451958035
 30
0.0
 11
10.0099499622
 21
10.5451958035
 31
0.0
  0
LINE
  5
98
330
1F
100
AcDbEntity
  8
0
  6
Continuous
 62
     7
370
    25
100
AcDbLine
 10
9.6842044557
 20
17.7889241159
 30
0.0
 11
9.6767027979
 21
17.7914226366
 31
0.0
  0
LINE
  5
99
330
1F
100
AcDbEntity
  8
0
  6
Continuous
 62
     7
370
    25
100
AcDbLine
 10
9.6767027979
 20
17.7914226366
 30
0.0
 11
9.7768400325
 21
17.7914226366
 31
0.0
  0
LINE
  5
9A
330
1F
100
AcDbEntity
  8
0
  6
Continuous
 62
     7
370
    25
100
AcDbLine
 10
9.7820808105
 20
17.7896771302
 30
0.0
 11
9.7768400325
 21
17.7914226366
 31
0.0
  0
LINE
  5
9B
330
1F
100
AcDbEntity
  8
0
  6
Continuous
 62
     7
370
    25
100
AcDbLine
 10
9.7820808105
 20
17.7896771302
 30
0.0
 11
10.0099499622
 21
17.7896771302
 31
0.0
  0
LINE
  5
9C
330
1F
100
AcDbEntity
  8
0
  6
Continuous
 62
     7
370
    25
100
AcDbLine
 10
10.0099499622
 20
17.7896771302
 30
0.0
 11
10.0082044557
 21
17.7879316237
 31
0.0
  0
ELLIPSE
  5
9D
330
1F
100
AcDbEntity
  8
0
  6
Continuous
 62
     7
370
    25
100
AcDbEllipse
 10
9.7441222278
 20
17.7889789276
 30
0.0
 11
0.0600000000000005
 21
0.0
 31
0.0
210
0.0
220
0.0
230
1.0
 40
0.0174550649
 41
3.19395253115132
 42
4.71238898038469
  0
ARC
  5
9E
330
1F
100
AcDbEntity
  8
0
  6
Continuous
 62
     7
370
    25
100
AcDbCircle
 10
9.838445119
 20
10.3736909603
 30
0.0
 40
0.1542406633491531
100
AcDbArc
 50
180.0
 51
270.0
  0
LINE
  5
9F
330
1F
100
AcDbEntity
  8
0
  6
Continuous
 62
     7
370
    25
100
AcDbLine
 10
9.7441222278
 20
10.3736909603
 30
0.0
 11
9.6842044557
 21
10.3736909603
 31
0.0
  0
LINE
  5
A0
330
1F
100
AcDbEntity
  8
0
  6
Continuous
 62
     7
370
    25
100
AcDbLine
 10
18.7889402759
 20
17.7896771302
 30
0.0
 11
18.7889402759
 21
10.5451958035
 31
0.0
  0
LINE
  5
A1
330
1F
100
AcDbEntity
  8
0
  6
Continuous
 62
     7
370
    25
100
AcDbLine
 10
18.7906857824
 20
17.7879316237
 30
0.0
 11
18.7889402759
 21
17.7896771302
 31
0.0
  0
LINE
  5
A2
330
1F
100
AcDbEntity
  8
0
  6
Continuous
 62
     7
370
    25
100
AcDbLine
 10
18.7906857824
 20
10.543450297
 30
0.0
 11
18.7906857824
 21
17.7879316237
 31
0.0
  0
LINE
  5
A3
330
1F
100
AcDbEntity
  8
0
  6
Continuous
 62
     7
370
    25
100
AcDbLine
 10
19.1146857824
 20
17.7889241159
 30
0.0
 11
19.1146857824
 21
10.3736909603
 31
0.0
  0
LINE
  5
A4
330
1F
100
AcDbEntity
  8
0
  6
Continuous
 62
     7
370
    25
100
AcDbLine
 10
19.1146857824
 20
10.3736909603
 30
0.0
 11
19.0547680103
 21
10.3736909603
 31
0.0
  0
LINE
  5
A5
330
1F
100
AcDbEntity
  8
0
  6
Continuous
 62
     7
370
    25
100
AcDbLine
 10
19.0547680103
 20
10.3736909603
 30
0.0
 11
19.0547680103
 21
17.7879316237
 31
0.0
  0
ELLIPSE
  5
A6
330
1F
100
AcDbEntity
  8
0
  6
Continuous
 62
     7
370
    25
100
AcDbEllipse
 10
19.0547680103
 20
17.7889789276
 30
0.0
 11
0.05999999999999872
 21
0.0
 31
0.0
210
0.0
220
0.0
230
1.0
 40
0.0174550649
 41
4.71238898038469
 42
6.230825429619638
  0
ARC
  5
A7
330
1F
100
AcDbEntity
  8
0
  6
Continuous
 62
     7
370
    25
100
AcDbCircle
 10
18.960445119
 20
10.3736909603
 30
0.0
 40
0.1542406633491531
100
AcDbArc
 50
270.0
 51
0.0
  0
LINE
  5
A8
330
1F
100
AcDbEntity
  8
0
  6
Continuous
 62
     7
370
    25
100
AcDbLine
 10
18.960445119
 20
10.219450297
 30
0.0
 11
18.960445119
 21
10.2793680691
 31
0.0
  0
ARC
  5
A9
330
1F
100
AcDbEntity
  8
0
  6
Continuous
 62
     7
370
    25
100
AcDbCircle
 10
18.960445119
 20
10.3736909603
 30
0.0
 40
0.0943228912638823
100
AcDbArc
 50
270.0
 51
0.0
  0
LINE
  5
AA
330
1F
100
AcDbEntity
  8
0
  6
Continuous
 62
     7
370
    25
100
AcDbLine
 10
10.0099499622
 20
10.5451958035
 30
0.0
 11
10.0099499622
 21
17.7896771302
 31
0.0
  0
LINE
  5
AB
330
1F
100
AcDbEntity
  8
0
  6
Continuous
 62
     7
370
    25
100
AcDbLine
 10
16.874445119
 20
10.2793680691
 30
0.0
 11
18.960445119
 21
10.2793680691
 31
0.0
  0
LINE
  5
AC
330
1F
100
AcDbEntity
  8
0
  6
Continuous
 62
     7
370
    25
100
AcDbLine
 10
16.874445119
 20
10.2793680691
 30
0.0
 11
16.874445119
 21
10.543450297
 31
0.0
  0
LINE
  5
AD
330
1F
100
AcDbEntity
  8
0
  6
Continuous
 62
     7
370
    25
100
AcDbLine
 10
18.7906857824
 20
17.7879316237
 30
0.0
 11
19.0547680103
 21
17.7879316237
 31
0.0
  0
LINE
  5
AE
330
1F
100
AcDbEntity
  8
0
  6
Continuous
 62
     7
370
    25
100
AcDbLine
 10
19.1221874402
 20
17.7914226366
 30
0.0
 11
19.1146857824
 21
17.7889241159
 31
0.0
  0
LINE
  5
AF
330
1F
100
AcDbEntity
  8
0
  6
Continuous
 62
     7
370
    25
100
AcDbLine
 10
18.7889402759
 20
17.7896771302
 30
0.0
 11
19.0168094276
 21
17.7896771302
 31
0.0
  0
LINE
  5
B0
330
1F
100
AcDbEntity
  8
0
  6
Continuous
 62
     7
370
    25
100
AcDbLine
 10
19.0220502056
 20
17.7914226366
 30
0.0
 11
19.0168094276
 21
17.7896771302
 31
0.0
  0
LINE
  5
B1
330
1F
100
AcDbEntity
  8
0
  6
Continuous
 62
     7
370
    25
100
AcDbLine
 10
19.0220502056
 20
17.7914226366
 30
0.0
 11
19.1221874402
 21
17.7914226366
 31
0.0
  0
LINE
  5
B2
330
1F
100
AcDbEntity
  8
0
  6
Continuous
 62
     7
370
    25
100
AcDbLine
 10
9.6842044557
 20
10.3736909603
 30
0.0
 11
9.6842044557
 21
17.7889241159
 31
0.0
  0
LINE
  5
B3
330
1F
100
AcDbEntity
  8
0
  6
Continuous
 62
     7
370
    25
100
AcDbLine
 10
18.960445119
 20
10.219450297
 30
0.0
 11
16.871465221
 21
10.219450297
 31
0.0
  0
ELLIPSE
  5
B4
330
1F
100
AcDbEntity
  8
0
  6
Continuous
 62
     7
370
    25
100
AcDbEllipse
 10
16.8713006523
 20
10.2793680691
 30
0.0
 11
0.0
 21
0.0600000000000005
 31
0.0
210
0.0
220
0.0
230
1.0
 40
0.0524077793
 41
3.193952531150381
 42
4.712388980384691
  0
LINE
  5
B5
330
1F
100
AcDbEntity
  8
0
  6
Continuous
 62
     7
370
    25
100
AcDbLine
 10
16.871465221
 20
10.219450297
 30
0.0
 11
16.8374976347
 21
10.1854827107
 31
0.0
  0
LINE
  5
B6
330
1F
100
AcDbEntity
  8
0
  6
Continuous
 62
     7
370
    25
100
AcDbLine
 10
16.8374976347
 20
10.2856199453
 30
0.0
 11
16.8374976347
 21
10.1854827107
 31
0.0
  0
LINE
  5
B7
330
1F
100
AcDbEntity
  8
0
  6
Continuous
 62
     7
370
    25
100
AcDbLine
 10
16.8692043411
 20
10.3173266517
 30
0.0
 11
16.8374976347
 21
10.2856199453
 31
0.0
  0
LINE
  5
B8
330
1F
100
AcDbEntity
  8
0
  6
Continuous
 62
     7
370
    25
100
AcDbLine
 10
16.8692043411
 20
10.3173266517
 30
0.0
 11
16.8692043411
 21
10.5451958035
 31
0.0
  0
LINE
  5
B9
330
1F
100
AcDbEntity
  8
0
  6
Continuous
 62
     7
370
    25
100
AcDbLine
 10
18.960445119
 20
10.219450297
 30
0.0
 11
18.960445119
 21
10.1736909603
 31
0.0
  0
LINE
  5
BA
330
1F
100
AcDbEntity
  8
0
  6
Continuous
 62
     7
370
    25
100
AcDbLine
 10
9.838445119
 20
10.1736909603
 30
0.0
 11
18.960445119
 21
10.1736909603
 31
0.0
  0
LINE
  5
BB
330
1F
100
AcDbEntity
  8
0
  6
Continuous
 62
     7
370
    25
100
AcDbLine
 10
9.838445119
 20
10.219450297
 30
0.0
 11
9.838445119
 21
10.1736909603
 31
0.0
  0
LINE
  5
BC
330
1F
100
AcDbEntity
  8
0
  6
Continuous
 62
     7
370
    25
100
AcDbLine
 10
11.9613926034
 20
10.1854827107
 30
0.0
 11
16.8374976347
 21
10.1854827107
 31
0.0
  0
LINE
  5
BD
330
1F
100
AcDbEntity
  8
0
  6
Continuous
 62
     7
370
    25
100
AcDbLine
 10
9.6842044557
 20
10.3736909603
 30
0.0
 11
9.638445119
 21
10.3736909603
 31
0.0
  0
LINE
  5
BE
330
1F
100
AcDbEntity
  8
0
  6
Continuous
 62
     7
370
    25
100
AcDbLine
 10
9.638445119
 20
17.9836909603
 30
0.0
 11
9.638445119
 21
10.3736909603
 31
0.0
  0
LINE
  5
BF
330
1F
100
AcDbEntity
  8
0
  6
Continuous
 62
     7
370
    25
100
AcDbLine
 10
9.6767027979
 20
17.9836909603
 30
0.0
 11
9.638445119
 21
17.9836909603
 31
0.0
  0
LINE
  5
C0
330
1F
100
AcDbEntity
  8
0
  6
Continuous
 62
     7
370
    25
100
AcDbLine
 10
9.6767027979
 20
17.9836909603
 30
0.0
 11
9.6767027979
 21
17.7914226366
 31
0.0
  0
LINE
  5
C1
330
1F
100
AcDbEntity
  8
0
  6
Continuous
 62
     7
370
    25
100
AcDbLine
 10
19.1221874402
 20
17.9836909603
 30
0.0
 11
19.160445119
 21
17.9836909603
 31
0.0
  0
LINE
  5
C2
330
1F
100
AcDbEntity
  8
0
  6
Continuous
 62
     7
370
    25
100
AcDbLine
 10
19.160445119
 20
10.3736909603
 30
0.0
 11
19.160445119
 21
17.9836909603
 31
0.0
  0
LINE
  5
C3
330
1F
100
AcDbEntity
  8
0
  6
Continuous
 62
     7
370
    25
100
AcDbLine
 10
19.1146857824
 20
10.3736909603
 30
0.0
 11
19.160445119
 21
10.3736909603
 31
0.0
  0
LINE
  5
C4
330
1F
100
AcDbEntity
  8
0
  6
Continuous
 62
     7
370
    25
100
AcDbLine
 10
19.1221874402
 20
17.7914226366
 30
0.0
 11
19.1221874402
 21
17.9836909603
 31
0.0
  0
ARC
  5
C5
330
1F
100
AcDbEntity
  8
0
  6
Continuous
 62
     7
370
    25
100
AcDbCircle
 10
18.960445119
 20
10.3736909603
 30
0.0
 40
0.2000000000000028
100
AcDbArc
 50
270.0
 51
0.0
  0
ARC
  5
C6
330
1F
100
AcDbEntity
  8
0
  6
Continuous
 62
     7
370
    25
100
AcDbCircle
 10
9.838445119
 20
10.3736909603
 30
0.0
 40
0.2000000000000011
100
AcDbArc
 50
180.0
 51
270.0
  0
ARC
  5
C7
330
1F
100
AcDbEntity
  8
0
  6
Continuous
 62
     7
370
    25
100
AcDbCircle
 10
9.838445119
 20
17.9836909603
 30
0.0
 40
0.1999999999999993
100
AcDbArc
 50
90.0
 51
180.0
  0
LINE
  5
C8
330
1F
100
AcDbEntity
  8
0
  6
Continuous
 62
     7
370
    25
100
AcDbLine
 10
9.838445119
 20
18.1454332814
 30
0.0
 11
9.838445119
 21
18.1836909603
 31
0.0
  0
ARC
  5
C9
330
1F
100
AcDbEntity
  8
0
  6
Continuous
 62
     7
370
    25
100
AcDbCircle
 10
9.838445119
 20
17.9836909603
 30
0.0
 40
0.1617423211233806
100
AcDbArc
 50
90.0
 51
180.0
  0
LINE
  5
CA
330
1F
100
AcDbEntity
  8
0
  6
Continuous
 62
     7
370
    25
100
AcDbLine
 10
18.960445119
 20
18.1454332814
 30
0.0
 11
18.960445119
 21
18.1836909603
 31
0.0
  0
ARC
  5
CB
330
1F
100
AcDbEntity
  8
0
  6
Continuous
 62
     7
370
    25
100
AcDbCircle
 10
18.960445119
 20
17.9836909603
 30
0.0
 40
0.1999999999999993
100
AcDbArc
 50
360.0
 51
90.0
  0
ARC
  5
CC
330
1F
100
AcDbEntity
  8
0
  6
Continuous
 62
     7
370
    25
100
AcDbCircle
 10
18.960445119
 20
17.9836909603
 30
0.0
 40
0.1617423211233806
100
AcDbArc
 50
0.0
 51
90.0
  0
LINE
  5
CD
330
1F
100
AcDbEntity
  8
0
  6
Continuous
 62
     7
370
    25
100
AcDbLine
 10
18.960445119
 20
18.1836909603
 30
0.0
 11
9.838445119
 21
18.1836909603
 31
0.0
  0
LINE
  5
CE
330
1F
100
AcDbEntity
  8
0
  6
Continuous
 62
     7
370
    25
100
AcDbLine
 10
18.960445119
 20
18.1454332814
 30
0.0
 11
9.838445119
 21
18.1454332814
 31
0.0
  0
LINE
  5
CF
330
1F
100
AcDbEntity
  8
0
  6
Continuous
 62
     7
370
    25
100
AcDbLine
 10
9.7768400325
 20
17.8127602616
 30
0.0
 11
9.824445119
 21
17.8127602616
 31
0.0
  0
LINE
  5
D0
330
1F
100
AcDbEntity
  8
0
  6
Continuous
 62
     7
370
    25
100
AcDbLine
 10
18.974445119
 20
17.8127602616
 30
0.0
 11
19.0220502056
 21
17.8127602616
 31
0.0
  0
LINE
  5
D1
330
1F
100
AcDbEntity
  8
0
  6
Continuous
 62
     7
370
    25
100
AcDbLine
 10
9.7768400325
 20
17.8127602616
 30
0.0
 11
9.7768400325
 21
17.7914226366
 31
0.0
  0
LINE
  5
D2
330
1F
100
AcDbEntity
  8
0
  6
Continuous
 62
     7
370
    25
100
AcDbLine
 10
19.0220502056
 20
17.7914226366
 30
0.0
 11
19.0220502056
 21
17.8127602616
 31
0.0
  0
LINE
  5
D3
330
1F
100
AcDbEntity
  8
0
  6
Continuous
 62
     7
370
    25
100
AcDbLine
 10
16.8374976347
 20
10.2856199453
 30
0.0
 11
16.8374976347
 21
10.316540535
 31
0.0
  0
LINE
  5
D4
330
1F
100
AcDbEntity
  8
0
  6
Continuous
 62
     7
370
    25
100
AcDbLine
 10
11.9613926034
 20
10.316540535
 30
0.0
 11
11.9613926034
 21
10.2856199453
 31
0.0
  0
DIMENSION
  5
D5
330
1F
100
AcDbEntity
  8
FORMAT
 62
     7
100
AcDbDimension
  2
_D
 10
19.160445119
 20
19.1317678225
 30
0.0
 11
14.4840868829
 21
19.1317678225
 31
0.0
 70
   160
  1
<>
 71
     2
 42
-1.0
  3
SLDDIMSTYLE0
100
AcDbAlignedDimension
 13
9.638445119
 23
17.9836909603
 33
0.0
 14
19.160445119
 24
17.9836909603
 34
0.0
100
AcDbRotatedDimension
  0
DIMENSION
  5
E8
330
1F
100
AcDbEntity
  8
FORMAT
 62
     7
100
AcDbDimension
  2
_D_1
 10
8.638445119
 20
10.1736909603
 30
0.0
 11
8.638445119
 21
14.1633169401
 31
0.0
 70
   160
  1
<>
 71
     2
 42
-1.0
  3
SLDDIMSTYLE0
100
AcDbAlignedDimension
 13
9.838445119
 23
18.1836909603
 33
0.0
 14
9.838445119
 24
10.1736909603
 34
0.0
 50
90.0
100
AcDbRotatedDimension
  0
LINE
  5
FA
330
1F
100
AcDbEntity
  8
0
  6
Continuous
 62
     7
370
    25
100
AcDbLine
 10
21.9081687792
 20
17.916540535
 30
0.0
 11
21.9781687792
 21
17.916540535
 31
0.0
  0
LINE
  5
FB
330
1F
100
AcDbEntity
  8
0
  6
Continuous
 62
     7
370
    25
100
AcDbLine
 10
21.9781687792
 20
17.916540535
 30
0.0
 11
21.9781687792
 21
17.856540535
 31
0.0
  0
LINE
  5
FC
330
1F
100
AcDbEntity
  8
0
  6
Continuous
 62
     7
370
    25
100
AcDbLine
 10
21.9781687792
 20
17.856540535
 30
0.0
 11
21.9081687792
 21
17.856540535
 31
0.0
  0
LINE
  5
FD
330
1F
100
AcDbEntity
  8
0
  6
Continuous
 62
     7
370
    25
100
AcDbLine
 10
21.9081687792
 20
17.856540535
 30
0.0
 11
21.9081687792
 21
17.916540535
 31
0.0
  0
LINE
  5
FE
330
1F
100
AcDbEntity
  8
0
  6
Continuous
 62
     7
370
    25
100
AcDbLine
 10
21.9081687792
 20
17.7899389561
 30
0.0
 11
21.9081687792
 21
17.856540535
 31
0.0
  0
LINE
  5
FF
330
1F
100
AcDbEntity
  8
0
  6
Continuous
 62
     7
370
    25
100
AcDbLine
 10
21.9781687792
 20
17.7911608107
 30
0.0
 11
21.9781687792
 21
17.856540535
 31
0.0
  0
LINE
  5
100
330
1F
100
AcDbEntity
  8
0
  6
Continuous
 62
     7
370
    25
100
AcDbLine
 10
21.9931687792
 20
17.9836909603
 30
0.0
 11
22.7231687792
 21
17.9836909603
 31
0.0
  0
LINE
  5
101
330
1F
100
AcDbEntity
  8
0
  6
Continuous
 62
     7
370
    25
100
AcDbLine
 10
22.7231687792
 20
10.3736909603
 30
0.0
 11
22.7231687792
 21
17.9836909603
 31
0.0
  0
LINE
  5
102
330
1F
100
AcDbEntity
  8
0
  6
Continuous
 62
     7
370
    25
100
AcDbLine
 10
21.8500286218
 20
10.3736909603
 30
0.0
 11
22.7231687792
 21
10.3736909603
 31
0.0
  0
LINE
  5
103
330
1F
100
AcDbEntity
  8
0
  6
Continuous
 62
     7
370
    25
100
AcDbLine
 10
21.8500286218
 20
17.7889241159
 30
0.0
 11
21.8500286218
 21
10.3736909603
 31
0.0
  0
LINE
  5
104
330
1F
100
AcDbEntity
  8
0
  6
Continuous
 62
     7
370
    25
100
AcDbLine
 10
21.9931687792
 20
17.7914226366
 30
0.0
 11
21.8500286218
 21
17.7889241159
 31
0.0
  0
LINE
  5
105
330
1F
100
AcDbEntity
  8
0
  6
Continuous
 62
     7
370
    25
100
AcDbLine
 10
21.9931687792
 20
17.7914226366
 30
0.0
 11
21.9931687792
 21
17.9836909603
 31
0.0
  0
LINE
  5
106
330
1F
100
AcDbEntity
  8
0
  6
Continuous
 62
     7
370
    25
100
AcDbLine
 10
21.8500286218
 20
10.219450297
 30
0.0
 11
22.7231687792
 21
10.1736909603
 31
0.0
  0
LINE
  5
107
330
1F
100
AcDbEntity
  8
0
  6
Continuous
 62
     7
370
    25
100
AcDbLine
 10
21.8500286218
 20
10.3736909603
 30
0.0
 11
21.8500286218
 21
10.219450297
 31
0.0
  0
LINE
  5
108
330
1F
100
AcDbEntity
  8
0
  6
Continuous
 62
     7
370
    25
100
AcDbLine
 10
22.7231687792
 20
10.1736909603
 30
0.0
 11
22.7231687792
 21
10.3736909603
 31
0.0
  0
LINE
  5
109
330
1F
100
AcDbEntity
  8
0
  6
Continuous
 62
     7
370
    25
100
AcDbLine
 10
21.9931687792
 20
18.1454332814
 30
0.0
 11
22.7231687792
 21
18.1836909603
 31
0.0
  0
LINE
  5
10A
330
1F
100
AcDbEntity
  8
0
  6
Continuous
 62
     7
370
    25
100
AcDbLine
 10
21.9931687792
 20
17.9836909603
 30
0.0
 11
21.9931687792
 21
18.1454332814
 31
0.0
  0
LINE
  5
10B
330
1F
100
AcDbEntity
  8
0
  6
Continuous
 62
     7
370
    25
100
AcDbLine
 10
22.7231687792
 20
17.9836909603
 30
0.0
 11
22.7231687792
 21
18.1836909603
 31
0.0
  0
LINE
  5
10C
330
1F
100
AcDbEntity
  8
0
  6
Continuous
 62
     7
370
    25
100
AcDbLine
 10
21.8500286218
 20
10.3736909603
 30
0.0
 11
21.7931687792
 21
10.3736909603
 31
0.0
  0
LINE
  5
10D
330
1F
100
AcDbEntity
  8
0
  6
Continuous
 62
     7
370
    25
100
AcDbLine
 10
21.7931687792
 20
10.3736909603
 30
0.0
 11
21.7931687792
 21
17.7879316237
 31
0.0
  0
LINE
  5
10E
330
1F
100
AcDbEntity
  8
0
  6
Continuous
 62
     7
370
    25
100
AcDbLine
 10
21.7931687792
 20
17.7879316237
 30
0.0
 11
21.8500286218
 21
17.7889241159
 31
0.0
  0
ARC
  5
10F
330
1F
100
AcDbEntity
  8
0
  6
Continuous
 62
     7
370
    25
100
AcDbCircle
 10
21.8531687792
 20
10.2793680691
 30
0.0
 40
0.0600000000000023
100
AcDbArc
 50
180.0
 51
267.0
  0
LINE
  5
110
330
1F
100
AcDbEntity
  8
0
  6
Continuous
 62
     7
370
    25
100
AcDbLine
 10
21.7931687792
 20
10.2793680691
 30
0.0
 11
21.7931687792
 21
10.3736909603
 31
0.0
  0
LINE
  5
111
330
1F
100
AcDbEntity
  8
0
  6
Continuous
 62
     7
370
    25
100
AcDbLine
 10
22.8031687792
 20
17.7386909603
 30
0.0
 11
22.7231687792
 21
17.7386909603
 31
0.0
  0
LINE
  5
112
330
1F
100
AcDbEntity
  8
0
  6
Continuous
 62
     7
370
    25
100
AcDbLine
 10
22.8031687792
 20
10.6186909603
 30
0.0
 11
22.7231687792
 21
10.6186909603
 31
0.0
  0
LINE
  5
113
330
1F
100
AcDbEntity
  8
0
  6
Continuous
 62
     7
370
    25
100
AcDbLine
 10
22.8031687792
 20
10.6186909603
 30
0.0
 11
22.8031687792
 21
17.7386909603
 31
0.0
  0
LINE
  5
114
330
1F
100
AcDbEntity
  8
0
  6
Continuous
 62
     7
370
    25
100
AcDbLine
 10
23.2559203447
 20
11.5805046172
 30
0.0
 11
23.2559203447
 21
11.9008331255
 31
0.0
  0
LINE
  5
115
330
1F
100
AcDbEntity
  8
0
  6
Continuous
 62
     7
370
    25
100
AcDbLine
 10
23.2538562513
 20
11.5803876642
 30
0.0
 11
23.2559203447
 21
11.5805046172
 31
0.0
  0
LINE
  5
116
330
1F
100
AcDbEntity
  8
0
  6
Continuous
 62
     7
370
    25
100
AcDbLine
 10
23.2538562513
 20
10.8802646539
 30
0.0
 11
23.2538562513
 21
11.5803876642
 31
0.0
  0
LINE
  5
117
330
1F
100
AcDbEntity
  8
0
  6
Continuous
 62
     7
370
    25
100
AcDbLine
 10
23.2548895577
 20
10.8802105006
 30
0.0
 11
23.2538562513
 21
10.8802646539
 31
0.0
  0
LINE
  5
118
330
1F
100
AcDbEntity
  8
0
  6
Continuous
 62
     7
370
    25
100
AcDbLine
 10
23.2548895577
 20
10.8802105006
 30
0.0
 11
22.8031687792
 21
10.8406900534
 31
0.0
  0
LINE
  5
119
330
1F
100
AcDbEntity
  8
0
  6
Continuous
 62
     7
370
    25
100
AcDbLine
 10
23.2548895577
 20
17.47717142
 30
0.0
 11
22.8031687792
 21
17.5166918672
 31
0.0
  0
LINE
  5
11A
330
1F
100
AcDbEntity
  8
0
  6
Continuous
 62
     7
370
    25
100
AcDbLine
 10
23.2538562513
 20
17.4771172667
 30
0.0
 11
23.2548895577
 21
17.47717142
 31
0.0
  0
LINE
  5
11B
330
1F
100
AcDbEntity
  8
0
  6
Continuous
 62
     7
370
    25
100
AcDbLine
 10
23.2538562513
 20
16.7769942564
 30
0.0
 11
23.2538562513
 21
17.4771172667
 31
0.0
  0
LINE
  5
11C
330
1F
100
AcDbEntity
  8
0
  6
Continuous
 62
     7
370
    25
100
AcDbLine
 10
23.2559203447
 20
16.7768773034
 30
0.0
 11
23.2538562513
 21
16.7769942564
 31
0.0
  0
LINE
  5
11D
330
1F
100
AcDbEntity
  8
0
  6
Continuous
 62
     7
370
    25
100
AcDbLine
 10
23.2559203447
 20
16.4565487951
 30
0.0
 11
23.2559203447
 21
16.7768773034
 31
0.0
  0
LINE
  5
11E
330
1F
100
AcDbEntity
  8
0
  6
Continuous
 62
     7
370
    25
100
AcDbLine
 10
23.2559203447
 20
16.4565487951
 30
0.0
 11
23.2559203447
 21
16.3108331255
 31
0.0
  0
LINE
  5
11F
330
1F
100
AcDbEntity
  8
0
  6
Continuous
 62
     7
370
    25
100
AcDbLine
 10
23.2559203447
 20
12.0465487951
 30
0.0
 11
23.2559203447
 21
16.3108331255
 31
0.0
  0
LINE
  5
120
330
1F
100
AcDbEntity
  8
0
  6
Continuous
 62
     7
370
    25
100
AcDbLine
 10
23.2559203447
 20
12.0465487951
 30
0.0
 11
23.2559203447
 21
11.9008331255
 31
0.0
  0
LINE
  5
121
330
1F
100
AcDbEntity
  8
0
  6
Continuous
 62
     7
370
    25
100
AcDbLine
 10
23.2559203447
 20
11.5805046172
 30
0.0
 11
25.5890137771
 21
11.0844199091
 31
0.0
  0
LINE
  5
122
330
1F
100
AcDbEntity
  8
0
  6
Continuous
 62
     7
370
    25
100
AcDbLine
 10
25.5890137771
 20
11.0844199091
 30
0.0
 11
23.2548895577
 21
10.8802105006
 31
0.0
  0
LINE
  5
123
330
1F
100
AcDbEntity
  8
0
  6
Continuous
 62
     7
370
    25
100
AcDbLine
 10
25.5890137771
 20
17.2729620116
 30
0.0
 11
23.2559203447
 21
16.7768773034
 31
0.0
  0
LINE
  5
124
330
1F
100
AcDbEntity
  8
0
  6
Continuous
 62
     7
370
    25
100
AcDbLine
 10
23.2548895577
 20
17.47717142
 30
0.0
 11
25.5890137771
 21
17.2729620116
 31
0.0
  0
LINE
  5
125
330
1F
100
AcDbEntity
  8
0
  6
Continuous
 62
     7
370
    25
100
AcDbLine
 10
23.9319654425
 20
16.3167328817
 30
0.0
 11
23.9319654425
 21
16.4506490389
 31
0.0
  0
LINE
  5
126
330
1F
100
AcDbEntity
  8
0
  6
Continuous
 62
     7
370
    25
100
AcDbLine
 10
23.2559203447
 20
16.3108331255
 30
0.0
 11
23.9319654425
 21
16.3167328817
 31
0.0
  0
LINE
  5
127
330
1F
100
AcDbEntity
  8
0
  6
Continuous
 62
     7
370
    25
100
AcDbLine
 10
23.2559203447
 20
16.4565487951
 30
0.0
 11
23.9319654425
 21
16.4506490389
 31
0.0
  0
LINE
  5
128
330
1F
100
AcDbEntity
  8
0
  6
Continuous
 62
     7
370
    25
100
AcDbLine
 10
26.4231687792
 20
11.1573990154
 30
0.0
 11
26.4231687792
 21
17.1999829053
 31
0.0
  0
LINE
  5
129
330
1F
100
AcDbEntity
  8
0
  6
Continuous
 62
     7
370
    25
100
AcDbLine
 10
23.6831687792
 20
16.0536909603
 30
0.0
 11
23.6831687792
 21
12.3036909603
 31
0.0
  0
LINE
  5
12A
330
1F
100
AcDbEntity
  8
0
  6
Continuous
 62
     7
370
    25
100
AcDbLine
 10
25.8751687792
 20
12.3036909603
 30
0.0
 11
23.6831687792
 21
12.3036909603
 31
0.0
  0
LINE
  5
12B
330
1F
100
AcDbEntity
  8
0
  6
Continuous
 62
     7
370
    25
100
AcDbLine
 10
25.8751687792
 20
16.0536909603
 30
0.0
 11
25.8751687792
 21
12.3036909603
 31
0.0
  0
LINE
  5
12C
330
1F
100
AcDbEntity
  8
0
  6
Continuous
 62
     7
370
    25
100
AcDbLine
 10
23.6831687792
 20
16.0536909603
 30
0.0
 11
25.8751687792
 21
16.0536909603
 31
0.0
  0
LINE
  5
12D
330
1F
100
AcDbEntity
  8
0
  6
Continuous
 62
     7
370
    25
100
AcDbLine
 10
26.4231687792
 20
11.1573990154
 30
0.0
 11
25.5890137771
 21
11.0844199091
 31
0.0
  0
LINE
  5
12E
330
1F
100
AcDbEntity
  8
0
  6
Continuous
 62
     7
370
    25
100
AcDbLine
 10
25.5890137771
 20
17.2729620116
 30
0.0
 11
26.4231687792
 21
17.1999829053
 31
0.0
  0
LINE
  5
12F
330
1F
100
AcDbEntity
  8
0
  6
Continuous
 62
     7
370
    25
100
AcDbLine
 10
23.9319654425
 20
12.0406490389
 30
0.0
 11
23.9319654425
 21
11.9067328817
 31
0.0
  0
LINE
  5
130
330
1F
100
AcDbEntity
  8
0
  6
Continuous
 62
     7
370
    25
100
AcDbLine
 10
23.2559203447
 20
12.0465487951
 30
0.0
 11
23.9319654425
 21
12.0406490389
 31
0.0
  0
LINE
  5
131
330
1F
100
AcDbEntity
  8
0
  6
Continuous
 62
     7
370
    25
100
AcDbLine
 10
23.2559203447
 20
11.9008331255
 30
0.0
 11
23.9319654425
 21
11.9067328817
 31
0.0
  0
LINE
  5
132
330
1F
100
AcDbEntity
  8
0
  6
Continuous
 62
     7
370
    25
100
AcDbLine
 10
25.8751687792
 20
12.0236909603
 30
0.0
 11
25.8751687792
 21
11.9236909603
 31
0.0
  0
LINE
  5
133
330
1F
100
AcDbEntity
  8
0
  6
Continuous
 62
     7
370
    25
100
AcDbLine
 10
23.9319654425
 20
12.0406490389
 30
0.0
 11
25.8751687792
 21
12.0236909603
 31
0.0
  0
LINE
  5
134
330
1F
100
AcDbEntity
  8
0
  6
Continuous
 62
     7
370
    25
100
AcDbLine
 10
23.9319654425
 20
11.9067328817
 30
0.0
 11
25.8751687792
 21
11.9236909603
 31
0.0
  0
LINE
  5
135
330
1F
100
AcDbEntity
  8
0
  6
Continuous
 62
     7
370
    25
100
AcDbLine
 10
25.8751687792
 20
16.3336909603
 30
0.0
 11
25.8751687792
 21
16.4336909603
 31
0.0
  0
LINE
  5
136
330
1F
100
AcDbEntity
  8
0
  6
Continuous
 62
     7
370
    25
100
AcDbLine
 10
23.9319654425
 20
16.3167328817
 30
0.0
 11
25.8751687792
 21
16.3336909603
 31
0.0
  0
LINE
  5
137
330
1F
100
AcDbEntity
  8
0
  6
Continuous
 62
     7
370
    25
100
AcDbLine
 10
23.9319654425
 20
16.4506490389
 30
0.0
 11
25.8751687792
 21
16.4336909603
 31
0.0
  0
LINE
  5
138
330
1F
100
AcDbEntity
  8
0
  6
Continuous
 62
     7
370
    25
100
AcDbLine
 10
25.8751687792
 20
10.9588822521
 30
0.0
 11
25.8751687792
 21
11.1094552277
 31
0.0
  0
LINE
  5
139
330
1F
100
AcDbEntity
  8
0
  6
Continuous
 62
     7
370
    25
100
AcDbLine
 10
23.8353875714
 20
10.7804245204
 30
0.0
 11
25.8751687792
 21
10.9588822521
 31
0.0
  0
LINE
  5
13A
330
1F
100
AcDbEntity
  8
0
  6
Continuous
 62
     7
370
    25
100
AcDbLine
 10
22.8031687792
 20
10.7624070743
 30
0.0
 11
23.8353875714
 21
10.7804245204
 31
0.0
  0
LINE
  5
13B
330
1F
100
AcDbEntity
  8
0
  6
Continuous
 62
     7
370
    25
100
AcDbLine
 10
25.8751687792
 20
17.2479266929
 30
0.0
 11
25.8751687792
 21
17.3984996685
 31
0.0
  0
LINE
  5
13C
330
1F
100
AcDbEntity
  8
0
  6
Continuous
 62
     7
370
    25
100
AcDbLine
 10
25.8751687792
 20
17.3984996685
 30
0.0
 11
23.8353875714
 21
17.5769574003
 31
0.0
  0
LINE
  5
13D
330
1F
100
AcDbEntity
  8
0
  6
Continuous
 62
     7
370
    25
100
AcDbLine
 10
23.8353875714
 20
17.5769574003
 30
0.0
 11
22.8031687792
 21
17.5949748463
 31
0.0
  0
LINE
  5
13E
330
1F
100
AcDbEntity
  8
0
  6
Continuous
 62
     7
370
    25
100
AcDbLine
 10
26.4431687792
 20
15.3661909603
 30
0.0
 11
26.4231687792
 21
15.3661909603
 31
0.0
  0
LINE
  5
13F
330
1F
100
AcDbEntity
  8
0
  6
Continuous
 62
     7
370
    25
100
AcDbLine
 10
26.4431687792
 20
12.9911909603
 30
0.0
 11
26.4431687792
 21
15.3661909603
 31
0.0
  0
LINE
  5
140
330
1F
100
AcDbEntity
  8
0
  6
Continuous
 62
     7
370
    25
100
AcDbLine
 10
26.4431687792
 20
12.9911909603
 30
0.0
 11
26.4231687792
 21
12.9911909603
 31
0.0
  0
ARC
  5
141
330
1F
100
AcDbEntity
  8
0
  6
Continuous
 62
     7
370
    25
100
AcDbCircle
 10
26.4431687792
 20
15.3461909603
 30
0.0
 40
0.0200000000000031
100
AcDbArc
 50
0.0
 51
90.0
  0
LINE
  5
142
330
1F
100
AcDbEntity
  8
0
  6
Continuous
 62
     7
370
    25
100
AcDbLine
 10
26.4631687792
 20
15.3461909603
 30
0.0
 11
26.4631687792
 21
13.0111909603
 31
0.0
  0
ARC
  5
143
330
1F
100
AcDbEntity
  8
0
  6
Continuous
 62
     7
370
    25
100
AcDbCircle
 10
26.4431687792
 20
13.0111909603
 30
0.0
 40
0.0200000000000031
100
AcDbArc
 50
270.0
 51
0.0
  0
LINE
  5
144
330
1F
100
AcDbEntity
  8
0
  6
Continuous
 62
     7
370
    25
100
AcDbLine
 10
25.8751687792
 20
12.3561167035
 30
0.0
 11
23.6831687792
 21
12.3752927095
 31
0.0
  0
LINE
  5
145
330
1F
100
AcDbEntity
  8
0
  6
Continuous
 62
     7
370
    25
100
AcDbLine
 10
23.6831687792
 20
13.1520892111
 30
0.0
 11
25.8751687792
 21
13.1712652171
 31
0.0
  0
LINE
  5
146
330
1F
100
AcDbEntity
  8
0
  6
Continuous
 62
     7
370
    25
100
AcDbLine
 10
25.7088039847
 20
12.6436909603
 30
0.0
 11
23.6831687792
 21
12.6436909603
 31
0.0
  0
ARC
  5
147
330
1F
100
AcDbEntity
  8
0
  6
Continuous
 62
     7
370
    25
100
AcDbCircle
 10
25.708582493
 20
12.7636909603
 30
0.0
 40
0.1200002044104594
100
AcDbArc
 50
270.1057543541
 51
89.8942456459
  0
LINE
  5
148
330
1F
100
AcDbEntity
  8
0
  6
Continuous
 62
     7
370
    25
100
AcDbLine
 10
23.6831687792
 20
12.8836909603
 30
0.0
 11
25.7088039847
 21
12.8836909603
 31
0.0
  0
LINE
  5
149
330
1F
100
AcDbEntity
  8
0
  6
Continuous
 62
     7
370
    25
100
AcDbLine
 10
25.8751687792
 20
15.1861167035
 30
0.0
 11
23.6831687792
 21
15.2052927095
 31
0.0
  0
ARC
  5
14A
330
1F
100
AcDbEntity
  8
0
  6
Continuous
 62
     7
370
    25
100
AcDbCircle
 10
25.708582493
 20
15.5936909603
 30
0.0
 40
0.1200002044104594
100
AcDbArc
 50
270.1057543541
 51
89.894245646
  0
LINE
  5
14B
330
1F
100
AcDbEntity
  8
0
  6
Continuous
 62
     7
370
    25
100
AcDbLine
 10
25.7088039847
 20
15.7136909603
 30
0.0
 11
23.6831687792
 21
15.7136909603
 31
0.0
  0
LINE
  5
14C
330
1F
100
AcDbEntity
  8
0
  6
Continuous
 62
     7
370
    25
100
AcDbLine
 10
23.6831687792
 20
15.4736909603
 30
0.0
 11
25.7088039847
 21
15.4736909603
 31
0.0
  0
LINE
  5
14D
330
1F
100
AcDbEntity
  8
0
  6
Continuous
 62
     7
370
    25
100
AcDbLine
 10
23.6831687792
 20
15.9820892111
 30
0.0
 11
25.8751687792
 21
16.0012652171
 31
0.0
  0
DIMENSION
  5
14E
330
1F
100
AcDbEntity
  8
FORMAT
 62
     7
100
AcDbDimension
  2
_D_2
 10
27.4631687792
 20
12.3036909603
 30
0.0
 11
27.4631687792
 21
14.3717989216
 31
0.0
 70
   160
  1
<>
 71
     2
 42
-1.0
  3
SLDDIMSTYLE0
100
AcDbAlignedDimension
 13
25.8751687792
 23
16.0536909603
 33
0.0
 14
25.8751687792
 24
12.3036909603
 34
0.0
 50
90.0
100
AcDbRotatedDimension
  0
DIMENSION
  5
160
330
1F
100
AcDbEntity
  8
FORMAT
 62
     7
100
AcDbDimension
  2
_D_3
 10
25.8751687792
 20
9.7111909603
 30
0.0
 11
24.7447508442
 21
9.7111909603
 31
0.0
 70
   160
  1
<>
 71
     2
 42
-1.0
  3
SLDDIMSTYLE0
100
AcDbAlignedDimension
 13
23.6831687792
 23
12.3036909603
 33
0.0
 14
25.8751687792
 24
12.3036909603
 34
0.0
100
AcDbRotatedDimension
  0
DIMENSION
  5
172
330
1F
100
AcDbEntity
  8
FORMAT
 62
     7
100
AcDbDimension
  2
_D_4
 10
22.7231687792
 20
19.1836909603
 30
0.0
 11
23.5134408002
 21
19.1836909603
 31
0.0
 70
   160
  1
<>
 71
     2
 42
-1.0
  3
SLDDIMSTYLE1
100
AcDbAlignedDimension
 13
21.7931687792
 23
17.7879316237
 33
0.0
 14
22.7231687792
 24
18.1836909603
 34
0.0
100
AcDbRotatedDimension
  0
DIMENSION
  5
185
330
1F
100
AcDbEntity
  8
FORMAT
 62
     7
100
AcDbDimension
  2
_D_5
 10
26.4631687792
 20
20.1836909603
 30
0.0
 11
24.08635847
 21
20.1836909603
 31
0.0
 70
   160
  1
<>
 71
     2
 42
-1.0
  3
SLDDIMSTYLE0
100
AcDbAlignedDimension
 13
21.7931687792
 23
17.7879316237
 33
0.0
 14
26.4631687792
 24
15.3461909603
 34
0.0
100
AcDbRotatedDimension
  0
LINE
  5
197
330
1F
100
AcDbEntity
  8
0
  6
Continuous
 62
     7
370
    25
100
AcDbLine
 10
18.914445119
 20
21.6853968453
 30
0.0
 11
18.914445119
 21
21.7553968453
 31
0.0
  0
LINE
  5
198
330
1F
100
AcDbEntity
  8
0
  6
Continuous
 62
     7
370
    25
100
AcDbLine
 10
18.914445119
 20
21.7553968453
 30
0.0
 11
18.974445119
 21
21.7553968453
 31
0.0
  0
LINE
  5
199
330
1F
100
AcDbEntity
  8
0
  6
Continuous
 62
     7
370
    25
100
AcDbLine
 10
18.974445119
 20
21.7553968453
 30
0.0
 11
18.974445119
 21
21.6853968453
 31
0.0
  0
LINE
  5
19A
330
1F
100
AcDbEntity
  8
0
  6
Continuous
 62
     7
370
    25
100
AcDbLine
 10
18.974445119
 20
21.6853968453
 30
0.0
 11
18.914445119
 21
21.6853968453
 31
0.0
  0
LINE
  5
19B
330
1F
100
AcDbEntity
  8
0
  6
Continuous
 62
     7
370
    25
100
AcDbLine
 10
9.884445119
 20
21.7553968453
 30
0.0
 11
9.884445119
 21
21.6853968453
 31
0.0
  0
LINE
  5
19C
330
1F
100
AcDbEntity
  8
0
  6
Continuous
 62
     7
370
    25
100
AcDbLine
 10
18.914445119
 20
21.6853968453
 30
0.0
 11
9.884445119
 21
21.6853968453
 31
0.0
  0
LINE
  5
19D
330
1F
100
AcDbEntity
  8
0
  6
Continuous
 62
     7
370
    25
100
AcDbLine
 10
18.914445119
 20
21.7553968453
 30
0.0
 11
9.884445119
 21
21.7553968453
 31
0.0
  0
LINE
  5
19E
330
1F
100
AcDbEntity
  8
0
  6
Continuous
 62
     7
370
    25
100
AcDbLine
 10
9.824445119
 20
21.6853968453
 30
0.0
 11
9.824445119
 21
21.7553968453
 31
0.0
  0
LINE
  5
19F
330
1F
100
AcDbEntity
  8
0
  6
Continuous
 62
     7
370
    25
100
AcDbLine
 10
9.884445119
 20
21.6853968453
 30
0.0
 11
9.824445119
 21
21.6853968453
 31
0.0
  0
LINE
  5
1A0
330
1F
100
AcDbEntity
  8
0
  6
Continuous
 62
     7
370
    25
100
AcDbLine
 10
9.824445119
 20
21.7553968453
 30
0.0
 11
9.884445119
 21
21.7553968453
 31
0.0
  0
LINE
  5
1A1
330
1F
100
AcDbEntity
  8
0
  6
Continuous
 62
     7
370
    25
100
AcDbLine
 10
18.960445119
 20
21.7703968453
 30
0.0
 11
18.960445119
 21
22.5003968453
 31
0.0
  0
LINE
  5
1A2
330
1F
100
AcDbEntity
  8
0
  6
Continuous
 62
     7
370
    25
100
AcDbLine
 10
19.160445119
 20
22.5003968453
 30
0.0
 11
18.960445119
 21
22.5003968453
 31
0.0
  0
LINE
  5
1A3
330
1F
100
AcDbEntity
  8
0
  6
Continuous
 62
     7
370
    25
100
AcDbLine
 10
19.1221874402
 20
21.7703968453
 30
0.0
 11
19.160445119
 21
22.5003968453
 31
0.0
  0
LINE
  5
1A4
330
1F
100
AcDbEntity
  8
0
  6
Continuous
 62
     7
370
    25
100
AcDbLine
 10
19.1221874402
 20
21.7703968453
 30
0.0
 11
18.960445119
 21
21.7703968453
 31
0.0
  0
LINE
  5
1A5
330
1F
100
AcDbEntity
  8
0
  6
Continuous
 62
     7
370
    25
100
AcDbLine
 10
9.838445119
 20
21.7703968453
 30
0.0
 11
9.838445119
 21
22.5003968453
 31
0.0
  0
LINE
  5
1A6
330
1F
100
AcDbEntity
  8
0
  6
Continuous
 62
     7
370
    25
100
AcDbLine
 10
18.960445119
 20
22.5003968453
 30
0.0
 11
9.838445119
 21
22.5003968453
 31
0.0
  0
LINE
  5
1A7
330
1F
100
AcDbEntity
  8
0
  6
Continuous
 62
     7
370
    25
100
AcDbLine
 10
18.960445119
 20
21.7703968453
 30
0.0
 11
9.838445119
 21
21.7703968453
 31
0.0
  0
LINE
  5
1A8
330
1F
100
AcDbEntity
  8
0
  6
Continuous
 62
     7
370
    25
100
AcDbLine
 10
9.6767027979
 20
21.7703968453
 30
0.0
 11
9.638445119
 21
22.5003968453
 31
0.0
  0
LINE
  5
1A9
330
1F
100
AcDbEntity
  8
0
  6
Continuous
 62
     7
370
    25
100
AcDbLine
 10
9.838445119
 20
21.7703968453
 30
0.0
 11
9.6767027979
 21
21.7703968453
 31
0.0
  0
LINE
  5
1AA
330
1F
100
AcDbEntity
  8
0
  6
Continuous
 62
     7
370
    25
100
AcDbLine
 10
9.838445119
 20
22.5003968453
 30
0.0
 11
9.638445119
 21
22.5003968453
 31
0.0
  0
LINE
  5
1AB
330
1F
100
AcDbEntity
  8
0
  6
Continuous
 62
     7
370
    25
100
AcDbLine
 10
9.7820808105
 20
21.6703968453
 30
0.0
 11
10.0099499622
 21
21.6703968453
 31
0.0
  0
LINE
  5
1AC
330
1F
100
AcDbEntity
  8
0
  6
Continuous
 62
     7
370
    25
100
AcDbLine
 10
10.0099499622
 20
21.6703968453
 30
0.0
 11
10.0082044557
 21
21.5703968453
 31
0.0
  0
LINE
  5
1AD
330
1F
100
AcDbEntity
  8
0
  6
Continuous
 62
     7
370
    25
100
AcDbLine
 10
9.7441222278
 20
21.5703968453
 30
0.0
 11
10.0082044557
 21
21.5703968453
 31
0.0
  0
ARC
  5
1AE
330
1F
100
AcDbEntity
  8
0
  6
Continuous
 62
     7
370
    25
100
AcDbCircle
 10
9.7441222278
 20
21.6303968453
 30
0.0
 40
0.0600000000000058
100
AcDbArc
 50
183.0
 51
270.0
  0
LINE
  5
1AF
330
1F
100
AcDbEntity
  8
0
  6
Continuous
 62
     7
370
    25
100
AcDbLine
 10
9.7820808105
 20
21.6703968453
 30
0.0
 11
9.7768400325
 21
21.7703968453
 31
0.0
  0
LINE
  5
1B0
330
1F
100
AcDbEntity
  8
0
  6
Continuous
 62
     7
370
    25
100
AcDbLine
 10
9.6842044557
 20
21.627256688
 30
0.0
 11
9.6767027979
 21
21.7703968453
 31
0.0
  0
ARC
  5
1B1
330
1F
100
AcDbEntity
  8
0
  6
Continuous
 62
     7
370
    25
100
AcDbCircle
 10
19.0547680103
 20
21.6303968453
 30
0.0
 40
0.0600000000000058
100
AcDbArc
 50
270.0
 51
357.0
  0
LINE
  5
1B2
330
1F
100
AcDbEntity
  8
0
  6
Continuous
 62
     7
370
    25
100
AcDbLine
 10
18.7906857824
 20
21.5703968453
 30
0.0
 11
19.0547680103
 21
21.5703968453
 31
0.0
  0
LINE
  5
1B3
330
1F
100
AcDbEntity
  8
0
  6
Continuous
 62
     7
370
    25
100
AcDbLine
 10
18.7906857824
 20
21.5703968453
 30
0.0
 11
18.7889402759
 21
21.6703968453
 31
0.0
  0
LINE
  5
1B4
330
1F
100
AcDbEntity
  8
0
  6
Continuous
 62
     7
370
    25
100
AcDbLine
 10
18.7889402759
 20
21.6703968453
 30
0.0
 11
19.0168094276
 21
21.6703968453
 31
0.0
  0
LINE
  5
1B5
330
1F
100
AcDbEntity
  8
0
  6
Continuous
 62
     7
370
    25
100
AcDbLine
 10
19.1221874402
 20
21.7703968453
 30
0.0
 11
19.1146857824
 21
21.627256688
 31
0.0
  0
LINE
  5
1B6
330
1F
100
AcDbEntity
  8
0
  6
Continuous
 62
     7
370
    25
100
AcDbLine
 10
19.0220502056
 20
21.7703968453
 30
0.0
 11
19.0168094276
 21
21.6703968453
 31
0.0
  0
LINE
  5
1B7
330
1F
100
AcDbEntity
  8
0
  6
Continuous
 62
     7
370
    25
100
AcDbLine
 10
11.924445119
 20
21.5703968453
 30
0.0
 11
11.929685897
 21
21.6703968453
 31
0.0
  0
LINE
  5
1B8
330
1F
100
AcDbEntity
  8
0
  6
Continuous
 62
     7
370
    25
100
AcDbLine
 10
10.0082044557
 20
21.5703968453
 30
0.0
 11
11.924445119
 21
21.5703968453
 31
0.0
  0
LINE
  5
1B9
330
1F
100
AcDbEntity
  8
0
  6
Continuous
 62
     7
370
    25
100
AcDbLine
 10
11.929685897
 20
21.6703968453
 30
0.0
 11
10.0099499622
 21
21.6703968453
 31
0.0
  0
LINE
  5
1BA
330
1F
100
AcDbEntity
  8
0
  6
Continuous
 62
     7
370
    25
100
AcDbLine
 10
16.8692043411
 20
21.6703968453
 30
0.0
 11
16.874445119
 21
21.5703968453
 31
0.0
  0
LINE
  5
1BB
330
1F
100
AcDbEntity
  8
0
  6
Continuous
 62
     7
370
    25
100
AcDbLine
 10
16.874445119
 20
21.5703968453
 30
0.0
 11
18.7906857824
 21
21.5703968453
 31
0.0
  0
LINE
  5
1BC
330
1F
100
AcDbEntity
  8
0
  6
Continuous
 62
     7
370
    25
100
AcDbLine
 10
18.7889402759
 20
21.6703968453
 30
0.0
 11
16.8692043411
 21
21.6703968453
 31
0.0
  0
LINE
  5
1BD
330
1F
100
AcDbEntity
  8
0
  6
Continuous
 62
     7
370
    25
100
AcDbLine
 10
11.9349266749
 20
21.7703968453
 30
0.0
 11
11.9341405582
 21
21.7553968453
 31
0.0
  0
LINE
  5
1BE
330
1F
100
AcDbEntity
  8
0
  6
Continuous
 62
     7
370
    25
100
AcDbLine
 10
11.9304720137
 20
21.6853968453
 30
0.0
 11
11.929685897
 21
21.6703968453
 31
0.0
  0
LINE
  5
1BF
330
1F
100
AcDbEntity
  8
0
  6
Continuous
 62
     7
370
    25
100
AcDbLine
 10
16.8692043411
 20
21.6703968453
 30
0.0
 11
16.8684182244
 21
21.6853968453
 31
0.0
  0
LINE
  5
1C0
330
1F
100
AcDbEntity
  8
0
  6
Continuous
 62
     7
370
    25
100
AcDbLine
 10
16.8647496799
 20
21.7553968453
 30
0.0
 11
16.8639635632
 21
21.7703968453
 31
0.0
  0
LINE
  5
1C1
330
1F
100
AcDbEntity
  8
0
  6
Continuous
 62
     7
370
    25
100
AcDbLine
 10
10.489945119
 20
22.5803968453
 30
0.0
 11
10.489945119
 21
22.5003968453
 31
0.0
  0
LINE
  5
1C2
330
1F
100
AcDbEntity
  8
0
  6
Continuous
 62
     7
370
    25
100
AcDbLine
 10
18.359945119
 20
22.5803968453
 30
0.0
 11
10.489945119
 21
22.5803968453
 31
0.0
  0
LINE
  5
1C3
330
1F
100
AcDbEntity
  8
0
  6
Continuous
 62
     7
370
    25
100
AcDbLine
 10
18.359945119
 20
22.5803968453
 30
0.0
 11
18.359945119
 21
22.5003968453
 31
0.0
  0
LINE
  5
1C4
330
1F
100
AcDbEntity
  8
0
  6
Continuous
 62
     7
370
    25
100
AcDbLine
 10
16.2331442181
 20
23.6126156376
 30
0.0
 11
16.36874602
 21
23.6126156376
 31
0.0
  0
LINE
  5
1C5
330
1F
100
AcDbEntity
  8
0
  6
Continuous
 62
     7
370
    25
100
AcDbLine
 10
16.36874602
 20
23.6126156376
 30
0.0
 11
16.3777540569
 21
22.5803968453
 31
0.0
  0
LINE
  5
1C6
330
1F
100
AcDbEntity
  8
0
  6
Continuous
 62
     7
370
    25
100
AcDbLine
 10
16.2331442181
 20
23.6126156376
 30
0.0
 11
16.2241361812
 21
22.5803968453
 31
0.0
  0
LINE
  5
1C7
330
1F
100
AcDbEntity
  8
0
  6
Continuous
 62
     7
370
    25
100
AcDbLine
 10
11.8231442181
 20
23.6126156376
 30
0.0
 11
11.95874602
 21
23.6126156376
 31
0.0
  0
LINE
  5
1C8
330
1F
100
AcDbEntity
  8
0
  6
Continuous
 62
     7
370
    25
100
AcDbLine
 10
11.95874602
 20
23.6126156376
 30
0.0
 11
11.9677540569
 21
22.5803968453
 31
0.0
  0
LINE
  5
1C9
330
1F
100
AcDbEntity
  8
0
  6
Continuous
 62
     7
370
    25
100
AcDbLine
 10
11.8231442181
 20
23.6126156376
 30
0.0
 11
11.8141361812
 21
22.5803968453
 31
0.0
  0
LINE
  5
1CA
330
1F
100
AcDbEntity
  8
0
  6
Continuous
 62
     7
370
    25
100
AcDbLine
 10
11.940945119
 20
25.6523968453
 30
0.0
 11
11.840945119
 21
25.6523968453
 31
0.0
  0
LINE
  5
1CB
330
1F
100
AcDbEntity
  8
0
  6
Continuous
 62
     7
370
    25
100
AcDbLine
 10
11.940945119
 20
25.6523968453
 30
0.0
 11
11.95874602
 21
23.6126156376
 31
0.0
  0
LINE
  5
1CC
330
1F
100
AcDbEntity
  8
0
  6
Continuous
 62
     7
370
    25
100
AcDbLine
 10
11.840945119
 20
25.6523968453
 30
0.0
 11
11.8231442181
 21
23.6126156376
 31
0.0
  0
LINE
  5
1CD
330
1F
100
AcDbEntity
  8
0
  6
Continuous
 62
     7
370
    25
100
AcDbLine
 10
16.250945119
 20
25.6523968453
 30
0.0
 11
16.350945119
 21
25.6523968453
 31
0.0
  0
LINE
  5
1CE
330
1F
100
AcDbEntity
  8
0
  6
Continuous
 62
     7
370
    25
100
AcDbLine
 10
16.350945119
 20
25.6523968453
 30
0.0
 11
16.36874602
 21
23.6126156376
 31
0.0
  0
LINE
  5
1CF
330
1F
100
AcDbEntity
  8
0
  6
Continuous
 62
     7
370
    25
100
AcDbLine
 10
16.250945119
 20
25.6523968453
 30
0.0
 11
16.2331442181
 21
23.6126156376
 31
0.0
  0
LINE
  5
1D0
330
1F
100
AcDbEntity
  8
0
  6
Continuous
 62
     7
370
    25
100
AcDbLine
 10
10.7092263398
 20
23.0321176239
 30
0.0
 11
10.7013415242
 21
22.5803968453
 31
0.0
  0
LINE
  5
1D1
330
1F
100
AcDbEntity
  8
0
  6
Continuous
 62
     7
370
    25
100
AcDbLine
 10
11.4094620513
 20
23.0321176239
 30
0.0
 11
10.7092263398
 21
23.0321176239
 31
0.0
  0
LINE
  5
1D2
330
1F
100
AcDbEntity
  8
0
  6
Continuous
 62
     7
370
    25
100
AcDbLine
 10
11.367093061
 20
26.2003968453
 30
0.0
 11
11.4094620513
 21
23.0321176239
 31
0.0
  0
LINE
  5
1D3
330
1F
100
AcDbEntity
  8
0
  6
Continuous
 62
     7
370
    25
100
AcDbLine
 10
11.367093061
 20
26.2003968453
 30
0.0
 11
17.2324520317
 21
26.2003968453
 31
0.0
  0
LINE
  5
1D4
330
1F
100
AcDbEntity
  8
0
  6
Continuous
 62
     7
370
    25
100
AcDbLine
 10
17.4716421296
 20
25.3662418433
 30
0.0
 11
17.2324520317
 21
26.2003968453
 31
0.0
  0
LINE
  5
1D5
330
1F
100
AcDbEntity
  8
0
  6
Continuous
 62
     7
370
    25
100
AcDbLine
 10
17.4404281868
 20
23.0321176239
 30
0.0
 11
17.4716421296
 21
25.3662418433
 31
0.0
  0
LINE
  5
1D6
330
1F
100
AcDbEntity
  8
0
  6
Continuous
 62
     7
370
    25
100
AcDbLine
 10
18.1406638983
 20
23.0321176239
 30
0.0
 11
17.4404281868
 21
23.0321176239
 31
0.0
  0
LINE
  5
1D7
330
1F
100
AcDbEntity
  8
0
  6
Continuous
 62
     7
370
    25
100
AcDbLine
 10
12.220945119
 20
23.1543968453
 30
0.0
 11
15.970945119
 21
23.1543968453
 31
0.0
  0
LINE
  5
1D8
330
1F
100
AcDbEntity
  8
0
  6
Continuous
 62
     7
370
    25
100
AcDbLine
 10
15.970945119
 20
25.4303968453
 30
0.0
 11
15.970945119
 21
23.1543968453
 31
0.0
  0
LINE
  5
1D9
330
1F
100
AcDbEntity
  8
0
  6
Continuous
 62
     7
370
    25
100
AcDbLine
 10
12.220945119
 20
25.4303968453
 30
0.0
 11
15.970945119
 21
25.4303968453
 31
0.0
  0
LINE
  5
1DA
330
1F
100
AcDbEntity
  8
0
  6
Continuous
 62
     7
370
    25
100
AcDbLine
 10
12.220945119
 20
23.1543968453
 30
0.0
 11
12.220945119
 21
25.4303968453
 31
0.0
  0
LINE
  5
1DB
330
1F
100
AcDbEntity
  8
0
  6
Continuous
 62
     7
370
    25
100
AcDbLine
 10
18.1406638983
 20
23.0321176239
 30
0.0
 11
18.1485487139
 21
22.5803968453
 31
0.0
  0
LINE
  5
1DC
330
1F
100
AcDbEntity
  8
0
  6
Continuous
 62
     7
370
    25
100
AcDbLine
 10
17.4716421296
 20
25.3662418433
 30
0.0
 11
18.1406459059
 21
23.0331484109
 31
0.0
  0
LINE
  5
1DD
330
1F
100
AcDbEntity
  8
0
  6
Continuous
 62
     7
370
    25
100
AcDbLine
 10
18.1406459059
 20
23.0331484109
 30
0.0
 11
18.1406638983
 21
23.0321176239
 31
0.0
  0
LINE
  5
1DE
330
1F
100
AcDbEntity
  8
0
  6
Continuous
 62
     7
370
    25
100
AcDbLine
 10
11.367093061
 20
26.2003968453
 30
0.0
 11
10.7645288593
 21
26.2003968453
 31
0.0
  0
LINE
  5
1DF
330
1F
100
AcDbEntity
  8
0
  6
Continuous
 62
     7
370
    25
100
AcDbLine
 10
10.7092263398
 20
23.0321176239
 30
0.0
 11
10.7645288593
 21
26.2003968453
 31
0.0
  0
LINE
  5
1E0
330
1F
100
AcDbEntity
  8
0
  6
Continuous
 62
     7
370
    25
100
AcDbLine
 10
18.1288454948
 20
23.7091935087
 30
0.0
 11
17.5716409044
 21
25.6523968453
 31
0.0
  0
LINE
  5
1E1
330
1F
100
AcDbEntity
  8
0
  6
Continuous
 62
     7
370
    25
100
AcDbLine
 10
18.1406459059
 20
23.0331484109
 30
0.0
 11
18.1288454948
 21
23.7091935087
 31
0.0
  0
LINE
  5
1E2
330
1F
100
AcDbEntity
  8
0
  6
Continuous
 62
     7
370
    25
100
AcDbLine
 10
17.5716409044
 20
25.6523968453
 30
0.0
 11
17.3895885031
 21
25.6523968453
 31
0.0
  0
LINE
  5
1E3
330
1F
100
AcDbEntity
  8
0
  6
Continuous
 62
     7
370
    25
100
AcDbLine
 10
10.7013415242
 20
26.2003968453
 30
0.0
 11
10.7013415242
 21
22.5803968453
 31
0.0
  0
LINE
  5
1E4
330
1F
100
AcDbEntity
  8
0
  6
Continuous
 62
     7
370
    25
100
AcDbLine
 10
10.7645288593
 20
26.2003968453
 30
0.0
 11
10.7013415242
 21
26.2003968453
 31
0.0
  0
LINE
  5
1E5
330
1F
100
AcDbEntity
  8
0
  6
Continuous
 62
     7
370
    25
100
AcDbLine
 10
12.1174520317
 20
26.2403968453
 30
0.0
 11
15.9174520317
 21
26.2403968453
 31
0.0
  0
ARC
  5
1E6
330
1F
100
AcDbEntity
  8
0
  6
Continuous
 62
     7
370
    25
100
AcDbCircle
 10
15.9174520317
 20
26.2203968453
 30
0.0
 40
0.0200000000000031
100
AcDbArc
 50
0.0
 51
90.0
  0
LINE
  5
1E7
330
1F
100
AcDbEntity
  8
0
  6
Continuous
 62
     7
370
    25
100
AcDbLine
 10
15.9374520317
 20
26.2203968453
 30
0.0
 11
12.0974520317
 21
26.2203968453
 31
0.0
  0
ARC
  5
1E8
330
1F
100
AcDbEntity
  8
0
  6
Continuous
 62
     7
370
    25
100
AcDbCircle
 10
12.1174520317
 20
26.2203968453
 30
0.0
 40
0.0200000000000031
100
AcDbArc
 50
90.0
 51
180.0
  0
LINE
  5
1E9
330
1F
100
AcDbEntity
  8
0
  6
Continuous
 62
     7
370
    25
100
AcDbLine
 10
12.0974520317
 20
26.2203968453
 30
0.0
 11
12.0974520317
 21
26.2003968453
 31
0.0
  0
LINE
  5
1EA
330
1F
100
AcDbEntity
  8
0
  6
Continuous
 62
     7
370
    25
100
AcDbLine
 10
15.9374520317
 20
26.2203968453
 30
0.0
 11
15.9374520317
 21
26.2003968453
 31
0.0
  0
LINE
  5
1EB
330
1F
100
AcDbEntity
  8
0
  6
Continuous
 62
     8
370
    25
100
AcDbLine
 10
18.960445119
 20
21.6703968453
 30
0.0
 11
18.960445119
 21
21.6853968453
 31
0.0
  0
LINE
  5
1EC
330
1F
100
AcDbEntity
  8
0
  6
Continuous
 62
     8
370
    25
100
AcDbLine
 10
18.960445119
 20
21.7553968453
 30
0.0
 11
18.960445119
 21
21.7703968453
 31
0.0
  0
LINE
  5
1ED
330
1F
100
AcDbEntity
  8
0
  6
Continuous
 62
     8
370
    25
100
AcDbLine
 10
9.838445119
 20
21.6703968453
 30
0.0
 11
9.838445119
 21
21.6853968453
 31
0.0
  0
LINE
  5
1EE
330
1F
100
AcDbEntity
  8
0
  6
Continuous
 62
     8
370
    25
100
AcDbLine
 10
9.838445119
 20
21.7553968453
 30
0.0
 11
9.838445119
 21
21.7703968453
 31
0.0
  0
LINE
  5
1EF
330
1F
100
AcDbEntity
  8
0
  6
Continuous
 62
     7
370
    25
100
AcDbLine
 10
40.1310229709
 20
27.1623744232
 30
0.0
 11
40.0815254962
 21
27.1338001393
 31
0.0
  0
SPLINE
  5
1F0
330
1F
100
AcDbEntity
  8
0
  6
Continuous
 62
     7
370
    25
100
AcDbSpline
210
0.0
220
0.0
230
1.0
 70
     8
 71
     3
 72
    11
 73
     7
 74
     0
 42
0.00000001
 43
0.00000001
 40
0.0
 40
0.0
 40
0.0
 40
0.0
 40
0.2289727709294795
 40
0.5531379397470753
 40
0.8597810031120426
 40
1.0
 40
1.0
 40
1.0
 40
1.0
 10
46.46033576926689
 20
17.11549248407285
 30
0.0
 10
46.46765314889867
 20
17.11172255520237
 30
0.0
 10
46.48533001186117
 20
17.10261539944782
 30
0.0
 10
46.51512529266343
 20
17.09713156664049
 30
0.0
 10
46.54312927737922
 20
17.09884173899878
 30
0.0
 10
46.55690531509477
 20
17.10663478164209
 30
0.0
 10
46.56122804096788
 20
17.10908012824756
 30
0.0
  0
LINE
  5
1F1
330
1F
100
AcDbEntity
  8
0
  6
Continuous
 62
     7
370
    25
100
AcDbLine
 10
46.5623156105
 20
17.1080537897
 30
0.0
 11
47.2017330187
 21
17.4243810013
 31
0.0
  0
LINE
  5
1F2
330
1F
100
AcDbEntity
  8
0
  6
Continuous
 62
     7
370
    25
100
AcDbLine
 10
44.9846596556
 20
17.9673821715
 30
0.0
 11
46.4603357693
 21
17.1154924841
 31
0.0
  0
LINE
  5
1F3
330
1F
100
AcDbEntity
  8
0
  6
Continuous
 62
     7
370
    25
100
AcDbLine
 10
40.5516586013
 20
27.7080755355
 30
0.0
 11
40.0552937854
 21
27.3773856086
 31
0.0
  0
LINE
  5
1F4
330
1F
100
AcDbEntity
  8
0
  6
Continuous
 62
     7
370
    25
100
AcDbLine
 10
39.9134089172
 20
27.060894854
 30
0.0
 11
39.9134089172
 21
21.0066142908
 31
0.0
  0
LINE
  5
1F5
330
1F
100
AcDbEntity
  8
0
  6
Continuous
 62
     7
370
    25
100
AcDbLine
 10
40.0101077113
 20
20.8391298821
 30
0.0
 11
41.485783825
 21
19.9872401946
 31
0.0
  0
SPLINE
  5
1F6
330
1F
100
AcDbEntity
  8
0
  6
Continuous
 62
     7
370
    25
100
AcDbSpline
210
0.0
220
0.0
230
1.0
 70
     8
 71
     3
 72
    13
 73
     9
 74
     0
 42
0.00000001
 43
0.00000001
 40
0.0
 40
0.0
 40
0.0
 40
0.0
 40
0.1240313600664947
 40
0.3331445012069821
 40
0.5435263539880457
 40
0.7568381427500864
 40
0.9616179504331448
 40
0.9999999999999999
 40
0.9999999999999999
 40
0.9999999999999999
 40
0.9999999999999999
 10
39.91340891722849
 20
21.0066142908303
 30
0.0
 10
39.91378430395162
 20
20.99865322086416
 30
0.0
 10
39.91479258139506
 20
20.97727002647267
 30
0.0
 10
39.92478080676057
 20
20.94163874921661
 30
0.0
 10
39.94454370377796
 20
20.90212873446875
 30
0.0
 10
39.97143716572535
 20
20.86787839982493
 30
0.0
 10
39.99468667915525
 20
20.84835636986754
 30
0.0
 10
40.00800540750332
 20
20.84038770193318
 30
0.0
 10
40.01010771128322
 20
20.83912988209623
 30
0.0
  0
LINE
  5
1F7
330
1F
100
AcDbEntity
  8
0
  6
Continuous
 62
     7
370
    25
100
AcDbLine
 10
46.4966972923
 20
23.4447470313
 30
0.0
 11
46.546194767
 21
23.4733213153
 31
0.0
  0
ARC
  5
1F8
330
1F
100
AcDbEntity
  8
0
  6
Continuous
 62
     7
370
    25
100
AcDbCircle
 10
46.4965082077
 20
23.3956449721
 30
0.0
 40
0.0922082884543511
100
AcDbArc
 50
2.6054784857
 51
57.39452166
  0
LINE
  5
1F9
330
1F
100
AcDbEntity
  8
0
  6
Continuous
 62
     7
370
    25
100
AcDbLine
 10
46.5886211738
 20
23.3998366232
 30
0.0
 11
46.5391236991
 21
23.3712623393
 31
0.0
  0
ARC
  5
1FA
330
1F
100
AcDbEntity
  8
0
  6
Continuous
 62
     7
370
    25
100
AcDbCircle
 10
46.4470107331
 20
23.3670706881
 30
0.0
 40
0.0922082884542778
100
AcDbArc
 50
2.6054784856
 51
57.39452166
  0
ARC
  5
1FB
330
1F
100
AcDbEntity
  8
0
  6
Continuous
 62
     7
370
    25
100
AcDbCircle
 10
40.0949611133
 20
27.1105250827
 30
0.0
 40
0.0262025518457141
100
AcDbArc
 50
50.7967147643
 51
189.2140369905
  0
LINE
  5
1FC
330
1F
100
AcDbEntity
  8
0
  6
Continuous
 62
     7
370
    25
100
AcDbLine
 10
46.4966972923
 20
23.4447470313
 30
0.0
 11
40.1115230582
 21
27.1308296562
 31
0.0
  0
LINE
  5
1FD
330
1F
100
AcDbEntity
  8
0
  6
Continuous
 62
     7
370
    25
100
AcDbLine
 10
46.5391236991
 20
23.3044195187
 30
0.0
 11
46.5391236991
 21
23.3712623393
 31
0.0
  0
LINE
  5
1FE
330
1F
100
AcDbEntity
  8
0
  6
Continuous
 62
     7
370
    25
100
AcDbLine
 10
41.5471200797
 20
20.0963669659
 30
0.0
 11
44.9728821788
 21
18.1187166015
 31
0.0
  0
LINE
  5
1FF
330
1F
100
AcDbEntity
  8
0
  6
Continuous
 62
     7
370
    25
100
AcDbLine
 10
40.0690966513
 20
27.1063294509
 30
0.0
 11
40.0690966513
 21
27.0394866303
 31
0.0
  0
LINE
  5
200
330
1F
100
AcDbEntity
  8
0
  6
Continuous
 62
     7
370
    25
100
AcDbLine
 10
46.5886211738
 20
23.3094974006
 30
0.0
 11
46.5886211738
 21
23.3998366232
 31
0.0
  0
LINE
  5
201
330
1F
100
AcDbEntity
  8
0
  6
Continuous
 62
     7
370
    25
100
AcDbLine
 10
40.1610205328
 20
27.1594039401
 30
0.0
 11
40.1115230582
 21
27.1308296562
 31
0.0
  0
LINE
  5
202
330
1F
100
AcDbEntity
  8
0
  6
Continuous
 62
     7
370
    25
100
AcDbLine
 10
46.546194767
 20
23.4733213153
 30
0.0
 11
40.1610205328
 21
27.1594039401
 31
0.0
  0
ARC
  5
203
330
1F
100
AcDbEntity
  8
0
  6
Continuous
 62
     7
370
    25
100
AcDbCircle
 10
40.1434453296
 20
27.1348710604
 30
0.0
 40
0.0301786341541077
100
AcDbArc
 50
54.3824225248
 51
114.3071190461
  0
LINE
  5
204
330
1F
100
AcDbEntity
  8
0
  6
Continuous
 62
     7
370
    25
100
AcDbLine
 10
46.5893282806
 20
23.6475672585
 30
0.0
 11
47.1055162309
 21
23.9767951755
 31
0.0
  0
ARC
  5
205
330
1F
100
AcDbEntity
  8
0
  6
Continuous
 62
     7
370
    25
100
AcDbCircle
 10
46.9398943668
 20
23.7178740315
 30
0.0
 40
0.3073609615144179
100
AcDbArc
 50
2.6054784857
 51
57.39452166
  0
LINE
  5
206
330
1F
100
AcDbEntity
  8
0
  6
Continuous
 62
     7
370
    25
100
AcDbLine
 10
46.7036973727
 20
23.4494741808
 30
0.0
 11
47.2469375871
 21
23.7318462019
 31
0.0
  0
ARC
  5
207
330
1F
100
AcDbEntity
  8
0
  6
Continuous
 62
     7
370
    25
100
AcDbCircle
 10
46.455387957
 20
23.4381747244
 30
0.0
 40
0.2485663766903078
100
AcDbArc
 50
2.6054784857
 51
57.39452166
  0
LINE
  5
208
330
1F
100
AcDbEntity
  8
0
  6
Continuous
 62
     7
370
    25
100
AcDbLine
 10
47.2469375871
 20
17.5179706235
 30
0.0
 11
47.2469375871
 21
23.7318462019
 31
0.0
  0
LINE
  5
209
330
1F
100
AcDbEntity
  8
0
  6
Continuous
 62
     7
370
    25
100
AcDbLine
 10
46.5971775237
 20
17.1802304167
 30
0.0
 11
47.2469375871
 21
17.5179706235
 31
0.0
  0
LINE
  5
20A
330
1F
100
AcDbEntity
  8
0
  6
Continuous
 62
     7
370
    25
100
AcDbLine
 10
46.5971775237
 20
23.2350709179
 30
0.0
 11
46.5971775237
 21
17.1802304167
 31
0.0
  0
LINE
  5
20B
330
1F
100
AcDbEntity
  8
0
  6
Continuous
 62
     7
370
    25
100
AcDbLine
 10
46.7036973727
 20
23.2924792477
 30
0.0
 11
46.5971775237
 21
23.2350709179
 31
0.0
  0
LINE
  5
20C
330
1F
100
AcDbEntity
  8
0
  6
Continuous
 62
     7
370
    25
100
AcDbLine
 10
46.7036973727
 20
23.2924792477
 30
0.0
 11
46.7036973727
 21
23.4494741808
 31
0.0
  0
LINE
  5
20D
330
1F
100
AcDbEntity
  8
0
  6
Continuous
 62
     7
370
    25
100
AcDbLine
 10
40.0247311306
 20
27.1481643887
 30
0.0
 11
40.071490252
 21
27.1211709225
 31
0.0
  0
LINE
  5
20E
330
1F
100
AcDbEntity
  8
0
  6
Continuous
 62
     7
370
    25
100
AcDbLine
 10
40.0247311306
 20
27.3051593218
 30
0.0
 11
40.0247311306
 21
27.1481643887
 31
0.0
  0
ARC
  5
20F
330
1F
100
AcDbEntity
  8
0
  6
Continuous
 62
     7
370
    25
100
AcDbCircle
 10
40.0944540993
 20
27.316469509
 30
0.0
 40
0.0706343592480083
100
AcDbArc
 50
50.7967147643
 51
189.2140369905
  0
LINE
  5
210
330
1F
100
AcDbEntity
  8
0
  6
Continuous
 62
     7
370
    25
100
AcDbLine
 10
46.5893282806
 20
23.6475672585
 30
0.0
 11
40.1391002226
 21
27.3712046565
 31
0.0
  0
LINE
  5
211
330
1F
100
AcDbEntity
  8
0
  6
Continuous
 62
     7
370
    25
100
AcDbLine
 10
46.632889655
 20
23.333355673
 30
0.0
 11
46.7036973727
 21
23.2924792477
 31
0.0
  0
LINE
  5
212
330
1F
100
AcDbEntity
  8
0
  6
Continuous
 62
     7
370
    25
100
AcDbLine
 10
46.632889655
 20
23.333355673
 30
0.0
 11
46.632889655
 21
23.3507787146
 31
0.0
  0
LINE
  5
213
330
1F
100
AcDbEntity
  8
0
  6
Continuous
 62
     7
370
    25
100
AcDbLine
 10
46.5886211738
 20
23.3763343649
 30
0.0
 11
46.632889655
 21
23.3507787146
 31
0.0
  0
LINE
  5
214
330
1F
100
AcDbEntity
  8
0
  6
Continuous
 62
     7
370
    25
100
AcDbLine
 10
40.1391002226
 20
27.3712046565
 30
0.0
 11
40.6552881729
 21
27.7004325735
 31
0.0
  0
LINE
  5
215
330
1F
100
AcDbEntity
  8
0
  6
Continuous
 62
     7
370
    25
100
AcDbLine
 10
47.1055162309
 20
23.9767951755
 30
0.0
 11
40.6552881729
 21
27.7004325735
 31
0.0
  0
ELLIPSE
  5
216
330
1F
100
AcDbEntity
  8
0
  6
Continuous
 62
     7
370
    25
100
AcDbEllipse
 10
46.5570296873
 20
23.2608561764
 30
0.0
 11
0.05999755098708448
 21
0.0009230820403018924
 31
0.0
210
0.0
220
0.0
230
1.0
 40
0.5872748834
 41
3.91795564576425
 42
5.436392094999543
  0
LINE
  5
217
330
1F
100
AcDbEntity
  8
0
  6
Continuous
 62
     7
370
    25
100
AcDbLine
 10
46.3278689463
 20
23.3433082032
 30
0.0
 11
46.5146032804
 21
23.2355087667
 31
0.0
  0
LINE
  5
218
330
1F
100
AcDbEntity
  8
0
  6
Continuous
 62
     7
370
    25
100
AcDbLine
 10
46.3278689463
 20
23.3433082032
 30
0.0
 11
46.3973453649
 21
23.3862664089
 31
0.0
  0
LINE
  5
219
330
1F
100
AcDbEntity
  8
0
  6
Continuous
 62
     7
370
    25
100
AcDbLine
 10
46.3973453649
 20
23.3862664089
 30
0.0
 11
46.5584731873
 21
23.2932492969
 31
0.0
  0
LINE
  5
21A
330
1F
100
AcDbEntity
  8
0
  6
Continuous
 62
     7
370
    25
100
AcDbLine
 10
46.632889655
 20
23.333355673
 30
0.0
 11
46.5584731873
 21
23.2932492969
 31
0.0
  0
ARC
  5
21B
330
1F
100
AcDbEntity
  8
0
  6
Continuous
 62
     7
370
    25
100
AcDbCircle
 10
46.5571479466
 20
17.264043027
 30
0.0
 40
0.0928812181643907
100
AcDbArc
 50
242.7383566722
 51
295.529516349
  0
LINE
  5
21C
330
1F
100
AcDbEntity
  8
0
  6
Continuous
 62
     7
370
    25
100
AcDbLine
 10
46.5146032804
 20
17.1814786759
 30
0.0
 11
46.5146032804
 21
23.2355087667
 31
0.0
  0
ARC
  5
21D
330
1F
100
AcDbEntity
  8
0
  6
Continuous
 62
     7
370
    25
100
AcDbCircle
 10
46.4739430997
 20
17.1748829405
 30
0.0
 40
0.0411916741429801
100
AcDbArc
 50
230.7967147643
 51
9.2140369905
  0
LINE
  5
21E
330
1F
100
AcDbEntity
  8
0
  6
Continuous
 62
     7
370
    25
100
AcDbLine
 10
44.9728821788
 20
17.9944768331
 30
0.0
 11
46.4479069244
 21
17.1429631725
 31
0.0
  0
LINE
  5
21F
330
1F
100
AcDbEntity
  8
0
  6
Continuous
 62
     7
370
    25
100
AcDbLine
 10
44.9728821788
 20
17.9944768331
 30
0.0
 11
44.9728821788
 21
18.2101107499
 31
0.0
  0
LINE
  5
220
330
1F
100
AcDbEntity
  8
0
  6
Continuous
 62
     7
370
    25
100
AcDbLine
 10
44.9728821788
 20
18.2101107499
 30
0.0
 11
46.3278689463
 21
17.427893539
 31
0.0
  0
LINE
  5
221
330
1F
100
AcDbEntity
  8
0
  6
Continuous
 62
     7
370
    25
100
AcDbLine
 10
46.3278689463
 20
17.427893539
 30
0.0
 11
46.3278689463
 21
23.3433082032
 31
0.0
  0
LINE
  5
222
330
1F
100
AcDbEntity
  8
0
  6
Continuous
 62
     7
370
    25
100
AcDbLine
 10
40.1177168445
 20
26.9283527017
 30
0.0
 11
40.1177168445
 21
21.0129380375
 31
0.0
  0
LINE
  5
223
330
1F
100
AcDbEntity
  8
0
  6
Continuous
 62
     7
370
    25
100
AcDbLine
 10
40.1177168445
 20
21.0129380375
 30
0.0
 11
41.4727036119
 21
20.2307208266
 31
0.0
  0
LINE
  5
224
330
1F
100
AcDbEntity
  8
0
  6
Continuous
 62
     7
370
    25
100
AcDbLine
 10
41.4727036119
 20
20.2307208266
 30
0.0
 11
41.4727036119
 21
20.0150869099
 31
0.0
  0
LINE
  5
225
330
1F
100
AcDbEntity
  8
0
  6
Continuous
 62
     7
370
    25
100
AcDbLine
 10
39.9976788664
 20
20.8666005705
 30
0.0
 11
41.4727036119
 21
20.0150869099
 31
0.0
  0
ARC
  5
226
330
1F
100
AcDbEntity
  8
0
  6
Continuous
 62
     7
370
    25
100
AcDbCircle
 10
40.0757885318
 20
20.988711525
 30
0.0
 40
0.1449558727584564
100
AcDbArc
 50
182.6054784857
 51
237.39452166
  0
LINE
  5
227
330
1F
100
AcDbEntity
  8
0
  6
Continuous
 62
     7
370
    25
100
AcDbLine
 10
39.9309825104
 20
27.0361521382
 30
0.0
 11
39.9309825104
 21
20.9821220475
 31
0.0
  0
LINE
  5
228
330
1F
100
AcDbEntity
  8
0
  6
Continuous
 62
     7
370
    25
100
AcDbLine
 10
39.9309825104
 20
27.0361521382
 30
0.0
 11
40.1177168445
 21
26.9283527017
 31
0.0
  0
ARC
  5
229
330
1F
100
AcDbEntity
  8
0
  6
Continuous
 62
     7
370
    25
100
AcDbCircle
 10
47.1504882446
 20
17.5068445578
 30
0.0
 40
0.0970889541221444
100
AcDbArc
 50
301.8577803584
 51
6.5803591129
  0
LINE
  5
22A
330
1F
100
AcDbEntity
  8
0
  6
Continuous
 62
     7
370
    25
100
AcDbLine
 10
45.0398870673
 20
18.2544957396
 30
0.0
 11
44.9728821788
 21
18.2101107499
 31
0.0
  0
LINE
  5
22B
330
1F
100
AcDbEntity
  8
0
  6
Continuous
 62
     7
370
    25
100
AcDbLine
 10
46.3278689463
 20
17.5109596275
 30
0.0
 11
45.0398870673
 21
18.2544957396
 31
0.0
  0
ELLIPSE
  5
22C
330
1F
100
AcDbEntity
  8
0
  6
Continuous
 62
     7
370
    25
100
AcDbEllipse
 10
45.0130851119
 20
18.0202526605
 30
0.0
 11
0.02774733934481333
 21
0.05324270391043484
 31
0.0
210
0.0
220
0.0
230
1.0
 40
0.5464088388
 41
2.332536807928156
 42
3.118016235387933
  0
LINE
  5
22D
330
1F
100
AcDbEntity
  8
0
  6
Continuous
 62
     7
370
    25
100
AcDbLine
 10
41.5582825498
 20
20.089923009
 30
0.0
 11
41.5471200797
 21
20.0847627405
 31
0.0
  0
ARC
  5
22E
330
1F
100
AcDbEntity
  8
0
  6
Continuous
 62
     7
370
    25
100
AcDbCircle
 10
40.5976656142
 20
27.6255074871
 30
0.0
 40
0.0945205155301206
100
AcDbArc
 50
52.4372327537
 51
119.1266029167
  0
LINE
  5
22F
330
1F
100
AcDbEntity
  8
0
  6
Continuous
 62
     7
370
    25
100
AcDbLine
 10
39.9288202277
 20
27.0846316446
 30
0.0
 11
40.0247311306
 21
27.1481643887
 31
0.0
  0
LINE
  5
230
330
1F
100
AcDbEntity
  8
0
  6
Continuous
 62
     7
370
    25
100
AcDbLine
 10
40.0285339597
 20
27.0629029737
 30
0.0
 11
40.0690966513
 21
27.0897722767
 31
0.0
  0
LINE
  5
231
330
1F
100
AcDbEntity
  8
0
  6
Continuous
 62
     7
370
    25
100
AcDbLine
 10
40.1896617821
 20
26.9698858618
 30
0.0
 11
40.1177168445
 21
26.9283527017
 31
0.0
  0
ELLIPSE
  5
232
330
1F
100
AcDbEntity
  8
0
  6
Continuous
 62
     7
370
    25
100
AcDbEllipse
 10
39.9734089172
 20
27.061499548
 30
0.0
 11
0.05999755098709868
 21
0.0009230820403054452
 31
0.0
210
0.0
220
0.0
230
1.0
 40
0.5872748834
 41
2.399519196529225
 42
3.917955645764549
  0
LINE
  5
233
330
1F
100
AcDbEntity
  8
0
  6
Continuous
 62
     7
370
    25
100
AcDbLine
 10
40.0285339597
 20
27.0629029737
 30
0.0
 11
40.1896617821
 21
26.9698858618
 31
0.0
  0
LINE
  5
234
330
1F
100
AcDbEntity
  8
0
  6
Continuous
 62
     7
370
    25
100
AcDbLine
 10
40.1896617821
 20
21.0544711976
 30
0.0
 11
40.1177168445
 21
21.0129380375
 31
0.0
  0
LINE
  5
235
330
1F
100
AcDbEntity
  8
0
  6
Continuous
 62
     7
370
    25
100
AcDbLine
 10
40.1896617821
 20
21.0544711976
 30
0.0
 11
40.1896617821
 21
26.9698858618
 31
0.0
  0
ELLIPSE
  5
236
330
1F
100
AcDbEntity
  8
0
  6
Continuous
 62
     7
370
    25
100
AcDbEllipse
 10
41.5173534926
 20
20.0382955691
 30
0.0
 11
0.03247407467450358
 21
0.05050400065626803
 31
0.0
210
0.0
220
0.0
230
1.0
 40
0.6067610922
 41
2.385183070291193
 42
3.903619519526184
  0
LINE
  5
237
330
1F
100
AcDbEntity
  8
0
  6
Continuous
 62
     7
370
    25
100
AcDbLine
 10
41.4727036119
 20
20.2307208266
 30
0.0
 11
41.5471200797
 21
20.2708272027
 31
0.0
  0
LINE
  5
238
330
1F
100
AcDbEntity
  8
0
  6
Continuous
 62
     7
370
    25
100
AcDbLine
 10
41.6369359765
 20
20.0445173523
 30
0.0
 11
41.5150166984
 21
19.9881556155
 31
0.0
  0
LINE
  5
239
330
1F
100
AcDbEntity
  8
0
  6
Continuous
 62
     7
370
    25
100
AcDbLine
 10
41.5471200797
 20
20.2708272027
 30
0.0
 11
41.5471200797
 21
20.0847627405
 31
0.0
  0
LINE
  5
23A
330
1F
100
AcDbEntity
  8
0
  6
Continuous
 62
     7
370
    25
100
AcDbLine
 10
41.5471200797
 20
20.2708272027
 30
0.0
 11
40.1896617821
 21
21.0544711976
 31
0.0
  0
LINE
  5
23B
330
1F
100
AcDbEntity
  8
0
  6
Continuous
 62
     7
370
    25
100
AcDbLine
 10
44.3525005891
 20
27.7835495165
 30
0.0
 11
42.2758786642
 21
26.7648855966
 31
0.0
  0
LINE
  5
23C
330
1F
100
AcDbEntity
  8
0
  6
Continuous
 62
     7
370
    25
100
AcDbLine
 10
44.3525005891
 20
27.7835495165
 30
0.0
 11
48.4999356914
 21
25.3892861953
 31
0.0
  0
LINE
  5
23D
330
1F
100
AcDbEntity
  8
0
  6
Continuous
 62
     7
370
    25
100
AcDbLine
 10
48.0792319731
 20
25.0107327908
 30
0.0
 11
48.4999356914
 21
25.3892861953
 31
0.0
  0
LINE
  5
23E
330
1F
100
AcDbEntity
  8
0
  6
Continuous
 62
     7
370
    25
100
AcDbLine
 10
46.5440409138
 20
24.3009279767
 30
0.0
 11
48.0792319731
 21
25.0107327908
 31
0.0
  0
LINE
  5
23F
330
1F
100
AcDbEntity
  8
0
  6
Continuous
 62
     7
370
    25
100
AcDbLine
 10
45.7868338746
 20
24.7380542959
 30
0.0
 11
47.4891216597
 21
25.564573129
 31
0.0
  0
LINE
  5
240
330
1F
100
AcDbEntity
  8
0
  6
Continuous
 62
     7
370
    25
100
AcDbLine
 10
42.6684929695
 20
26.5382341825
 30
0.0
 11
44.3707807546
 21
27.3647530155
 31
0.0
  0
LINE
  5
241
330
1F
100
AcDbEntity
  8
0
  6
Continuous
 62
     7
370
    25
100
AcDbLine
 10
47.0634433774
 20
25.6449286201
 30
0.0
 11
45.5031468727
 21
24.9018233162
 31
0.0
  0
LINE
  5
242
330
1F
100
AcDbEntity
  8
0
  6
Continuous
 62
     7
370
    25
100
AcDbLine
 10
44.4117929479
 20
27.1756938298
 30
0.0
 11
47.0634433774
 21
25.6449286201
 31
0.0
  0
LINE
  5
243
330
1F
100
AcDbEntity
  8
0
  6
Continuous
 62
     7
370
    25
100
AcDbLine
 10
42.8514964433
 20
26.4325885258
 30
0.0
 11
44.4117929479
 21
27.1756938298
 31
0.0
  0
LINE
  5
244
330
1F
100
AcDbEntity
  8
0
  6
Continuous
 62
     7
370
    25
100
AcDbLine
 10
48.0792319731
 20
25.0107327908
 30
0.0
 11
47.2262698534
 21
23.8287805658
 31
0.0
  0
LINE
  5
245
330
1F
100
AcDbEntity
  8
0
  6
Continuous
 62
     7
370
    25
100
AcDbLine
 10
48.2235534398
 20
24.4757379808
 30
0.0
 11
47.2469375871
 21
23.4724353628
 31
0.0
  0
LINE
  5
246
330
1F
100
AcDbEntity
  8
0
  6
Continuous
 62
     7
370
    25
100
AcDbLine
 10
48.4999356914
 20
20.4552698399
 30
0.0
 11
48.4999356914
 21
25.3892861953
 31
0.0
  0
LINE
  5
247
330
1F
100
AcDbEntity
  8
0
  6
Continuous
 62
     7
370
    25
100
AcDbLine
 10
48.4999356914
 20
20.4552698399
 30
0.0
 11
48.0792319731
 21
19.957535598
 31
0.0
  0
LINE
  5
248
330
1F
100
AcDbEntity
  8
0
  6
Continuous
 62
     7
370
    25
100
AcDbLine
 10
47.2469375871
 20
19.3772548456
 30
0.0
 11
48.0792319731
 21
19.957535598
 31
0.0
  0
LINE
  5
249
330
1F
100
AcDbEntity
  8
0
  6
Continuous
 62
     7
370
    25
100
AcDbLine
 10
48.2235534398
 20
20.8747930004
 30
0.0
 11
47.2469375871
 21
19.8714903823
 31
0.0
  0
LINE
  5
24A
330
1F
100
AcDbEntity
  8
0
  6
Continuous
 62
     7
370
    25
100
AcDbLine
 10
48.2235534398
 20
21.1034244277
 30
0.0
 11
47.2469375871
 21
20.0863233544
 31
0.0
  0
LINE
  5
24B
330
1F
100
AcDbEntity
  8
0
  6
Continuous
 62
     7
370
    25
100
AcDbLine
 10
48.2235534398
 20
24.1654524723
 30
0.0
 11
48.2235534398
 21
21.1034244277
 31
0.0
  0
LINE
  5
24C
330
1F
100
AcDbEntity
  8
0
  6
Continuous
 62
     7
370
    25
100
AcDbLine
 10
47.2469375871
 20
23.148351399
 30
0.0
 11
48.2235534398
 21
24.1654524723
 31
0.0
  0
LINE
  5
24D
330
1F
100
AcDbEntity
  8
0
  6
Continuous
 62
     7
370
    25
100
AcDbLine
 10
47.3722348151
 20
23.3945937582
 30
0.0
 11
48.3522839273
 21
24.4014234522
 31
0.0
  0
LINE
  5
24E
330
1F
100
AcDbEntity
  8
0
  6
Continuous
 62
     7
370
    25
100
AcDbLine
 10
47.2469375871
 20
23.3209763201
 30
0.0
 11
47.3722348151
 21
23.3945937582
 31
0.0
  0
LINE
  5
24F
330
1F
100
AcDbEntity
  8
0
  6
Continuous
 62
     7
370
    25
100
AcDbLine
 10
48.3522839273
 20
24.4014234522
 30
0.0
 11
48.2235534398
 21
24.4757379808
 31
0.0
  0
LINE
  5
250
330
1F
100
AcDbEntity
  8
0
  6
Continuous
 62
     7
370
    25
100
AcDbLine
 10
47.3722348151
 20
23.2852457505
 30
0.0
 11
47.3722348151
 21
23.3945937582
 31
0.0
  0
LINE
  5
251
330
1F
100
AcDbEntity
  8
0
  6
Continuous
 62
     7
370
    25
100
AcDbLine
 10
47.2469375871
 20
23.2090580921
 30
0.0
 11
47.3722348151
 21
23.2852457505
 31
0.0
  0
LINE
  5
252
330
1F
100
AcDbEntity
  8
0
  6
Continuous
 62
     7
370
    25
100
AcDbLine
 10
45.9634807196
 20
25.0486799733
 30
0.0
 11
46.0593656733
 21
24.9933267678
 31
0.0
  0
LINE
  5
253
330
1F
100
AcDbEntity
  8
0
  6
Continuous
 62
     7
370
    25
100
AcDbLine
 10
46.0593656733
 20
24.9933267678
 30
0.0
 11
45.6988277907
 21
24.7888591268
 31
0.0
  0
LINE
  5
254
330
1F
100
AcDbEntity
  8
0
  6
Continuous
 62
     7
370
    25
100
AcDbLine
 10
45.9634807196
 20
25.0486799733
 30
0.0
 11
45.5965947049
 21
24.847877031
 31
0.0
  0
LINE
  5
255
330
1F
100
AcDbEntity
  8
0
  6
Continuous
 62
     7
370
    25
100
AcDbLine
 10
47.4891216597
 20
25.564573129
 30
0.0
 11
47.4891216597
 21
25.6875221087
 31
0.0
  0
LINE
  5
256
330
1F
100
AcDbEntity
  8
0
  6
Continuous
 62
     7
370
    25
100
AcDbLine
 10
47.4891216597
 20
25.6875221087
 30
0.0
 11
46.0593656733
 21
24.9933267678
 31
0.0
  0
LINE
  5
257
330
1F
100
AcDbEntity
  8
0
  6
Continuous
 62
     7
370
    25
100
AcDbLine
 10
48.3522839273
 20
24.319769371
 30
0.0
 11
48.3522839273
 21
24.4014234522
 31
0.0
  0
LINE
  5
258
330
1F
100
AcDbEntity
  8
0
  6
Continuous
 62
     7
370
    25
100
AcDbLine
 10
47.3722348151
 20
23.2852457505
 30
0.0
 11
48.3522839273
 21
24.319769371
 31
0.0
  0
LINE
  5
259
330
1F
100
AcDbEntity
  8
0
  6
Continuous
 62
     7
370
    25
100
AcDbLine
 10
47.4184109816
 20
25.7283425143
 30
0.0
 11
47.4891216597
 21
25.6875221087
 31
0.0
  0
LINE
  5
25A
330
1F
100
AcDbEntity
  8
0
  6
Continuous
 62
     7
370
    25
100
AcDbLine
 10
47.4184109816
 20
25.7283425143
 30
0.0
 11
45.9634807196
 21
25.0486799733
 31
0.0
  0
LINE
  5
25B
330
1F
100
AcDbEntity
  8
0
  6
Continuous
 62
     7
370
    25
100
AcDbLine
 10
44.3494639364
 20
25.6196111907
 30
0.0
 11
44.1139973783
 21
25.7555431413
 31
0.0
  0
LINE
  5
25C
330
1F
100
AcDbEntity
  8
0
  6
Continuous
 62
     7
370
    25
100
AcDbLine
 10
44.3494639364
 20
25.6196111907
 30
0.0
 11
44.3494639364
 21
25.567830299
 31
0.0
  0
LINE
  5
25D
330
1F
100
AcDbEntity
  8
0
  6
Continuous
 62
     7
370
    25
100
AcDbLine
 10
43.9251998677
 20
25.8127527325
 30
0.0
 11
43.9251998677
 21
26.1581022817
 31
0.0
  0
LINE
  5
25E
330
1F
100
AcDbEntity
  8
0
  6
Continuous
 62
     7
370
    25
100
AcDbLine
 10
44.058771129
 20
26.2238709965
 30
0.0
 11
44.058771129
 21
26.8958733724
 31
0.0
  0
LINE
  5
25F
330
1F
100
AcDbEntity
  8
0
  6
Continuous
 62
     7
370
    25
100
AcDbLine
 10
44.058771129
 20
26.8958733724
 30
0.0
 11
44.0305384116
 21
26.9121519266
 31
0.0
  0
LINE
  5
260
330
1F
100
AcDbEntity
  8
0
  6
Continuous
 62
     7
370
    25
100
AcDbLine
 10
47.8439400377
 20
20.8271494389
 30
0.0
 11
47.2469375871
 21
21.1717916177
 31
0.0
  0
LINE
  5
261
330
1F
100
AcDbEntity
  8
0
  6
Continuous
 62
     7
370
    25
100
AcDbLine
 10
44.4117929479
 20
27.1756938298
 30
0.0
 11
44.4117929479
 21
27.0937278432
 31
0.0
  0
LINE
  5
262
330
1F
100
AcDbEntity
  8
0
  6
Continuous
 62
     7
370
    25
100
AcDbLine
 10
44.4117929479
 20
27.0937278432
 30
0.0
 11
46.9856433302
 21
25.6078756448
 31
0.0
  0
LINE
  5
263
330
1F
100
AcDbEntity
  8
0
  6
Continuous
 62
     7
370
    25
100
AcDbLine
 10
48.1499931612
 20
21.1458898726
 30
0.0
 11
48.2235534398
 21
21.1034244277
 31
0.0
  0
LINE
  5
264
330
1F
100
AcDbEntity
  8
0
  6
Continuous
 62
     7
370
    25
100
AcDbLine
 10
48.1499931612
 20
24.0888427817
 30
0.0
 11
48.1499931612
 21
21.1458898726
 31
0.0
  0
LINE
  5
265
330
1F
100
AcDbEntity
  8
0
  6
Continuous
 62
     7
370
    25
100
AcDbLine
 10
47.3722348151
 20
19.7936487778
 30
0.0
 11
47.3722348151
 21
19.6843007701
 31
0.0
  0
LINE
  5
266
330
1F
100
AcDbEntity
  8
0
  6
Continuous
 62
     7
370
    25
100
AcDbLine
 10
47.2469375871
 20
19.6081131117
 30
0.0
 11
47.3722348151
 21
19.6843007701
 31
0.0
  0
LINE
  5
267
330
1F
100
AcDbEntity
  8
0
  6
Continuous
 62
     7
370
    25
100
AcDbLine
 10
47.2469375871
 20
19.7200313396
 30
0.0
 11
47.3722348151
 21
19.7936487778
 31
0.0
  0
LINE
  5
268
330
1F
100
AcDbEntity
  8
0
  6
Continuous
 62
     7
370
    25
100
AcDbLine
 10
47.3722348151
 20
19.7936487778
 30
0.0
 11
48.3522839273
 21
20.8004784718
 31
0.0
  0
LINE
  5
269
330
1F
100
AcDbEntity
  8
0
  6
Continuous
 62
     7
370
    25
100
AcDbLine
 10
48.3522839273
 20
20.8004784718
 30
0.0
 11
48.2235534398
 21
20.8747930004
 31
0.0
  0
LINE
  5
26A
330
1F
100
AcDbEntity
  8
0
  6
Continuous
 62
     7
370
    25
100
AcDbLine
 10
42.9410247682
 20
26.7935066543
 30
0.0
 11
42.5804868856
 21
26.5890390133
 31
0.0
  0
LINE
  5
26B
330
1F
100
AcDbEntity
  8
0
  6
Continuous
 62
     7
370
    25
100
AcDbLine
 10
42.8451398146
 20
26.8488598598
 30
0.0
 11
42.4782537998
 21
26.6480569175
 31
0.0
  0
LINE
  5
26C
330
1F
100
AcDbEntity
  8
0
  6
Continuous
 62
     7
370
    25
100
AcDbLine
 10
42.8451398146
 20
26.8488598598
 30
0.0
 11
42.9410247682
 21
26.7935066543
 31
0.0
  0
LINE
  5
26D
330
1F
100
AcDbEntity
  8
0
  6
Continuous
 62
     7
370
    25
100
AcDbLine
 10
44.3707807546
 20
27.3647530155
 30
0.0
 11
44.3707807546
 21
27.4877019953
 31
0.0
  0
LINE
  5
26E
330
1F
100
AcDbEntity
  8
0
  6
Continuous
 62
     7
370
    25
100
AcDbLine
 10
44.3707807546
 20
27.4877019953
 30
0.0
 11
42.9410247682
 21
26.7935066543
 31
0.0
  0
LINE
  5
26F
330
1F
100
AcDbEntity
  8
0
  6
Continuous
 62
     7
370
    25
100
AcDbLine
 10
48.1499931612
 20
21.1458898726
 30
0.0
 11
47.2469375871
 21
20.2053984899
 31
0.0
  0
LINE
  5
270
330
1F
100
AcDbEntity
  8
0
  6
Continuous
 62
     7
370
    25
100
AcDbLine
 10
48.3522839273
 20
20.8004784718
 30
0.0
 11
48.3522839273
 21
20.7188243906
 31
0.0
  0
LINE
  5
271
330
1F
100
AcDbEntity
  8
0
  6
Continuous
 62
     7
370
    25
100
AcDbLine
 10
47.3722348151
 20
19.6843007701
 30
0.0
 11
48.3522839273
 21
20.7188243906
 31
0.0
  0
LINE
  5
272
330
1F
100
AcDbEntity
  8
0
  6
Continuous
 62
     7
370
    25
100
AcDbLine
 10
42.9292964905
 20
26.3876755146
 30
0.0
 11
44.4117929479
 21
27.0937278432
 31
0.0
  0
LINE
  5
273
330
1F
100
AcDbEntity
  8
0
  6
Continuous
 62
     7
370
    25
100
AcDbLine
 10
44.3707807546
 20
27.4877019953
 30
0.0
 11
44.3000700765
 21
27.5285224009
 31
0.0
  0
LINE
  5
274
330
1F
100
AcDbEntity
  8
0
  6
Continuous
 62
     7
370
    25
100
AcDbLine
 10
44.3000700765
 20
27.5285224009
 30
0.0
 11
42.8451398146
 21
26.8488598598
 31
0.0
  0
LINE
  5
275
330
1F
100
AcDbEntity
  8
0
  6
Continuous
 62
     7
370
    25
100
AcDbLine
 10
42.9929302812
 20
26.3509405091
 30
0.0
 11
44.058771129
 21
26.8958733724
 31
0.0
  0
LINE
  5
276
330
1F
100
AcDbEntity
  8
0
  6
Continuous
 62
     7
370
    25
100
AcDbLine
 10
44.058771129
 20
26.2238709965
 30
0.0
 11
43.6023450439
 21
25.9991328551
 31
0.0
  0
LWPOLYLINE
  5
277
330
1F
100
AcDbEntity
  8
0
  6
Continuous
 62
     7
370
    25
100
AcDbPolyline
 90
       10
 70
   128
 43
0.0
 10
43.5939719053
 20
26.2286377656
 10
43.6249470107
 20
26.2500911703
 10
43.6521860613
 20
26.2807754025
 10
43.6724036255
 20
26.3169894909
 10
43.6831611668
 20
26.3543654821
 10
43.6831611668
 20
26.3883952799
 10
43.6724036255
 20
26.4149743884
 10
43.6521860613
 20
26.4308969749
 10
43.6249470107
 20
26.4342425404
 10
43.5939719053
 20
26.4246075605
  0
LINE
  5
278
330
1F
100
AcDbEntity
  8
0
  6
Continuous
 62
     7
370
    25
100
AcDbLine
 10
43.5939719053
 20
26.4246075605
 30
0.0
 11
43.2041705378
 21
26.2289941047
 31
0.0
  0
LINE
  5
279
330
1F
100
AcDbEntity
  8
0
  6
Continuous
 62
     7
370
    25
100
AcDbLine
 10
43.3857726519
 20
26.1241574358
 30
0.0
 11
43.5939719053
 21
26.2286377656
 31
0.0
  0
LINE
  5
27A
330
1F
100
AcDbEntity
  8
0
  6
Continuous
 62
     7
370
    25
100
AcDbLine
 10
43.5939719053
 20
26.2286377656
 30
0.0
 11
43.5257685892
 21
26.2739311476
 31
0.0
  0
ARC
  5
27B
330
1F
100
AcDbEntity
  8
0
  6
Continuous
 62
     7
370
    25
100
AcDbCircle
 10
43.448203229
 20
26.4221366299
 30
0.0
 40
0.1672759698782378
100
AcDbArc
 50
297.6259246625
 51
3.5589006637
  0
LINE
  5
27C
330
1F
100
AcDbEntity
  8
0
  6
Continuous
 62
     7
370
    25
100
AcDbLine
 10
44.3423928686
 20
25.6155291501
 30
0.0
 11
44.2320842107
 21
25.6792089829
 31
0.0
  0
LINE
  5
27D
330
1F
100
AcDbEntity
  8
0
  6
Continuous
 62
     7
370
    25
100
AcDbLine
 10
44.3423928686
 20
25.6155291501
 30
0.0
 11
44.3423928686
 21
25.5888690248
 31
0.0
  0
LINE
  5
27E
330
1F
100
AcDbEntity
  8
0
  6
Continuous
 62
     7
370
    25
100
AcDbLine
 10
44.3262054327
 20
25.5812571473
 30
0.0
 11
44.3423928686
 21
25.5888690248
 31
0.0
  0
LINE
  5
27F
330
1F
100
AcDbEntity
  8
0
  6
Continuous
 62
     7
370
    25
100
AcDbLine
 10
44.2798983412
 20
25.6079896623
 30
0.0
 11
44.2872385397
 21
25.6114412708
 31
0.0
  0
LINE
  5
280
330
1F
100
AcDbEntity
  8
0
  6
Continuous
 62
     7
370
    25
100
AcDbLine
 10
44.2320842107
 20
25.6432811871
 30
0.0
 11
44.2872385397
 21
25.6114412708
 31
0.0
  0
LINE
  5
281
330
1F
100
AcDbEntity
  8
0
  6
Continuous
 62
     7
370
    25
100
AcDbLine
 10
44.2320842107
 20
25.6432811871
 30
0.0
 11
44.2320842107
 21
25.6792089829
 31
0.0
  0
LINE
  5
282
330
1F
100
AcDbEntity
  8
0
  6
Continuous
 62
     7
370
    25
100
AcDbLine
 10
44.3423928686
 20
25.6155291501
 30
0.0
 11
44.3494639364
 21
25.6196111907
 31
0.0
  0
LINE
  5
283
330
1F
100
AcDbEntity
  8
0
  6
Continuous
 62
     7
370
    25
100
AcDbLine
 10
44.2320842107
 20
25.6792089829
 30
0.0
 11
44.2356197446
 21
25.6812500031
 31
0.0
  0
LINE
  5
284
330
1F
100
AcDbEntity
  8
0
  6
Continuous
 62
     7
370
    25
100
AcDbLine
 10
44.2356197446
 20
25.6812500031
 30
0.0
 11
44.1104618444
 21
25.753502121
 31
0.0
  0
LINE
  5
285
330
1F
100
AcDbEntity
  8
0
  6
Continuous
 62
     7
370
    25
100
AcDbLine
 10
44.1104618444
 20
25.753502121
 30
0.0
 11
44.1139973783
 21
25.7555431413
 31
0.0
  0
LINE
  5
286
330
1F
100
AcDbEntity
  8
0
  6
Continuous
 62
     7
370
    25
100
AcDbLine
 10
44.3459284025
 20
25.5909100451
 30
0.0
 11
44.3459284025
 21
25.5698713192
 31
0.0
  0
LINE
  5
287
330
1F
100
AcDbEntity
  8
0
  6
Continuous
 62
     7
370
    25
100
AcDbLine
 10
44.3423928686
 20
25.5888690248
 30
0.0
 11
44.3459284025
 21
25.5909100451
 31
0.0
  0
LINE
  5
288
330
1F
100
AcDbEntity
  8
0
  6
Continuous
 62
     7
370
    25
100
AcDbLine
 10
44.1104618444
 20
25.753502121
 30
0.0
 11
44.1104618444
 21
25.7058032699
 31
0.0
  0
LINE
  5
289
330
1F
100
AcDbEntity
  8
0
  6
Continuous
 62
     7
370
    25
100
AcDbLine
 10
44.2795370186
 20
25.6081982494
 30
0.0
 11
44.286877217
 21
25.6116498579
 31
0.0
  0
ARC
  5
28A
330
1F
100
AcDbEntity
  8
0
  6
Continuous
 62
     8
370
    25
100
AcDbCircle
 10
46.5250414894
 20
17.1705986489
 30
0.0
 40
0.07277622130208
100
AcDbArc
 50
300.4634965319
 51
7.6052798958
  0
ARC
  5
28B
330
1F
100
AcDbEntity
  8
0
  6
Continuous
 62
     8
370
    25
100
AcDbCircle
 10
46.4774853932
 20
17.1397973826
 30
0.0
 40
0.029747403965936
100
AcDbArc
 50
173.8908772075
 51
234.7680585123
  0
ARC
  5
28C
330
1F
100
AcDbEntity
  8
0
  6
Continuous
 62
     8
370
    25
100
AcDbCircle
 10
39.9422664799
 20
21.0087692786
 30
0.0
 40
0.028937914552183
100
AcDbArc
 50
184.2707332837
 51
247.0494076739
  0
ARC
  5
28D
330
1F
100
AcDbEntity
  8
0
  6
Continuous
 62
     8
370
    25
100
AcDbCircle
 10
40.027252382
 20
20.86343382
 30
0.0
 40
0.0297425811270536
100
AcDbArc
 50
173.8880217791
 51
234.7997978275
  0
LINE
  5
28E
330
1F
100
AcDbEntity
  8
0
  6
Continuous
 62
     8
370
    25
100
AcDbLine
 10
48.2235534398
 20
21.1034244277
 30
0.0
 11
47.2469375871
 21
20.1849508854
 31
0.0
  0
LINE
  5
28F
330
1F
100
AcDbEntity
  8
0
  6
Continuous
 62
     8
370
    25
100
AcDbLine
 10
44.4117929479
 20
27.1756938298
 30
0.0
 11
42.9234457882
 21
26.3910530532
 31
0.0
  0
LINE
  5
290
330
1F
100
AcDbEntity
  8
0
  6
Continuous
 62
     8
370
    25
100
AcDbLine
 10
43.5257685892
 20
26.2739311476
 30
0.0
 11
43.3208965769
 21
26.1616095967
 31
0.0
  0
LINE
  5
291
330
1F
100
AcDbEntity
  8
0
  6
Continuous
 62
     7
370
    25
100
AcDbLine
 10
6.6022443762
 20
17.856540535
 30
0.0
 11
6.5322443762
 21
17.856540535
 31
0.0
  0
LINE
  5
292
330
1F
100
AcDbEntity
  8
0
  6
Continuous
 62
     7
370
    25
100
AcDbLine
 10
6.5322443762
 20
17.856540535
 30
0.0
 11
6.5322443762
 21
17.7911608107
 31
0.0
  0
LINE
  5
293
330
1F
100
AcDbEntity
  8
0
  6
Continuous
 62
     7
370
    25
100
AcDbLine
 10
6.6022443762
 20
17.856540535
 30
0.0
 11
6.6022443762
 21
17.7899389561
 31
0.0
  0
LINE
  5
294
330
1F
100
AcDbEntity
  8
0
  6
Continuous
 62
     7
370
    25
100
AcDbLine
 10
6.5322443762
 20
17.856540535
 30
0.0
 11
6.5322443762
 21
17.916540535
 31
0.0
  0
LINE
  5
295
330
1F
100
AcDbEntity
  8
0
  6
Continuous
 62
     7
370
    25
100
AcDbLine
 10
6.5322443762
 20
17.916540535
 30
0.0
 11
6.6022443762
 21
17.916540535
 31
0.0
  0
LINE
  5
296
330
1F
100
AcDbEntity
  8
0
  6
Continuous
 62
     7
370
    25
100
AcDbLine
 10
6.6022443762
 20
17.916540535
 30
0.0
 11
6.6022443762
 21
17.856540535
 31
0.0
  0
LINE
  5
297
330
1F
100
AcDbEntity
  8
0
  6
Continuous
 62
     7
370
    25
100
AcDbLine
 10
6.5172443762
 20
17.9836909603
 30
0.0
 11
5.7872443762
 21
17.9836909603
 31
0.0
  0
LINE
  5
298
330
1F
100
AcDbEntity
  8
0
  6
Continuous
 62
     7
370
    25
100
AcDbLine
 10
5.7872443762
 20
18.1836909603
 30
0.0
 11
5.7872443762
 21
17.9836909603
 31
0.0
  0
LINE
  5
299
330
1F
100
AcDbEntity
  8
0
  6
Continuous
 62
     7
370
    25
100
AcDbLine
 10
6.5172443762
 20
18.1454332814
 30
0.0
 11
5.7872443762
 21
18.1836909603
 31
0.0
  0
LINE
  5
29A
330
1F
100
AcDbEntity
  8
0
  6
Continuous
 62
     7
370
    25
100
AcDbLine
 10
6.5172443762
 20
18.1454332814
 30
0.0
 11
6.5172443762
 21
17.9836909603
 31
0.0
  0
LINE
  5
29B
330
1F
100
AcDbEntity
  8
0
  6
Continuous
 62
     7
370
    25
100
AcDbLine
 10
6.6603845336
 20
10.3736909603
 30
0.0
 11
5.7872443762
 21
10.3736909603
 31
0.0
  0
LINE
  5
29C
330
1F
100
AcDbEntity
  8
0
  6
Continuous
 62
     7
370
    25
100
AcDbLine
 10
6.5172443762
 20
17.9836909603
 30
0.0
 11
6.5172443762
 21
17.7914226366
 31
0.0
  0
LINE
  5
29D
330
1F
100
AcDbEntity
  8
0
  6
Continuous
 62
     7
370
    25
100
AcDbLine
 10
6.6603845336
 20
17.7889241159
 30
0.0
 11
6.5172443762
 21
17.7914226366
 31
0.0
  0
LINE
  5
29E
330
1F
100
AcDbEntity
  8
0
  6
Continuous
 62
     7
370
    25
100
AcDbLine
 10
6.6603845336
 20
10.3736909603
 30
0.0
 11
6.6603845336
 21
17.7889241159
 31
0.0
  0
LINE
  5
29F
330
1F
100
AcDbEntity
  8
0
  6
Continuous
 62
     7
370
    25
100
AcDbLine
 10
5.7872443762
 20
17.9836909603
 30
0.0
 11
5.7872443762
 21
10.3736909603
 31
0.0
  0
LINE
  5
2A0
330
1F
100
AcDbEntity
  8
0
  6
Continuous
 62
     7
370
    25
100
AcDbLine
 10
6.6603845336
 20
10.219450297
 30
0.0
 11
6.6603845336
 21
10.3736909603
 31
0.0
  0
LINE
  5
2A1
330
1F
100
AcDbEntity
  8
0
  6
Continuous
 62
     7
370
    25
100
AcDbLine
 10
6.6603845336
 20
10.219450297
 30
0.0
 11
5.7872443762
 21
10.1736909603
 31
0.0
  0
LINE
  5
2A2
330
1F
100
AcDbEntity
  8
0
  6
Continuous
 62
     7
370
    25
100
AcDbLine
 10
5.7872443762
 20
10.3736909603
 30
0.0
 11
5.7872443762
 21
10.1736909603
 31
0.0
  0
LINE
  5
2A3
330
1F
100
AcDbEntity
  8
0
  6
Continuous
 62
     7
370
    25
100
AcDbLine
 10
6.7172443762
 20
17.7879316237
 30
0.0
 11
6.7172443762
 21
10.3736909603
 31
0.0
  0
LINE
  5
2A4
330
1F
100
AcDbEntity
  8
0
  6
Continuous
 62
     7
370
    25
100
AcDbLine
 10
6.7172443762
 20
10.3736909603
 30
0.0
 11
6.6603845336
 21
10.3736909603
 31
0.0
  0
LINE
  5
2A5
330
1F
100
AcDbEntity
  8
0
  6
Continuous
 62
     7
370
    25
100
AcDbLine
 10
6.6603845336
 20
17.7889241159
 30
0.0
 11
6.7172443762
 21
17.7879316237
 31
0.0
  0
LINE
  5
2A6
330
1F
100
AcDbEntity
  8
0
  6
Continuous
 62
     7
370
    25
100
AcDbLine
 10
6.7172443762
 20
10.3736909603
 30
0.0
 11
6.7172443762
 21
10.2793680691
 31
0.0
  0
ARC
  5
2A7
330
1F
100
AcDbEntity
  8
0
  6
Continuous
 62
     7
370
    25
100
AcDbCircle
 10
6.6572443762
 20
10.2793680691
 30
0.0
 40
0.0600000000000005
100
AcDbArc
 50
273.0
 51
0.0
  0
LINE
  5
2A8
330
1F
100
AcDbEntity
  8
0
  6
Continuous
 62
     7
370
    25
100
AcDbLine
 10
5.7072443762
 20
10.6186909603
 30
0.0
 11
5.7872443762
 21
10.6186909603
 31
0.0
  0
LINE
  5
2A9
330
1F
100
AcDbEntity
  8
0
  6
Continuous
 62
     7
370
    25
100
AcDbLine
 10
5.7072443762
 20
17.7386909603
 30
0.0
 11
5.7872443762
 21
17.7386909603
 31
0.0
  0
LINE
  5
2AA
330
1F
100
AcDbEntity
  8
0
  6
Continuous
 62
     7
370
    25
100
AcDbLine
 10
5.7072443762
 20
17.7386909603
 30
0.0
 11
5.7072443762
 21
10.6186909603
 31
0.0
  0
LINE
  5
2AB
330
1F
100
AcDbEntity
  8
0
  6
Continuous
 62
     7
370
    25
100
AcDbLine
 10
5.2565569041
 20
10.8802646539
 30
0.0
 11
5.2555235977
 21
10.8802105006
 31
0.0
  0
LINE
  5
2AC
330
1F
100
AcDbEntity
  8
0
  6
Continuous
 62
     7
370
    25
100
AcDbLine
 10
5.2565569041
 20
11.5803876642
 30
0.0
 11
5.2565569041
 21
10.8802646539
 31
0.0
  0
LINE
  5
2AD
330
1F
100
AcDbEntity
  8
0
  6
Continuous
 62
     7
370
    25
100
AcDbLine
 10
2.0872443762
 20
11.7599632171
 30
0.0
 11
5.2565569041
 21
11.5803876642
 31
0.0
  0
LINE
  5
2AE
330
1F
100
AcDbEntity
  8
0
  6
Continuous
 62
     7
370
    25
100
AcDbLine
 10
2.0872443762
 20
11.7599632171
 30
0.0
 11
2.0872443762
 21
12.5011909603
 31
0.0
  0
LINE
  5
2AF
330
1F
100
AcDbEntity
  8
0
  6
Continuous
 62
     7
370
    25
100
AcDbLine
 10
5.2555235977
 20
10.8802105006
 30
0.0
 11
5.7072443762
 21
10.8406900534
 31
0.0
  0
LINE
  5
2B0
330
1F
100
AcDbEntity
  8
0
  6
Continuous
 62
     7
370
    25
100
AcDbLine
 10
5.7072443762
 20
12.4380036253
 30
0.0
 11
2.0872443762
 21
12.5011909603
 31
0.0
  0
LINE
  5
2B1
330
1F
100
AcDbEntity
  8
0
  6
Continuous
 62
     7
370
    25
100
AcDbLine
 10
2.0872443762
 20
12.5011909603
 30
0.0
 11
2.0872443762
 21
12.6436909603
 31
0.0
  0
LINE
  5
2B2
330
1F
100
AcDbEntity
  8
0
  6
Continuous
 62
     7
370
    25
100
AcDbLine
 10
5.7072443762
 20
12.6436909603
 30
0.0
 11
2.0872443762
 21
12.6436909603
 31
0.0
  0
LINE
  5
2B3
330
1F
100
AcDbEntity
  8
0
  6
Continuous
 62
     7
370
    25
100
AcDbLine
 10
2.0872443762
 20
15.8561909603
 30
0.0
 11
2.0872443762
 21
16.5974187035
 31
0.0
  0
LINE
  5
2B4
330
1F
100
AcDbEntity
  8
0
  6
Continuous
 62
     7
370
    25
100
AcDbLine
 10
5.2565569041
 20
16.7769942564
 30
0.0
 11
2.0872443762
 21
16.5974187035
 31
0.0
  0
LINE
  5
2B5
330
1F
100
AcDbEntity
  8
0
  6
Continuous
 62
     7
370
    25
100
AcDbLine
 10
5.2565569041
 20
17.4771172667
 30
0.0
 11
5.2565569041
 21
16.7769942564
 31
0.0
  0
LINE
  5
2B6
330
1F
100
AcDbEntity
  8
0
  6
Continuous
 62
     7
370
    25
100
AcDbLine
 10
5.2555235977
 20
17.47717142
 30
0.0
 11
5.2565569041
 21
17.4771172667
 31
0.0
  0
LINE
  5
2B7
330
1F
100
AcDbEntity
  8
0
  6
Continuous
 62
     7
370
    25
100
AcDbLine
 10
5.2555235977
 20
17.47717142
 30
0.0
 11
5.7072443762
 21
17.5166918672
 31
0.0
  0
LINE
  5
2B8
330
1F
100
AcDbEntity
  8
0
  6
Continuous
 62
     7
370
    25
100
AcDbLine
 10
2.0872443762
 20
15.7136909603
 30
0.0
 11
2.0872443762
 21
15.8561909603
 31
0.0
  0
LINE
  5
2B9
330
1F
100
AcDbEntity
  8
0
  6
Continuous
 62
     7
370
    25
100
AcDbLine
 10
2.0872443762
 20
15.8561909603
 30
0.0
 11
5.7072443762
 21
15.9193782954
 31
0.0
  0
LINE
  5
2BA
330
1F
100
AcDbEntity
  8
0
  6
Continuous
 62
     7
370
    25
100
AcDbLine
 10
5.7072443762
 20
15.7136909603
 30
0.0
 11
2.0872443762
 21
15.7136909603
 31
0.0
  0
LINE
  5
2BB
330
1F
100
AcDbEntity
  8
0
  6
Continuous
 62
     7
370
    25
100
AcDbLine
 10
2.0872443762
 20
15.3311909603
 30
0.0
 11
2.0872443762
 21
15.4736909603
 31
0.0
  0
LINE
  5
2BC
330
1F
100
AcDbEntity
  8
0
  6
Continuous
 62
     7
370
    25
100
AcDbLine
 10
2.0872443762
 20
15.4736909603
 30
0.0
 11
5.7072443762
 21
15.4736909603
 31
0.0
  0
LINE
  5
2BD
330
1F
100
AcDbEntity
  8
0
  6
Continuous
 62
     7
370
    25
100
AcDbLine
 10
5.7072443762
 20
15.2680036253
 30
0.0
 11
2.0872443762
 21
15.3311909603
 31
0.0
  0
LINE
  5
2BE
330
1F
100
AcDbEntity
  8
0
  6
Continuous
 62
     7
370
    25
100
AcDbLine
 10
2.0872443762
 20
13.0261909603
 30
0.0
 11
2.0872443762
 21
15.3311909603
 31
0.0
  0
ARC
  5
2BF
330
1F
100
AcDbEntity
  8
0
  6
Continuous
 62
     7
370
    25
100
AcDbCircle
 10
5.1483870164
 20
12.7636909603
 30
0.0
 40
0.1200002044104594
100
AcDbArc
 50
270.1057543541
 51
89.894245646
  0
ARC
  5
2C0
330
1F
100
AcDbEntity
  8
0
  6
Continuous
 62
     7
370
    25
100
AcDbCircle
 10
5.1483870164
 20
15.5936909603
 30
0.0
 40
0.120000204410463
100
AcDbArc
 50
270.1057543541
 51
89.8942456459
  0
LINE
  5
2C1
330
1F
100
AcDbEntity
  8
0
  6
Continuous
 62
     7
370
    25
100
AcDbLine
 10
2.0872443762
 20
12.8836909603
 30
0.0
 11
2.0872443762
 21
13.0261909603
 31
0.0
  0
LINE
  5
2C2
330
1F
100
AcDbEntity
  8
0
  6
Continuous
 62
     7
370
    25
100
AcDbLine
 10
2.0872443762
 20
12.8836909603
 30
0.0
 11
5.7072443762
 21
12.8836909603
 31
0.0
  0
LINE
  5
2C3
330
1F
100
AcDbEntity
  8
0
  6
Continuous
 62
     7
370
    25
100
AcDbLine
 10
2.0872443762
 20
13.0261909603
 30
0.0
 11
5.7072443762
 21
13.0893782954
 31
0.0
  0
LINE
  5
2C4
330
1F
100
AcDbEntity
  8
0
  6
Continuous
 62
     7
370
    25
100
AcDbLine
 10
2.0872443762
 20
11.7599632171
 30
0.0
 11
2.0872443762
 21
11.1573990154
 31
0.0
  0
LINE
  5
2C5
330
1F
100
AcDbEntity
  8
0
  6
Continuous
 62
     7
370
    25
100
AcDbLine
 10
5.2555235977
 20
10.8802105006
 30
0.0
 11
2.0872443762
 21
11.1573990154
 31
0.0
  0
LINE
  5
2C6
330
1F
100
AcDbEntity
  8
0
  6
Continuous
 62
     7
370
    25
100
AcDbLine
 10
2.0872443762
 20
17.1999829053
 30
0.0
 11
2.0872443762
 21
16.5974187035
 31
0.0
  0
LINE
  5
2C7
330
1F
100
AcDbEntity
  8
0
  6
Continuous
 62
     7
370
    25
100
AcDbLine
 10
2.0872443762
 20
17.1999829053
 30
0.0
 11
5.2555235977
 21
17.47717142
 31
0.0
  0
ARC
  5
2C8
330
1F
100
AcDbEntity
  8
0
  6
Continuous
 62
     7
370
    25
100
AcDbCircle
 10
2.7945788411
 20
12.7636909603
 30
0.0
 40
0.1200002044104594
100
AcDbArc
 50
90.1057543541
 51
269.894245646
  0
ARC
  5
2C9
330
1F
100
AcDbEntity
  8
0
  6
Continuous
 62
     7
370
    25
100
AcDbCircle
 10
2.8018306624
 20
12.7636909603
 30
0.0
 40
0.1200002044104594
100
AcDbArc
 50
90.1057543541
 51
269.894245646
  0
ARC
  5
2CA
330
1F
100
AcDbEntity
  8
0
  6
Continuous
 62
     7
370
    25
100
AcDbCircle
 10
2.7945788411
 20
15.5936909603
 30
0.0
 40
0.1200002044104594
100
AcDbArc
 50
90.1057543541
 51
269.8942456459
  0
ARC
  5
2CB
330
1F
100
AcDbEntity
  8
0
  6
Continuous
 62
     7
370
    25
100
AcDbCircle
 10
2.8018306624
 20
15.5936909603
 30
0.0
 40
0.1200002044104594
100
AcDbArc
 50
90.105754354
 51
269.894245646
  0
LINE
  5
2CC
330
1F
100
AcDbEntity
  8
0
  6
Continuous
 62
     7
370
    25
100
AcDbLine
 10
2.0872443762
 20
15.4736909603
 30
0.0
 11
2.0872443762
 21
15.7136909603
 31
0.0
  0
LINE
  5
2CD
330
1F
100
AcDbEntity
  8
0
  6
Continuous
 62
     7
370
    25
100
AcDbLine
 10
2.0872443762
 20
12.8836909603
 30
0.0
 11
2.0872443762
 21
12.6436909603
 31
0.0
  0
LINE
  5
2CE
330
1F
100
AcDbEntity
  8
0
  6
Continuous
 62
     7
370
    25
100
AcDbLine
 10
2.6352443762
 20
17.2479266929
 30
0.0
 11
2.6352443762
 21
17.3984996685
 31
0.0
  0
LINE
  5
2CF
330
1F
100
AcDbEntity
  8
0
  6
Continuous
 62
     7
370
    25
100
AcDbLine
 10
2.6352443762
 20
17.3984996685
 30
0.0
 11
4.675025584
 21
17.5769574003
 31
0.0
  0
LINE
  5
2D0
330
1F
100
AcDbEntity
  8
0
  6
Continuous
 62
     7
370
    25
100
AcDbLine
 10
4.675025584
 20
17.5769574003
 30
0.0
 11
5.7072443762
 21
17.5949748463
 31
0.0
  0
LINE
  5
2D1
330
1F
100
AcDbEntity
  8
0
  6
Continuous
 62
     7
370
    25
100
AcDbLine
 10
4.675025584
 20
10.7804245204
 30
0.0
 11
2.6352443762
 21
10.9588822521
 31
0.0
  0
LINE
  5
2D2
330
1F
100
AcDbEntity
  8
0
  6
Continuous
 62
     7
370
    25
100
AcDbLine
 10
2.6352443762
 20
10.9588822521
 30
0.0
 11
2.6352443762
 21
11.1094552277
 31
0.0
  0
LINE
  5
2D3
330
1F
100
AcDbEntity
  8
0
  6
Continuous
 62
     7
370
    25
100
AcDbLine
 10
5.7072443762
 20
10.7624070743
 30
0.0
 11
4.675025584
 21
10.7804245204
 31
0.0
  0
LINE
  5
2D4
330
1F
100
AcDbEntity
  8
0
  6
Continuous
 62
     7
370
    25
100
AcDbLine
 10
2.0672443762
 20
12.9911909603
 30
0.0
 11
2.0872443762
 21
12.9911909603
 31
0.0
  0
LINE
  5
2D5
330
1F
100
AcDbEntity
  8
0
  6
Continuous
 62
     7
370
    25
100
AcDbLine
 10
2.0672443762
 20
15.3661909603
 30
0.0
 11
2.0672443762
 21
12.9911909603
 31
0.0
  0
LINE
  5
2D6
330
1F
100
AcDbEntity
  8
0
  6
Continuous
 62
     7
370
    25
100
AcDbLine
 10
2.0672443762
 20
15.3661909603
 30
0.0
 11
2.0872443762
 21
15.3661909603
 31
0.0
  0
LINE
  5
2D7
330
1F
100
AcDbEntity
  8
0
  6
Continuous
 62
     7
370
    25
100
AcDbLine
 10
2.0472443762
 20
13.0111909603
 30
0.0
 11
2.0472443762
 21
15.3461909603
 31
0.0
  0
ARC
  5
2D8
330
1F
100
AcDbEntity
  8
0
  6
Continuous
 62
     7
370
    25
100
AcDbCircle
 10
2.0672443762
 20
15.3461909603
 30
0.0
 40
0.0199999999999996
100
AcDbArc
 50
90.0
 51
180.0
  0
ARC
  5
2D9
330
1F
100
AcDbEntity
  8
0
  6
Continuous
 62
     7
370
    25
100
AcDbCircle
 10
2.0672443762
 20
13.0111909603
 30
0.0
 40
0.0200000000000014
100
AcDbArc
 50
180.0
 51
270.0
  0
LINE
  5
2DA
330
1F
100
AcDbEntity
  8
0
  6
Continuous
 62
     7
370
    25
100
AcDbLine
 10
4.8272443762
 20
15.7136909603
 30
0.0
 11
4.8272443762
 21
15.4736909603
 31
0.0
  0
LINE
  5
2DB
330
1F
100
AcDbEntity
  8
0
  6
Continuous
 62
     7
370
    25
100
AcDbLine
 10
4.8272443762
 20
12.8836909603
 30
0.0
 11
4.8272443762
 21
12.6436909603
 31
0.0
  0
LINE
  5
2DC
330
1F
100
AcDbEntity
  8
0
  6
Continuous
 62
     7
370
    25
100
AcDbLine
 10
11.9341405582
 20
7.2796390613
 30
0.0
 11
16.8647496799
 21
7.2796390613
 31
0.0
  0
LINE
  5
2DD
330
1F
100
AcDbEntity
  8
0
  6
Continuous
 62
     7
370
    25
100
AcDbLine
 10
11.9304720137
 20
7.3496390613
 30
0.0
 11
16.8684182244
 21
7.3496390613
 31
0.0
  0
LINE
  5
2DE
330
1F
100
AcDbEntity
  8
0
  6
Continuous
 62
     7
370
    25
100
AcDbLine
 10
9.638445119
 20
6.5346390613
 30
0.0
 11
9.838445119
 21
6.5346390613
 31
0.0
  0
LINE
  5
2DF
330
1F
100
AcDbEntity
  8
0
  6
Continuous
 62
     7
370
    25
100
AcDbLine
 10
9.6842044557
 20
7.4077792187
 30
0.0
 11
9.638445119
 21
6.5346390613
 31
0.0
  0
LINE
  5
2E0
330
1F
100
AcDbEntity
  8
0
  6
Continuous
 62
     7
370
    25
100
AcDbLine
 10
9.838445119
 20
7.4077792187
 30
0.0
 11
9.6842044557
 21
7.4077792187
 31
0.0
  0
LINE
  5
2E1
330
1F
100
AcDbEntity
  8
0
  6
Continuous
 62
     7
370
    25
100
AcDbLine
 10
9.838445119
 20
7.4077792187
 30
0.0
 11
9.838445119
 21
6.5346390613
 31
0.0
  0
LINE
  5
2E2
330
1F
100
AcDbEntity
  8
0
  6
Continuous
 62
     7
370
    25
100
AcDbLine
 10
18.960445119
 20
7.4077792187
 30
0.0
 11
18.960445119
 21
6.5346390613
 31
0.0
  0
LINE
  5
2E3
330
1F
100
AcDbEntity
  8
0
  6
Continuous
 62
     7
370
    25
100
AcDbLine
 10
19.1146857824
 20
7.4077792187
 30
0.0
 11
18.960445119
 21
7.4077792187
 31
0.0
  0
LINE
  5
2E4
330
1F
100
AcDbEntity
  8
0
  6
Continuous
 62
     7
370
    25
100
AcDbLine
 10
19.1146857824
 20
7.4077792187
 30
0.0
 11
19.160445119
 21
6.5346390613
 31
0.0
  0
LINE
  5
2E5
330
1F
100
AcDbEntity
  8
0
  6
Continuous
 62
     7
370
    25
100
AcDbLine
 10
18.960445119
 20
6.5346390613
 30
0.0
 11
19.160445119
 21
6.5346390613
 31
0.0
  0
LINE
  5
2E6
330
1F
100
AcDbEntity
  8
0
  6
Continuous
 62
     7
370
    25
100
AcDbLine
 10
16.871465221
 20
7.4077792187
 30
0.0
 11
16.8374976347
 21
6.7596390613
 31
0.0
  0
LINE
  5
2E7
330
1F
100
AcDbEntity
  8
0
  6
Continuous
 62
     7
370
    25
100
AcDbLine
 10
18.960445119
 20
7.4077792187
 30
0.0
 11
16.871465221
 21
7.4077792187
 31
0.0
  0
LINE
  5
2E8
330
1F
100
AcDbEntity
  8
0
  6
Continuous
 62
     7
370
    25
100
AcDbLine
 10
11.9274250171
 20
7.4077792187
 30
0.0
 11
9.838445119
 21
7.4077792187
 31
0.0
  0
LINE
  5
2E9
330
1F
100
AcDbEntity
  8
0
  6
Continuous
 62
     7
370
    25
100
AcDbLine
 10
11.9613926034
 20
6.7596390613
 30
0.0
 11
11.9274250171
 21
7.4077792187
 31
0.0
  0
LINE
  5
2EA
330
1F
100
AcDbEntity
  8
0
  6
Continuous
 62
     7
370
    25
100
AcDbLine
 10
11.9613926034
 20
6.7596390613
 30
0.0
 11
16.8374976347
 21
6.7596390613
 31
0.0
  0
LINE
  5
2EB
330
1F
100
AcDbEntity
  8
0
  6
Continuous
 62
     7
370
    25
100
AcDbLine
 10
9.838445119
 20
6.5346390613
 30
0.0
 11
18.960445119
 21
6.5346390613
 31
0.0
  0
LINE
  5
2EC
330
1F
100
AcDbEntity
  8
0
  6
Continuous
 62
     7
370
    25
100
AcDbLine
 10
16.874445119
 20
7.4646390613
 30
0.0
 11
18.960445119
 21
7.4646390613
 31
0.0
  0
LINE
  5
2ED
330
1F
100
AcDbEntity
  8
0
  6
Continuous
 62
     7
370
    25
100
AcDbLine
 10
18.960445119
 20
7.4077792187
 30
0.0
 11
18.960445119
 21
7.4646390613
 31
0.0
  0
LINE
  5
2EE
330
1F
100
AcDbEntity
  8
0
  6
Continuous
 62
     7
370
    25
100
AcDbLine
 10
16.871465221
 20
7.4077792187
 30
0.0
 11
16.874445119
 21
7.4646390613
 31
0.0
  0
LINE
  5
2EF
330
1F
100
AcDbEntity
  8
0
  6
Continuous
 62
     7
370
    25
100
AcDbLine
 10
9.7441222278
 20
7.4646390613
 30
0.0
 11
9.838445119
 21
7.4646390613
 31
0.0
  0
LINE
  5
2F0
330
1F
100
AcDbEntity
  8
0
  6
Continuous
 62
     7
370
    25
100
AcDbLine
 10
9.838445119
 20
7.4077792187
 30
0.0
 11
9.838445119
 21
7.4646390613
 31
0.0
  0
ARC
  5
2F1
330
1F
100
AcDbEntity
  8
0
  6
Continuous
 62
     7
370
    25
100
AcDbCircle
 10
9.7441222278
 20
7.4046390613
 30
0.0
 40
0.0600000000000005
100
AcDbArc
 50
90.0
 51
177.0
  0
LINE
  5
2F2
330
1F
100
AcDbEntity
  8
0
  6
Continuous
 62
     7
370
    25
100
AcDbLine
 10
18.960445119
 20
7.4646390613
 30
0.0
 11
19.0547680103
 21
7.4646390613
 31
0.0
  0
ARC
  5
2F3
330
1F
100
AcDbEntity
  8
0
  6
Continuous
 62
     7
370
    25
100
AcDbCircle
 10
19.0547680103
 20
7.4046390613
 30
0.0
 40
0.0600000000000005
100
AcDbArc
 50
3.0
 51
90.0
  0
LINE
  5
2F4
330
1F
100
AcDbEntity
  8
0
  6
Continuous
 62
     7
370
    25
100
AcDbLine
 10
9.838445119
 20
7.4646390613
 30
0.0
 11
11.924445119
 21
7.4646390613
 31
0.0
  0
LINE
  5
2F5
330
1F
100
AcDbEntity
  8
0
  6
Continuous
 62
     7
370
    25
100
AcDbLine
 10
11.924445119
 20
7.4646390613
 30
0.0
 11
11.9274250171
 21
7.4077792187
 31
0.0
  0
LINE
  5
2F6
330
1F
100
AcDbEntity
  8
0
  6
Continuous
 62
     7
370
    25
100
AcDbLine
 10
11.9525777957
 20
7.2646390613
 30
0.0
 11
11.9613926034
 21
6.7596390613
 31
0.0
  0
LINE
  5
2F7
330
1F
100
AcDbEntity
  8
0
  6
Continuous
 62
     7
370
    25
100
AcDbLine
 10
11.9349266749
 20
7.2646390613
 30
0.0
 11
11.9525777957
 21
7.2646390613
 31
0.0
  0
LINE
  5
2F8
330
1F
100
AcDbEntity
  8
0
  6
Continuous
 62
     7
370
    25
100
AcDbLine
 10
16.8463124424
 20
7.2646390613
 30
0.0
 11
16.8374976347
 21
6.7596390613
 31
0.0
  0
LINE
  5
2F9
330
1F
100
AcDbEntity
  8
0
  6
Continuous
 62
     7
370
    25
100
AcDbLine
 10
16.8463124424
 20
7.2646390613
 30
0.0
 11
16.8639635632
 21
7.2646390613
 31
0.0
  0
LINE
  5
2FA
330
1F
100
AcDbEntity
  8
0
  6
Continuous
 62
     7
370
    25
100
AcDbLine
 10
11.9525777957
 20
7.2646390613
 30
0.0
 11
16.8463124424
 21
7.2646390613
 31
0.0
  0
LINE
  5
2FB
330
1F
100
AcDbEntity
  8
0
  6
Continuous
 62
     7
370
    25
100
AcDbLine
 10
10.489945119
 20
6.4546390613
 30
0.0
 11
10.489945119
 21
6.5346390613
 31
0.0
  0
LINE
  5
2FC
330
1F
100
AcDbEntity
  8
0
  6
Continuous
 62
     7
370
    25
100
AcDbLine
 10
10.489945119
 20
6.4546390613
 30
0.0
 11
18.359945119
 21
6.4546390613
 31
0.0
  0
LINE
  5
2FD
330
1F
100
AcDbEntity
  8
0
  6
Continuous
 62
     7
370
    25
100
AcDbLine
 10
18.359945119
 20
6.4546390613
 30
0.0
 11
18.359945119
 21
6.5346390613
 31
0.0
  0
LINE
  5
2FE
330
1F
100
AcDbEntity
  8
0
  6
Continuous
 62
     7
370
    25
100
AcDbLine
 10
11.9677540569
 20
6.4546390613
 30
0.0
 11
11.95874602
 21
5.4224202691
 31
0.0
  0
LINE
  5
2FF
330
1F
100
AcDbEntity
  8
0
  6
Continuous
 62
     7
370
    25
100
AcDbLine
 10
11.8231442181
 20
5.4224202691
 30
0.0
 11
11.95874602
 21
5.4224202691
 31
0.0
  0
LINE
  5
300
330
1F
100
AcDbEntity
  8
0
  6
Continuous
 62
     7
370
    25
100
AcDbLine
 10
11.8141361812
 20
6.4546390613
 30
0.0
 11
11.8231442181
 21
5.4224202691
 31
0.0
  0
LINE
  5
301
330
1F
100
AcDbEntity
  8
0
  6
Continuous
 62
     7
370
    25
100
AcDbLine
 10
16.3777540569
 20
6.4546390613
 30
0.0
 11
16.36874602
 21
5.4224202691
 31
0.0
  0
LINE
  5
302
330
1F
100
AcDbEntity
  8
0
  6
Continuous
 62
     7
370
    25
100
AcDbLine
 10
16.2331442181
 20
5.4224202691
 30
0.0
 11
16.36874602
 21
5.4224202691
 31
0.0
  0
LINE
  5
303
330
1F
100
AcDbEntity
  8
0
  6
Continuous
 62
     7
370
    25
100
AcDbLine
 10
16.2241361812
 20
6.4546390613
 30
0.0
 11
16.2331442181
 21
5.4224202691
 31
0.0
  0
LINE
  5
304
330
1F
100
AcDbEntity
  8
0
  6
Continuous
 62
     7
370
    25
100
AcDbLine
 10
16.250945119
 20
3.3826390613
 30
0.0
 11
16.350945119
 21
3.3826390613
 31
0.0
  0
LINE
  5
305
330
1F
100
AcDbEntity
  8
0
  6
Continuous
 62
     7
370
    25
100
AcDbLine
 10
16.2331442181
 20
5.4224202691
 30
0.0
 11
16.250945119
 21
3.3826390613
 31
0.0
  0
LINE
  5
306
330
1F
100
AcDbEntity
  8
0
  6
Continuous
 62
     7
370
    25
100
AcDbLine
 10
16.36874602
 20
5.4224202691
 30
0.0
 11
16.350945119
 21
3.3826390613
 31
0.0
  0
LINE
  5
307
330
1F
100
AcDbEntity
  8
0
  6
Continuous
 62
     7
370
    25
100
AcDbLine
 10
11.940945119
 20
3.3826390613
 30
0.0
 11
11.840945119
 21
3.3826390613
 31
0.0
  0
LINE
  5
308
330
1F
100
AcDbEntity
  8
0
  6
Continuous
 62
     7
370
    25
100
AcDbLine
 10
11.8231442181
 20
5.4224202691
 30
0.0
 11
11.840945119
 21
3.3826390613
 31
0.0
  0
LINE
  5
309
330
1F
100
AcDbEntity
  8
0
  6
Continuous
 62
     7
370
    25
100
AcDbLine
 10
11.95874602
 20
5.4224202691
 30
0.0
 11
11.940945119
 21
3.3826390613
 31
0.0
  0
LINE
  5
30A
330
1F
100
AcDbEntity
  8
0
  6
Continuous
 62
     7
370
    25
100
AcDbLine
 10
17.4404281868
 20
6.0029182828
 30
0.0
 11
18.1406638983
 21
6.0029182828
 31
0.0
  0
LINE
  5
30B
330
1F
100
AcDbEntity
  8
0
  6
Continuous
 62
     7
370
    25
100
AcDbLine
 10
17.4716421296
 20
3.6687940633
 30
0.0
 11
17.4404281868
 21
6.0029182828
 31
0.0
  0
LINE
  5
30C
330
1F
100
AcDbEntity
  8
0
  6
Continuous
 62
     7
370
    25
100
AcDbLine
 10
17.2324520317
 20
2.8346390613
 30
0.0
 11
17.4716421296
 21
3.6687940633
 31
0.0
  0
LINE
  5
30D
330
1F
100
AcDbEntity
  8
0
  6
Continuous
 62
     7
370
    25
100
AcDbLine
 10
17.2324520317
 20
2.8346390613
 30
0.0
 11
11.367093061
 21
2.8346390613
 31
0.0
  0
LINE
  5
30E
330
1F
100
AcDbEntity
  8
0
  6
Continuous
 62
     7
370
    25
100
AcDbLine
 10
11.4094620513
 20
6.0029182828
 30
0.0
 11
11.367093061
 21
2.8346390613
 31
0.0
  0
LINE
  5
30F
330
1F
100
AcDbEntity
  8
0
  6
Continuous
 62
     7
370
    25
100
AcDbLine
 10
10.7092263398
 20
6.0029182828
 30
0.0
 11
11.4094620513
 21
6.0029182828
 31
0.0
  0
LINE
  5
310
330
1F
100
AcDbEntity
  8
0
  6
Continuous
 62
     7
370
    25
100
AcDbLine
 10
10.7092263398
 20
6.0029182828
 30
0.0
 11
10.7013415242
 21
6.4546390613
 31
0.0
  0
LINE
  5
311
330
1F
100
AcDbEntity
  8
0
  6
Continuous
 62
     7
370
    25
100
AcDbLine
 10
15.970945119
 20
5.8806390613
 30
0.0
 11
12.220945119
 21
5.8806390613
 31
0.0
  0
LINE
  5
312
330
1F
100
AcDbEntity
  8
0
  6
Continuous
 62
     7
370
    25
100
AcDbLine
 10
12.220945119
 20
3.6046390613
 30
0.0
 11
12.220945119
 21
5.8806390613
 31
0.0
  0
LINE
  5
313
330
1F
100
AcDbEntity
  8
0
  6
Continuous
 62
     7
370
    25
100
AcDbLine
 10
15.970945119
 20
3.6046390613
 30
0.0
 11
12.220945119
 21
3.6046390613
 31
0.0
  0
LINE
  5
314
330
1F
100
AcDbEntity
  8
0
  6
Continuous
 62
     7
370
    25
100
AcDbLine
 10
15.970945119
 20
5.8806390613
 30
0.0
 11
15.970945119
 21
3.6046390613
 31
0.0
  0
LINE
  5
315
330
1F
100
AcDbEntity
  8
0
  6
Continuous
 62
     7
370
    25
100
AcDbLine
 10
18.1406638983
 20
6.0029182828
 30
0.0
 11
18.1485487139
 21
6.4546390613
 31
0.0
  0
LINE
  5
316
330
1F
100
AcDbEntity
  8
0
  6
Continuous
 62
     7
370
    25
100
AcDbLine
 10
18.1406459059
 20
6.0018874957
 30
0.0
 11
17.4716421296
 21
3.6687940633
 31
0.0
  0
LINE
  5
317
330
1F
100
AcDbEntity
  8
0
  6
Continuous
 62
     7
370
    25
100
AcDbLine
 10
18.1406638983
 20
6.0029182828
 30
0.0
 11
18.1406459059
 21
6.0018874957
 31
0.0
  0
LINE
  5
318
330
1F
100
AcDbEntity
  8
0
  6
Continuous
 62
     7
370
    25
100
AcDbLine
 10
10.7645288593
 20
2.8346390613
 30
0.0
 11
11.367093061
 21
2.8346390613
 31
0.0
  0
LINE
  5
319
330
1F
100
AcDbEntity
  8
0
  6
Continuous
 62
     7
370
    25
100
AcDbLine
 10
10.7645288593
 20
2.8346390613
 30
0.0
 11
10.7092263398
 21
6.0029182828
 31
0.0
  0
LINE
  5
31A
330
1F
100
AcDbEntity
  8
0
  6
Continuous
 62
     7
370
    25
100
AcDbLine
 10
18.1288454948
 20
5.325842398
 30
0.0
 11
17.5716409044
 21
3.3826390613
 31
0.0
  0
LINE
  5
31B
330
1F
100
AcDbEntity
  8
0
  6
Continuous
 62
     7
370
    25
100
AcDbLine
 10
17.5716409044
 20
3.3826390613
 30
0.0
 11
17.3895885031
 21
3.3826390613
 31
0.0
  0
LINE
  5
31C
330
1F
100
AcDbEntity
  8
0
  6
Continuous
 62
     7
370
    25
100
AcDbLine
 10
18.1406459059
 20
6.0018874957
 30
0.0
 11
18.1288454948
 21
5.325842398
 31
0.0
  0
LINE
  5
31D
330
1F
100
AcDbEntity
  8
0
  6
Continuous
 62
     7
370
    25
100
AcDbLine
 10
10.7013415242
 20
6.4546390613
 30
0.0
 11
10.7013415242
 21
2.8346390613
 31
0.0
  0
LINE
  5
31E
330
1F
100
AcDbEntity
  8
0
  6
Continuous
 62
     7
370
    25
100
AcDbLine
 10
10.7645288593
 20
2.8346390613
 30
0.0
 11
10.7013415242
 21
2.8346390613
 31
0.0
  0
LINE
  5
31F
330
1F
100
AcDbEntity
  8
0
  6
Continuous
 62
     7
370
    25
100
AcDbLine
 10
15.9374520317
 20
2.8146390613
 30
0.0
 11
15.9374520317
 21
2.8346390613
 31
0.0
  0
LINE
  5
320
330
1F
100
AcDbEntity
  8
0
  6
Continuous
 62
     7
370
    25
100
AcDbLine
 10
12.0974520317
 20
2.8146390613
 30
0.0
 11
15.9374520317
 21
2.8146390613
 31
0.0
  0
LINE
  5
321
330
1F
100
AcDbEntity
  8
0
  6
Continuous
 62
     7
370
    25
100
AcDbLine
 10
12.0974520317
 20
2.8146390613
 30
0.0
 11
12.0974520317
 21
2.8346390613
 31
0.0
  0
LINE
  5
322
330
1F
100
AcDbEntity
  8
0
  6
Continuous
 62
     7
370
    25
100
AcDbLine
 10
15.9174520317
 20
2.7946390613
 30
0.0
 11
12.1174520317
 21
2.7946390613
 31
0.0
  0
ARC
  5
323
330
1F
100
AcDbEntity
  8
0
  6
Continuous
 62
     7
370
    25
100
AcDbCircle
 10
12.1174520317
 20
2.8146390613
 30
0.0
 40
0.0200000000000014
100
AcDbArc
 50
180.0
 51
270.0
  0
ARC
  5
324
330
1F
100
AcDbEntity
  8
0
  6
Continuous
 62
     7
370
    25
100
AcDbCircle
 10
15.9174520317
 20
2.8146390613
 30
0.0
 40
0.02
100
AcDbArc
 50
270.0
 51
0.0
  0
ARC
  5
325
330
1F
100
AcDbEntity
  8
0
  6
Continuous
 62
     7
370
    25
100
AcDbCircle
 10
29.7673771134
 20
10.376540535
 30
0.0
 40
0.0600000000000005
100
AcDbArc
 50
180.0
 51
270.0
  0
LINE
  5
326
330
1F
100
AcDbEntity
  8
0
  6
Continuous
 62
     7
370
    25
100
AcDbLine
 10
29.7073771134
 20
10.376540535
 30
0.0
 11
29.7073771134
 21
17.8127602616
 31
0.0
  0
ARC
  5
327
330
1F
100
AcDbEntity
  8
0
  6
Continuous
 62
     7
370
    25
100
AcDbCircle
 10
38.7973771134
 20
10.376540535
 30
0.0
 40
0.0600000000000023
100
AcDbArc
 50
270.0
 51
0.0
  0
LINE
  5
328
330
1F
100
AcDbEntity
  8
0
  6
Continuous
 62
     7
370
    25
100
AcDbLine
 10
38.7973771134
 20
10.316540535
 30
0.0
 11
36.720429629
 21
10.316540535
 31
0.0
  0
LINE
  5
329
330
1F
100
AcDbEntity
  8
0
  6
Continuous
 62
     7
370
    25
100
AcDbLine
 10
31.8443245978
 20
10.316540535
 30
0.0
 11
29.7673771134
 21
10.316540535
 31
0.0
  0
LINE
  5
32A
330
1F
100
AcDbEntity
  8
0
  6
Continuous
 62
     7
370
    25
100
AcDbLine
 10
38.8573771134
 20
17.8127602616
 30
0.0
 11
38.8573771134
 21
10.376540535
 31
0.0
  0
LINE
  5
32B
330
1F
100
AcDbEntity
  8
0
  6
Continuous
 62
     7
370
    25
100
AcDbLine
 10
36.4608771134
 20
11.0652309317
 30
0.0
 11
32.7108771134
 21
11.0652309317
 31
0.0
  0
LINE
  5
32C
330
1F
100
AcDbEntity
  8
0
  6
Continuous
 62
     7
370
    25
100
AcDbLine
 10
36.4608771134
 20
11.0701183499
 30
0.0
 11
32.7108771134
 21
11.0701183499
 31
0.0
  0
LINE
  5
32D
330
1F
100
AcDbEntity
  8
0
  6
Continuous
 62
     7
370
    25
100
AcDbLine
 10
36.4608771134
 20
17.3620177487
 30
0.0
 11
32.7108771134
 21
17.3620177487
 31
0.0
  0
LINE
  5
32E
330
1F
100
AcDbEntity
  8
0
  6
Continuous
 62
     7
370
    25
100
AcDbLine
 10
37.8002039018
 20
12.6436909603
 30
0.0
 11
37.8002039018
 21
12.8836909603
 31
0.0
  0
LINE
  5
32F
330
1F
100
AcDbEntity
  8
0
  6
Continuous
 62
     7
370
    25
100
AcDbLine
 10
37.8002039018
 20
15.4736909603
 30
0.0
 11
37.8002039018
 21
15.7136909603
 31
0.0
  0
LINE
  5
330
330
1F
100
AcDbEntity
  8
0
  6
Continuous
 62
     7
370
    25
100
AcDbLine
 10
30.8344170849
 20
12.3036909603
 30
0.0
 11
30.8344170849
 21
16.0536909603
 31
0.0
  0
LINE
  5
331
330
1F
100
AcDbEntity
  8
0
  6
Continuous
 62
     7
370
    25
100
AcDbLine
 10
32.7108771134
 20
10.9953641719
 30
0.0
 11
36.4608771134
 21
10.9953641719
 31
0.0
  0
LINE
  5
332
330
1F
100
AcDbEntity
  8
0
  6
Continuous
 62
     7
370
    25
100
AcDbLine
 10
32.7108771134
 20
17.2921509889
 30
0.0
 11
36.4608771134
 21
17.2921509889
 31
0.0
  0
LINE
  5
333
330
1F
100
AcDbEntity
  8
0
  6
Continuous
 62
     7
370
    25
100
AcDbLine
 10
32.7108771134
 20
17.2872635707
 30
0.0
 11
36.4608771134
 21
17.2872635707
 31
0.0
  0
LINE
  5
334
330
1F
100
AcDbEntity
  8
0
  6
Continuous
 62
     7
370
    25
100
AcDbLine
 10
30.839304503
 20
12.3036909603
 30
0.0
 11
30.839304503
 21
16.0536909603
 31
0.0
  0
LINE
  5
335
330
1F
100
AcDbEntity
  8
0
  6
Continuous
 62
     7
370
    25
100
AcDbLine
 10
37.8209113538
 20
15.7136909603
 30
0.0
 11
37.8209113538
 21
15.4736909603
 31
0.0
  0
LINE
  5
336
330
1F
100
AcDbEntity
  8
0
  6
Continuous
 62
     7
370
    25
100
AcDbLine
 10
37.8209113538
 20
12.8836909603
 30
0.0
 11
37.8209113538
 21
12.6436909603
 31
0.0
  0
LINE
  5
337
330
1F
100
AcDbEntity
  8
0
  6
Continuous
 62
     7
370
    25
100
AcDbLine
 10
37.8276316069
 20
15.4736909603
 30
0.0
 11
37.8276316069
 21
15.7136909603
 31
0.0
  0
LINE
  5
338
330
1F
100
AcDbEntity
  8
0
  6
Continuous
 62
     7
370
    25
100
AcDbLine
 10
37.8276316069
 20
12.6436909603
 30
0.0
 11
37.8276316069
 21
12.8836909603
 31
0.0
  0
ARC
  5
339
330
1F
100
AcDbEntity
  8
0
  6
Continuous
 62
     7
370
    25
100
AcDbCircle
 10
29.7213771134
 20
17.9836909603
 30
0.0
 40
0.0998627654002107
100
AcDbArc
 50
90.0
 51
180.0
  0
LINE
  5
33A
330
1F
100
AcDbEntity
  8
0
  6
Continuous
 62
     7
370
    25
100
AcDbLine
 10
29.7213771134
 20
18.0505368248
 30
0.0
 11
29.7213771134
 21
18.0835537257
 31
0.0
  0
ARC
  5
33B
330
1F
100
AcDbEntity
  8
0
  6
Continuous
 62
     7
370
    25
100
AcDbCircle
 10
29.7213771134
 20
17.9836909603
 30
0.0
 40
0.0668458644518921
100
AcDbArc
 50
90.0
 51
180.0
  0
LINE
  5
33C
330
1F
100
AcDbEntity
  8
0
  6
Continuous
 62
     7
370
    25
100
AcDbLine
 10
29.654531249
 20
17.9836909603
 30
0.0
 11
29.621514348
 21
17.9836909603
 31
0.0
  0
ARC
  5
33D
330
1F
100
AcDbEntity
  8
0
  6
Continuous
 62
     7
370
    25
100
AcDbCircle
 10
38.8433771134
 20
17.9836909603
 30
0.0
 40
0.0998627654002107
100
AcDbArc
 50
360.0
 51
90.0
  0
LINE
  5
33E
330
1F
100
AcDbEntity
  8
0
  6
Continuous
 62
     7
370
    25
100
AcDbLine
 10
38.9102229779
 20
17.9836909603
 30
0.0
 11
38.9432398788
 21
17.9836909603
 31
0.0
  0
ARC
  5
33F
330
1F
100
AcDbEntity
  8
0
  6
Continuous
 62
     7
370
    25
100
AcDbCircle
 10
38.8433771134
 20
17.9836909603
 30
0.0
 40
0.0668458644518992
100
AcDbArc
 50
360.0
 51
90.0
  0
LINE
  5
340
330
1F
100
AcDbEntity
  8
0
  6
Continuous
 62
     7
370
    25
100
AcDbLine
 10
38.8433771134
 20
18.0505368248
 30
0.0
 11
38.8433771134
 21
18.0835537257
 31
0.0
  0
ARC
  5
341
330
1F
100
AcDbEntity
  8
0
  6
Continuous
 62
     7
370
    25
100
AcDbCircle
 10
38.8433771134
 20
10.3736909603
 30
0.0
 40
0.0563643085952847
100
AcDbArc
 50
270.0
 51
0.0
  0
LINE
  5
342
330
1F
100
AcDbEntity
  8
0
  6
Continuous
 62
     7
370
    25
100
AcDbLine
 10
38.899741422
 20
10.3736909603
 30
0.0
 11
38.9432398788
 21
10.3736909603
 31
0.0
  0
ARC
  5
343
330
1F
100
AcDbEntity
  8
0
  6
Continuous
 62
     7
370
    25
100
AcDbCircle
 10
38.8433771134
 20
10.3736909603
 30
0.0
 40
0.0998627654002107
100
AcDbArc
 50
270.0
 51
0.0
  0
LINE
  5
344
330
1F
100
AcDbEntity
  8
0
  6
Continuous
 62
     7
370
    25
100
AcDbLine
 10
38.8433771134
 20
10.3173266517
 30
0.0
 11
38.8433771134
 21
10.2738281949
 31
0.0
  0
LINE
  5
345
330
1F
100
AcDbEntity
  8
0
  6
Continuous
 62
     7
370
    25
100
AcDbLine
 10
36.720429629
 20
10.2856199453
 30
0.0
 11
36.7513502188
 21
10.316540535
 31
0.0
  0
LINE
  5
346
330
1F
100
AcDbEntity
  8
0
  6
Continuous
 62
     7
370
    25
100
AcDbLine
 10
38.8433771134
 20
10.3173266517
 30
0.0
 11
38.8070578171
 21
10.3173266517
 31
0.0
  0
LINE
  5
347
330
1F
100
AcDbEntity
  8
0
  6
Continuous
 62
     7
370
    25
100
AcDbLine
 10
38.8433771134
 20
10.2738281949
 30
0.0
 11
29.7213771134
 21
10.2738281949
 31
0.0
  0
LINE
  5
348
330
1F
100
AcDbEntity
  8
0
  6
Continuous
 62
     7
370
    25
100
AcDbLine
 10
29.7213771134
 20
10.3173266517
 30
0.0
 11
29.7213771134
 21
10.2738281949
 31
0.0
  0
LINE
  5
349
330
1F
100
AcDbEntity
  8
0
  6
Continuous
 62
     7
370
    25
100
AcDbLine
 10
29.7576964098
 20
10.3173266517
 30
0.0
 11
29.7213771134
 21
10.3173266517
 31
0.0
  0
LINE
  5
34A
330
1F
100
AcDbEntity
  8
0
  6
Continuous
 62
     7
370
    25
100
AcDbLine
 10
31.813404008
 20
10.316540535
 30
0.0
 11
31.8443245978
 21
10.2856199453
 31
0.0
  0
LINE
  5
34B
330
1F
100
AcDbEntity
  8
0
  6
Continuous
 62
     7
370
    25
100
AcDbLine
 10
31.8443245978
 20
10.2856199453
 30
0.0
 11
31.8460701043
 21
10.2803791673
 31
0.0
  0
LINE
  5
34C
330
1F
100
AcDbEntity
  8
0
  6
Continuous
 62
     7
370
    25
100
AcDbLine
 10
36.7186841225
 20
10.2803791673
 30
0.0
 11
31.8460701043
 21
10.2803791673
 31
0.0
  0
LINE
  5
34D
330
1F
100
AcDbEntity
  8
0
  6
Continuous
 62
     7
370
    25
100
AcDbLine
 10
36.7186841225
 20
10.2803791673
 30
0.0
 11
36.720429629
 21
10.2856199453
 31
0.0
  0
ARC
  5
34E
330
1F
100
AcDbEntity
  8
0
  6
Continuous
 62
     7
370
    25
100
AcDbCircle
 10
29.7213771134
 20
10.3736909603
 30
0.0
 40
0.0563643085952847
100
AcDbArc
 50
180.0
 51
270.0
  0
ARC
  5
34F
330
1F
100
AcDbEntity
  8
0
  6
Continuous
 62
     7
370
    25
100
AcDbCircle
 10
29.7213771134
 20
10.3736909603
 30
0.0
 40
0.0998627654002107
100
AcDbArc
 50
180.0
 51
270.0
  0
LINE
  5
350
330
1F
100
AcDbEntity
  8
0
  6
Continuous
 62
     7
370
    25
100
AcDbLine
 10
29.6650128048
 20
10.3736909603
 30
0.0
 11
29.621514348
 21
10.3736909603
 31
0.0
  0
ARC
  5
351
330
1F
100
AcDbEntity
  8
0
  6
Continuous
 62
     7
370
    25
100
AcDbCircle
 10
29.7213771134
 20
17.9836909603
 30
0.0
 40
0.1999999999999993
100
AcDbArc
 50
90.0
 51
180.0
  0
ARC
  5
352
330
1F
100
AcDbEntity
  8
0
  6
Continuous
 62
     7
370
    25
100
AcDbCircle
 10
38.8433771134
 20
17.9836909603
 30
0.0
 40
0.2000000000000028
100
AcDbArc
 50
360.0
 51
90.0
  0
LINE
  5
353
330
1F
100
AcDbEntity
  8
0
  6
Continuous
 62
     7
370
    25
100
AcDbLine
 10
29.621514348
 20
10.3736909603
 30
0.0
 11
29.621514348
 21
17.9836909603
 31
0.0
  0
LINE
  5
354
330
1F
100
AcDbEntity
  8
0
  6
Continuous
 62
     7
370
    25
100
AcDbLine
 10
38.9432398788
 20
17.9836909603
 30
0.0
 11
38.9432398788
 21
10.3736909603
 31
0.0
  0
LINE
  5
355
330
1F
100
AcDbEntity
  8
0
  6
Continuous
 62
     7
370
    25
100
AcDbLine
 10
29.7213771134
 20
18.0835537257
 30
0.0
 11
38.8433771134
 21
18.0835537257
 31
0.0
  0
LINE
  5
356
330
1F
100
AcDbEntity
  8
0
  6
Continuous
 62
     7
370
    25
100
AcDbLine
 10
29.5213771134
 20
10.3736909603
 30
0.0
 11
29.5213771134
 21
17.9836909603
 31
0.0
  0
ARC
  5
357
330
1F
100
AcDbEntity
  8
0
  6
Continuous
 62
     7
370
    25
100
AcDbCircle
 10
29.7213771134
 20
10.3736909603
 30
0.0
 40
0.2000000000000064
100
AcDbArc
 50
180.0
 51
270.0
  0
LINE
  5
358
330
1F
100
AcDbEntity
  8
0
  6
Continuous
 62
     7
370
    25
100
AcDbLine
 10
38.8433771134
 20
10.1736909603
 30
0.0
 11
29.7213771134
 21
10.1736909603
 31
0.0
  0
ARC
  5
359
330
1F
100
AcDbEntity
  8
0
  6
Continuous
 62
     7
370
    25
100
AcDbCircle
 10
38.8433771134
 20
10.3736909603
 30
0.0
 40
0.2000000000000028
100
AcDbArc
 50
270.0
 51
0.0
  0
LINE
  5
35A
330
1F
100
AcDbEntity
  8
0
  6
Continuous
 62
     7
370
    25
100
AcDbLine
 10
39.0433771134
 20
17.9836909603
 30
0.0
 11
39.0433771134
 21
10.3736909603
 31
0.0
  0
LINE
  5
35B
330
1F
100
AcDbEntity
  8
0
  6
Continuous
 62
     7
370
    25
100
AcDbLine
 10
29.7213771134
 20
18.1836909603
 30
0.0
 11
38.8433771134
 21
18.1836909603
 31
0.0
  0
LINE
  5
35C
330
1F
100
AcDbEntity
  8
0
  6
Continuous
 62
     7
370
    25
100
AcDbLine
 10
29.7213771134
 20
18.0505368248
 30
0.0
 11
38.8433771134
 21
18.0505368248
 31
0.0
  0
LINE
  5
35D
330
1F
100
AcDbEntity
  8
0
  6
Continuous
 62
     7
370
    25
100
AcDbLine
 10
38.9102229779
 20
17.9127602616
 30
0.0
 11
38.9366889064
 21
17.9039454538
 31
0.0
  0
LINE
  5
35E
330
1F
100
AcDbEntity
  8
0
  6
Continuous
 62
     7
370
    25
100
AcDbLine
 10
38.9102229779
 20
17.9836909603
 30
0.0
 11
38.9102229779
 21
17.9127602616
 31
0.0
  0
LINE
  5
35F
330
1F
100
AcDbEntity
  8
0
  6
Continuous
 62
     7
370
    25
100
AcDbLine
 10
38.899741422
 20
10.3736909603
 30
0.0
 11
38.899741422
 21
17.7896771302
 31
0.0
  0
LINE
  5
360
330
1F
100
AcDbEntity
  8
0
  6
Continuous
 62
     7
370
    25
100
AcDbLine
 10
38.899741422
 20
17.7896771302
 30
0.0
 11
38.9049822
 21
17.7914226366
 31
0.0
  0
LINE
  5
361
330
1F
100
AcDbEntity
  8
0
  6
Continuous
 62
     7
370
    25
100
AcDbLine
 10
38.9049822
 20
17.8127602616
 30
0.0
 11
38.9049822
 21
17.7914226366
 31
0.0
  0
LINE
  5
362
330
1F
100
AcDbEntity
  8
0
  6
Continuous
 62
     7
370
    25
100
AcDbLine
 10
38.9366889064
 20
17.8233205759
 30
0.0
 11
38.9049822
 21
17.8127602616
 31
0.0
  0
LINE
  5
363
330
1F
100
AcDbEntity
  8
0
  6
Continuous
 62
     7
370
    25
100
AcDbLine
 10
38.9366889064
 20
17.9039454538
 30
0.0
 11
38.9366889064
 21
17.8233205759
 31
0.0
  0
LINE
  5
364
330
1F
100
AcDbEntity
  8
0
  6
Continuous
 62
     7
370
    25
100
AcDbLine
 10
29.6597720269
 20
17.7914226366
 30
0.0
 11
29.6650128048
 21
17.7896771302
 31
0.0
  0
LINE
  5
365
330
1F
100
AcDbEntity
  8
0
  6
Continuous
 62
     7
370
    25
100
AcDbLine
 10
29.6650128048
 20
10.3736909603
 30
0.0
 11
29.6650128048
 21
17.7896771302
 31
0.0
  0
LINE
  5
366
330
1F
100
AcDbEntity
  8
0
  6
Continuous
 62
     7
370
    25
100
AcDbLine
 10
29.654531249
 20
17.9127602616
 30
0.0
 11
29.654531249
 21
17.9836909603
 31
0.0
  0
LINE
  5
367
330
1F
100
AcDbEntity
  8
0
  6
Continuous
 62
     7
370
    25
100
AcDbLine
 10
29.6280653204
 20
17.9039454538
 30
0.0
 11
29.654531249
 21
17.9127602616
 31
0.0
  0
LINE
  5
368
330
1F
100
AcDbEntity
  8
0
  6
Continuous
 62
     7
370
    25
100
AcDbLine
 10
29.6280653204
 20
17.8233205759
 30
0.0
 11
29.6280653204
 21
17.9039454538
 31
0.0
  0
LINE
  5
369
330
1F
100
AcDbEntity
  8
0
  6
Continuous
 62
     7
370
    25
100
AcDbLine
 10
29.6597720269
 20
17.8127602616
 30
0.0
 11
29.6280653204
 21
17.8233205759
 31
0.0
  0
LINE
  5
36A
330
1F
100
AcDbEntity
  8
0
  6
Continuous
 62
     7
370
    25
100
AcDbLine
 10
29.6597720269
 20
17.7914226366
 30
0.0
 11
29.6597720269
 21
17.8127602616
 31
0.0
  0
LINE
  5
36B
330
1F
100
AcDbEntity
  8
0
  6
Continuous
 62
     7
370
    25
100
AcDbLine
 10
38.9366889064
 20
17.8233205759
 30
0.0
 11
38.6356316069
 21
17.8233205759
 31
0.0
  0
LINE
  5
36C
330
1F
100
AcDbEntity
  8
0
  6
Continuous
 62
     7
370
    25
100
AcDbLine
 10
38.6356316069
 20
17.8233205759
 30
0.0
 11
38.6356316069
 21
10.5744364668
 31
0.0
  0
LINE
  5
36D
330
1F
100
AcDbEntity
  8
0
  6
Continuous
 62
     7
370
    25
100
AcDbLine
 10
38.6356316069
 20
10.5744364668
 30
0.0
 11
36.7186841225
 21
10.5744364668
 31
0.0
  0
LINE
  5
36E
330
1F
100
AcDbEntity
  8
0
  6
Continuous
 62
     7
370
    25
100
AcDbLine
 10
36.7186841225
 20
10.5744364668
 30
0.0
 11
36.7186841225
 21
10.2803791673
 31
0.0
  0
LINE
  5
36F
330
1F
100
AcDbEntity
  8
0
  6
Continuous
 62
     7
370
    25
100
AcDbLine
 10
31.8460701043
 20
10.2803791673
 30
0.0
 11
31.8460701043
 21
10.5744364668
 31
0.0
  0
LINE
  5
370
330
1F
100
AcDbEntity
  8
0
  6
Continuous
 62
     7
370
    25
100
AcDbLine
 10
31.8460701043
 20
10.5744364668
 30
0.0
 11
29.9291226199
 21
10.5744364668
 31
0.0
  0
LINE
  5
371
330
1F
100
AcDbEntity
  8
0
  6
Continuous
 62
     7
370
    25
100
AcDbLine
 10
29.9291226199
 20
10.5744364668
 30
0.0
 11
29.9291226199
 21
17.8233205759
 31
0.0
  0
LINE
  5
372
330
1F
100
AcDbEntity
  8
0
  6
Continuous
 62
     7
370
    25
100
AcDbLine
 10
29.9291226199
 20
17.8233205759
 30
0.0
 11
29.6280653204
 21
17.8233205759
 31
0.0
  0
LINE
  5
373
330
1F
100
AcDbEntity
  8
0
  6
Continuous
 62
     7
370
    25
100
AcDbLine
 10
29.6280653204
 20
17.9039454538
 30
0.0
 11
38.9366889064
 21
17.9039454538
 31
0.0
  0
LINE
  5
374
330
1F
100
AcDbEntity
  8
0
  6
Continuous
 62
     7
370
    25
100
AcDbLine
 10
38.9102229779
 20
17.9127602616
 30
0.0
 11
29.654531249
 21
17.9127602616
 31
0.0
  0
LINE
  5
375
330
1F
100
AcDbEntity
  8
0
  6
Continuous
 62
     7
370
    25
100
AcDbLine
 10
29.9291226199
 20
10.5744364668
 30
0.0
 11
29.9185623056
 21
10.5638761525
 31
0.0
  0
LINE
  5
376
330
1F
100
AcDbEntity
  8
0
  6
Continuous
 62
     7
370
    25
100
AcDbLine
 10
29.9185623056
 20
10.5638761525
 30
0.0
 11
29.9185623056
 21
17.8127602616
 31
0.0
  0
LINE
  5
377
330
1F
100
AcDbEntity
  8
0
  6
Continuous
 62
     7
370
    25
100
AcDbLine
 10
29.9291226199
 20
17.8233205759
 30
0.0
 11
29.9185623056
 21
17.8127602616
 31
0.0
  0
LINE
  5
378
330
1F
100
AcDbEntity
  8
0
  6
Continuous
 62
     7
370
    25
100
AcDbLine
 10
29.9185623056
 20
17.8127602616
 30
0.0
 11
29.6597720269
 21
17.8127602616
 31
0.0
  0
LINE
  5
379
330
1F
100
AcDbEntity
  8
0
  6
Continuous
 62
     7
370
    25
100
AcDbLine
 10
38.6356316069
 20
10.5744364668
 30
0.0
 11
38.6461919212
 21
10.5638761525
 31
0.0
  0
LINE
  5
37A
330
1F
100
AcDbEntity
  8
0
  6
Continuous
 62
     7
370
    25
100
AcDbLine
 10
38.6461919212
 20
17.8127602616
 30
0.0
 11
38.6356316069
 21
17.8233205759
 31
0.0
  0
LINE
  5
37B
330
1F
100
AcDbEntity
  8
0
  6
Continuous
 62
     7
370
    25
100
AcDbLine
 10
38.6461919212
 20
17.8127602616
 30
0.0
 11
38.6461919212
 21
10.5638761525
 31
0.0
  0
LINE
  5
37C
330
1F
100
AcDbEntity
  8
0
  6
Continuous
 62
     7
370
    25
100
AcDbLine
 10
31.8460701043
 20
10.5744364668
 30
0.0
 11
31.8443245978
 21
10.5726909603
 31
0.0
  0
LINE
  5
37D
330
1F
100
AcDbEntity
  8
0
  6
Continuous
 62
     7
370
    25
100
AcDbLine
 10
31.8443245978
 20
10.2856199453
 30
0.0
 11
31.8443245978
 21
10.5726909603
 31
0.0
  0
LINE
  5
37E
330
1F
100
AcDbEntity
  8
0
  6
Continuous
 62
     7
370
    25
100
AcDbLine
 10
36.7186841225
 20
10.5744364668
 30
0.0
 11
36.720429629
 21
10.5726909603
 31
0.0
  0
LINE
  5
37F
330
1F
100
AcDbEntity
  8
0
  6
Continuous
 62
     7
370
    25
100
AcDbLine
 10
36.720429629
 20
10.5726909603
 30
0.0
 11
36.720429629
 21
10.2856199453
 31
0.0
  0
LINE
  5
380
330
1F
100
AcDbEntity
  8
0
  6
Continuous
 62
     7
370
    25
100
AcDbLine
 10
38.6461919212
 20
10.5638761525
 30
0.0
 11
36.7292444368
 21
10.5638761525
 31
0.0
  0
LINE
  5
381
330
1F
100
AcDbEntity
  8
0
  6
Continuous
 62
     7
370
    25
100
AcDbLine
 10
36.7292444368
 20
10.5638761525
 30
0.0
 11
36.720429629
 21
10.5726909603
 31
0.0
  0
LINE
  5
382
330
1F
100
AcDbEntity
  8
0
  6
Continuous
 62
     7
370
    25
100
AcDbLine
 10
38.9049822
 20
17.8127602616
 30
0.0
 11
38.6461919212
 21
17.8127602616
 31
0.0
  0
LINE
  5
383
330
1F
100
AcDbEntity
  8
0
  6
Continuous
 62
     7
370
    25
100
AcDbLine
 10
31.83550979
 20
10.5638761525
 30
0.0
 11
31.8443245978
 21
10.5726909603
 31
0.0
  0
LINE
  5
384
330
1F
100
AcDbEntity
  8
0
  6
Continuous
 62
     7
370
    25
100
AcDbLine
 10
31.83550979
 20
10.5638761525
 30
0.0
 11
29.9185623056
 21
10.5638761525
 31
0.0
  0
LINE
  5
385
330
1F
100
AcDbEntity
  8
0
  6
Continuous
 62
     7
370
    25
100
AcDbLine
 10
38.899741422
 20
17.7896771302
 30
0.0
 11
38.8573771134
 21
17.7896771302
 31
0.0
  0
LINE
  5
386
330
1F
100
AcDbEntity
  8
0
  6
Continuous
 62
     7
370
    25
100
AcDbLine
 10
29.7073771134
 20
17.7896771302
 30
0.0
 11
29.6650128048
 21
17.7896771302
 31
0.0
  0
LINE
  5
387
330
1F
100
AcDbEntity
  8
0
  6
Continuous
 62
     7
370
    25
100
AcDbLine
 10
32.7943702007
 20
13.0411909603
 30
0.0
 11
36.5343702007
 21
13.0411909603
 31
0.0
  0
LINE
  5
388
330
1F
100
AcDbEntity
  8
0
  6
Continuous
 62
     7
370
    25
100
AcDbLine
 10
36.5543702007
 20
13.0211909603
 30
0.0
 11
36.5343702007
 21
13.0411909603
 31
0.0
  0
LINE
  5
389
330
1F
100
AcDbEntity
  8
0
  6
Continuous
 62
     7
370
    25
100
AcDbLine
 10
36.5543702007
 20
13.0211909603
 30
0.0
 11
32.7943702007
 21
13.0211909603
 31
0.0
  0
LINE
  5
38A
330
1F
100
AcDbEntity
  8
0
  6
Continuous
 62
     7
370
    25
100
AcDbLine
 10
32.7643702007
 20
13.0111909603
 30
0.0
 11
36.5643702007
 21
13.0111909603
 31
0.0
  0
LINE
  5
38B
330
1F
100
AcDbEntity
  8
0
  6
Continuous
 62
     7
370
    25
100
AcDbLine
 10
36.5643702007
 20
13.0111909603
 30
0.0
 11
36.5843702007
 21
12.9911909603
 31
0.0
  0
LINE
  5
38C
330
1F
100
AcDbEntity
  8
0
  6
Continuous
 62
     7
370
    25
100
AcDbLine
 10
36.5843702007
 20
12.9911909603
 30
0.0
 11
32.7443702007
 21
12.9911909603
 31
0.0
  0
LINE
  5
38D
330
1F
100
AcDbEntity
  8
0
  6
Continuous
 62
     7
370
    25
100
AcDbLine
 10
32.7443702007
 20
12.9911909603
 30
0.0
 11
32.7643702007
 21
13.0111909603
 31
0.0
  0
LINE
  5
38E
330
1F
100
AcDbEntity
  8
0
  6
Continuous
 62
     7
370
    25
100
AcDbLine
 10
36.5643702007
 20
13.0111909603
 30
0.0
 11
36.5643702007
 21
15.3461909603
 31
0.0
  0
LINE
  5
38F
330
1F
100
AcDbEntity
  8
0
  6
Continuous
 62
     7
370
    25
100
AcDbLine
 10
36.5643702007
 20
15.3461909603
 30
0.0
 11
36.5843702007
 21
15.3661909603
 31
0.0
  0
LINE
  5
390
330
1F
100
AcDbEntity
  8
0
  6
Continuous
 62
     7
370
    25
100
AcDbLine
 10
36.5843702007
 20
15.3661909603
 30
0.0
 11
36.5843702007
 21
12.9911909603
 31
0.0
  0
LINE
  5
391
330
1F
100
AcDbEntity
  8
0
  6
Continuous
 62
     7
370
    25
100
AcDbLine
 10
32.7443702007
 20
12.9911909603
 30
0.0
 11
32.7443702007
 21
15.3661909603
 31
0.0
  0
LINE
  5
392
330
1F
100
AcDbEntity
  8
0
  6
Continuous
 62
     7
370
    25
100
AcDbLine
 10
32.7443702007
 20
15.3661909603
 30
0.0
 11
32.7643702007
 21
15.3461909603
 31
0.0
  0
LINE
  5
393
330
1F
100
AcDbEntity
  8
0
  6
Continuous
 62
     7
370
    25
100
AcDbLine
 10
32.7643702007
 20
15.3461909603
 30
0.0
 11
32.7643702007
 21
13.0111909603
 31
0.0
  0
LINE
  5
394
330
1F
100
AcDbEntity
  8
0
  6
Continuous
 62
     7
370
    25
100
AcDbLine
 10
36.5643702007
 20
15.3461909603
 30
0.0
 11
32.7643702007
 21
15.3461909603
 31
0.0
  0
LINE
  5
395
330
1F
100
AcDbEntity
  8
0
  6
Continuous
 62
     7
370
    25
100
AcDbLine
 10
32.7443702007
 20
15.3661909603
 30
0.0
 11
36.5843702007
 21
15.3661909603
 31
0.0
  0
LINE
  5
396
330
1F
100
AcDbEntity
  8
0
  6
Continuous
 62
     7
370
    25
100
AcDbLine
 10
36.5543702007
 20
15.3361909603
 30
0.0
 11
36.5543702007
 21
13.0211909603
 31
0.0
  0
LINE
  5
397
330
1F
100
AcDbEntity
  8
0
  6
Continuous
 62
     7
370
    25
100
AcDbLine
 10
32.7943702007
 20
15.3361909603
 30
0.0
 11
36.5543702007
 21
15.3361909603
 31
0.0
  0
LINE
  5
398
330
1F
100
AcDbEntity
  8
0
  6
Continuous
 62
     7
370
    25
100
AcDbLine
 10
32.7943702007
 20
15.3361909603
 30
0.0
 11
32.7943702007
 21
13.0211909603
 31
0.0
  0
LINE
  5
399
330
1F
100
AcDbEntity
  8
0
  6
Continuous
 62
     7
370
    25
100
AcDbLine
 10
36.5343702007
 20
13.0411909603
 30
0.0
 11
36.5343702007
 21
15.3161909603
 31
0.0
  0
LINE
  5
39A
330
1F
100
AcDbEntity
  8
0
  6
Continuous
 62
     7
370
    25
100
AcDbLine
 10
36.5543702007
 20
15.3361909603
 30
0.0
 11
36.5343702007
 21
15.3161909603
 31
0.0
  0
LINE
  5
39B
330
1F
100
AcDbEntity
  8
0
  6
Continuous
 62
     7
370
    25
100
AcDbLine
 10
36.5343702007
 20
15.3161909603
 30
0.0
 11
32.7943702007
 21
15.3161909603
 31
0.0
  0
LINE
  5
39C
330
1F
100
AcDbEntity
  8
0
  6
Continuous
 62
     7
370
    25
100
AcDbLine
 10
32.8143702007
 20
15.3161909603
 30
0.0
 11
32.8143702007
 21
13.0411909603
 31
0.0
  0
CIRCLE
  5
39D
330
1F
100
AcDbEntity
  8
0
  6
Continuous
 62
     7
370
    25
100
AcDbCircle
 10
34.2568771134
 20
14.1786909603
 30
0.0
 40
0.4799999999999986
  0
CIRCLE
  5
39E
330
1F
100
AcDbEntity
  8
0
  6
Continuous
 62
     7
370
    25
100
AcDbCircle
 10
34.2568771134
 20
14.1786909603
 30
0.0
 40
0.4999999999999982
  0
LINE
  5
39F
330
1F
100
AcDbEntity
  8
0
  6
Continuous
 62
     7
370
    25
100
AcDbLine
 10
37.727345649
 20
15.4736909603
 30
0.0
 11
37.727345649
 21
15.7136909603
 31
0.0
  0
ARC
  5
3A0
330
1F
100
AcDbEntity
  8
0
  6
Continuous
 62
     7
370
    25
100
AcDbCircle
 10
38.4245697804
 20
15.5936909603
 30
0.0
 40
0.6587991389621308
100
AcDbArc
 50
169.5050069387
 51
190.4949930613
  0
LINE
  5
3A1
330
1F
100
AcDbEntity
  8
0
  6
Continuous
 62
     7
370
    25
100
AcDbLine
 10
37.9804807082
 20
12.5011909603
 30
0.0
 11
37.9804807082
 21
12.6436909603
 31
0.0
  0
LINE
  5
3A2
330
1F
100
AcDbEntity
  8
0
  6
Continuous
 62
     7
370
    25
100
AcDbLine
 10
37.9172933732
 20
12.5011909603
 30
0.0
 11
37.9804807082
 21
12.5011909603
 31
0.0
  0
LINE
  5
3A3
330
1F
100
AcDbEntity
  8
0
  6
Continuous
 62
     7
370
    25
100
AcDbLine
 10
37.9172933732
 20
11.7599632171
 30
0.0
 11
37.9172933732
 21
12.5011909603
 31
0.0
  0
LINE
  5
3A4
330
1F
100
AcDbEntity
  8
0
  6
Continuous
 62
     7
370
    25
100
AcDbLine
 10
37.9172933732
 20
11.7599632171
 30
0.0
 11
37.3147291715
 21
11.1573990154
 31
0.0
  0
LINE
  5
3A5
330
1F
100
AcDbEntity
  8
0
  6
Continuous
 62
     7
370
    25
100
AcDbLine
 10
31.4493702007
 20
11.1573990154
 30
0.0
 11
37.3147291715
 21
11.1573990154
 31
0.0
  0
LINE
  5
3A6
330
1F
100
AcDbEntity
  8
0
  6
Continuous
 62
     7
370
    25
100
AcDbLine
 10
31.4493702007
 20
11.1573990154
 30
0.0
 11
31.4493702007
 21
17.1999829053
 31
0.0
  0
LINE
  5
3A7
330
1F
100
AcDbEntity
  8
0
  6
Continuous
 62
     7
370
    25
100
AcDbLine
 10
37.3147291715
 20
17.1999829053
 30
0.0
 11
31.4493702007
 21
17.1999829053
 31
0.0
  0
LINE
  5
3A8
330
1F
100
AcDbEntity
  8
0
  6
Continuous
 62
     7
370
    25
100
AcDbLine
 10
37.3147291715
 20
17.1999829053
 30
0.0
 11
37.9172933732
 21
16.5974187035
 31
0.0
  0
LINE
  5
3A9
330
1F
100
AcDbEntity
  8
0
  6
Continuous
 62
     7
370
    25
100
AcDbLine
 10
37.9172933732
 20
15.8561909603
 30
0.0
 11
37.9172933732
 21
16.5974187035
 31
0.0
  0
LINE
  5
3AA
330
1F
100
AcDbEntity
  8
0
  6
Continuous
 62
     7
370
    25
100
AcDbLine
 10
37.9172933732
 20
15.8561909603
 30
0.0
 11
37.9804807082
 21
15.8561909603
 31
0.0
  0
LINE
  5
3AB
330
1F
100
AcDbEntity
  8
0
  6
Continuous
 62
     7
370
    25
100
AcDbLine
 10
37.9804807082
 20
15.7136909603
 30
0.0
 11
37.9804807082
 21
15.8561909603
 31
0.0
  0
LINE
  5
3AC
330
1F
100
AcDbEntity
  8
0
  6
Continuous
 62
     7
370
    25
100
AcDbLine
 10
37.9804807082
 20
15.7136909603
 30
0.0
 11
37.727345649
 21
15.7136909603
 31
0.0
  0
LINE
  5
3AD
330
1F
100
AcDbEntity
  8
0
  6
Continuous
 62
     7
370
    25
100
AcDbLine
 10
37.9804807082
 20
15.3311909603
 30
0.0
 11
37.9804807082
 21
15.4736909603
 31
0.0
  0
LINE
  5
3AE
330
1F
100
AcDbEntity
  8
0
  6
Continuous
 62
     7
370
    25
100
AcDbLine
 10
37.9172933732
 20
15.3311909603
 30
0.0
 11
37.9804807082
 21
15.3311909603
 31
0.0
  0
LINE
  5
3AF
330
1F
100
AcDbEntity
  8
0
  6
Continuous
 62
     7
370
    25
100
AcDbLine
 10
37.9172933732
 20
13.0261909603
 30
0.0
 11
37.9172933732
 21
15.3311909603
 31
0.0
  0
LINE
  5
3B0
330
1F
100
AcDbEntity
  8
0
  6
Continuous
 62
     7
370
    25
100
AcDbLine
 10
37.9172933732
 20
13.0261909603
 30
0.0
 11
37.9804807082
 21
13.0261909603
 31
0.0
  0
LINE
  5
3B1
330
1F
100
AcDbEntity
  8
0
  6
Continuous
 62
     7
370
    25
100
AcDbLine
 10
37.9804807082
 20
12.8836909603
 30
0.0
 11
37.9804807082
 21
13.0261909603
 31
0.0
  0
LINE
  5
3B2
330
1F
100
AcDbEntity
  8
0
  6
Continuous
 62
     7
370
    25
100
AcDbLine
 10
37.9804807082
 20
12.8836909603
 30
0.0
 11
37.727345649
 21
12.8836909603
 31
0.0
  0
LINE
  5
3B3
330
1F
100
AcDbEntity
  8
0
  6
Continuous
 62
     7
370
    25
100
AcDbLine
 10
37.727345649
 20
12.8836909603
 30
0.0
 11
37.727345649
 21
12.6436909603
 31
0.0
  0
LINE
  5
3B4
330
1F
100
AcDbEntity
  8
0
  6
Continuous
 62
     7
370
    25
100
AcDbLine
 10
37.727345649
 20
12.6436909603
 30
0.0
 11
37.9804807082
 21
12.6436909603
 31
0.0
  0
LINE
  5
3B5
330
1F
100
AcDbEntity
  8
0
  6
Continuous
 62
     7
370
    25
100
AcDbLine
 10
37.727345649
 20
15.4736909603
 30
0.0
 11
37.9804807082
 21
15.4736909603
 31
0.0
  0
LINE
  5
3B6
330
1F
100
AcDbEntity
  8
0
  6
Continuous
 62
     7
370
    25
100
AcDbLine
 10
37.9804807082
 20
13.0261909603
 30
0.0
 11
37.9804807082
 21
13.0893782954
 31
0.0
  0
LINE
  5
3B7
330
1F
100
AcDbEntity
  8
0
  6
Continuous
 62
     7
370
    25
100
AcDbLine
 10
37.9172933732
 20
13.0261909603
 30
0.0
 11
37.9804807082
 21
13.0893782954
 31
0.0
  0
LINE
  5
3B8
330
1F
100
AcDbEntity
  8
0
  6
Continuous
 62
     7
370
    25
100
AcDbLine
 10
37.9804807082
 20
15.2680036253
 30
0.0
 11
37.9804807082
 21
13.0893782954
 31
0.0
  0
LINE
  5
3B9
330
1F
100
AcDbEntity
  8
0
  6
Continuous
 62
     7
370
    25
100
AcDbLine
 10
37.9804807082
 20
15.2680036253
 30
0.0
 11
37.9172933732
 21
15.3311909603
 31
0.0
  0
LINE
  5
3BA
330
1F
100
AcDbEntity
  8
0
  6
Continuous
 62
     7
370
    25
100
AcDbLine
 10
37.9804807082
 20
15.2680036253
 30
0.0
 11
37.9804807082
 21
15.3311909603
 31
0.0
  0
ARC
  5
3BB
330
1F
100
AcDbEntity
  8
0
  6
Continuous
 62
     7
370
    25
100
AcDbCircle
 10
38.4245697804
 20
12.7636909603
 30
0.0
 40
0.6587991389621239
100
AcDbArc
 50
169.5050069387
 51
190.4949930613
  0
LINE
  5
3BC
330
1F
100
AcDbEntity
  8
0
  6
Continuous
 62
     7
370
    25
100
AcDbLine
 10
37.9172933732
 20
15.8561909603
 30
0.0
 11
37.9804807082
 21
15.9193782954
 31
0.0
  0
LINE
  5
3BD
330
1F
100
AcDbEntity
  8
0
  6
Continuous
 62
     7
370
    25
100
AcDbLine
 10
37.9804807082
 20
15.8561909603
 30
0.0
 11
37.9804807082
 21
15.9193782954
 31
0.0
  0
LINE
  5
3BE
330
1F
100
AcDbEntity
  8
0
  6
Continuous
 62
     7
370
    25
100
AcDbLine
 10
37.9726139291
 20
16.7769942564
 30
0.0
 11
37.9172933732
 21
16.5974187035
 31
0.0
  0
LINE
  5
3BF
330
1F
100
AcDbEntity
  8
0
  6
Continuous
 62
     7
370
    25
100
AcDbLine
 10
37.3147291715
 20
17.1999829053
 30
0.0
 11
37.2723601812
 21
17.47717142
 31
0.0
  0
LINE
  5
3C0
330
1F
100
AcDbEntity
  8
0
  6
Continuous
 62
     7
370
    25
100
AcDbLine
 10
37.2723601812
 20
17.47717142
 30
0.0
 11
37.2725779003
 21
17.4770812379
 31
0.0
  0
LINE
  5
3C1
330
1F
100
AcDbEntity
  8
0
  6
Continuous
 62
     7
370
    25
100
AcDbLine
 10
37.9725779003
 20
16.7770812379
 30
0.0
 11
37.2725779003
 21
17.4770812379
 31
0.0
  0
LINE
  5
3C2
330
1F
100
AcDbEntity
  8
0
  6
Continuous
 62
     7
370
    25
100
AcDbLine
 10
37.9726139291
 20
16.7769942564
 30
0.0
 11
37.9725779003
 21
16.7770812379
 31
0.0
  0
LINE
  5
3C3
330
1F
100
AcDbEntity
  8
0
  6
Continuous
 62
     7
370
    25
100
AcDbLine
 10
37.9804807082
 20
12.4380036253
 30
0.0
 11
37.9804807082
 21
10.8406900534
 31
0.0
  0
LINE
  5
3C4
330
1F
100
AcDbEntity
  8
0
  6
Continuous
 62
     7
370
    25
100
AcDbLine
 10
37.9725958927
 20
10.8802105006
 30
0.0
 11
37.9804807082
 21
10.8406900534
 31
0.0
  0
LINE
  5
3C5
330
1F
100
AcDbEntity
  8
0
  6
Continuous
 62
     7
370
    25
100
AcDbLine
 10
37.9726139291
 20
10.8802646539
 30
0.0
 11
37.9725958927
 21
10.8802105006
 31
0.0
  0
LINE
  5
3C6
330
1F
100
AcDbEntity
  8
0
  6
Continuous
 62
     7
370
    25
100
AcDbLine
 10
37.9726139291
 20
11.5803876642
 30
0.0
 11
37.9726139291
 21
10.8802646539
 31
0.0
  0
LINE
  5
3C7
330
1F
100
AcDbEntity
  8
0
  6
Continuous
 62
     7
370
    25
100
AcDbLine
 10
37.9172933732
 20
11.7599632171
 30
0.0
 11
37.9726139291
 21
11.5803876642
 31
0.0
  0
LINE
  5
3C8
330
1F
100
AcDbEntity
  8
0
  6
Continuous
 62
     7
370
    25
100
AcDbLine
 10
37.9804807082
 20
12.4380036253
 30
0.0
 11
37.9172933732
 21
12.5011909603
 31
0.0
  0
LINE
  5
3C9
330
1F
100
AcDbEntity
  8
0
  6
Continuous
 62
     7
370
    25
100
AcDbLine
 10
37.9726139291
 20
17.4771172667
 30
0.0
 11
37.9726139291
 21
16.7769942564
 31
0.0
  0
LINE
  5
3CA
330
1F
100
AcDbEntity
  8
0
  6
Continuous
 62
     7
370
    25
100
AcDbLine
 10
37.9725958927
 20
17.47717142
 30
0.0
 11
37.9726139291
 21
17.4771172667
 31
0.0
  0
LINE
  5
3CB
330
1F
100
AcDbEntity
  8
0
  6
Continuous
 62
     7
370
    25
100
AcDbLine
 10
37.9725958927
 20
17.47717142
 30
0.0
 11
37.9804807082
 21
17.5166918672
 31
0.0
  0
LINE
  5
3CC
330
1F
100
AcDbEntity
  8
0
  6
Continuous
 62
     7
370
    25
100
AcDbLine
 10
37.9804807082
 20
17.5166918672
 30
0.0
 11
37.9804807082
 21
15.9193782954
 31
0.0
  0
LINE
  5
3CD
330
1F
100
AcDbEntity
  8
0
  6
Continuous
 62
     7
370
    25
100
AcDbLine
 10
37.9804807082
 20
12.4380036253
 30
0.0
 11
37.9804807082
 21
12.5011909603
 31
0.0
  0
LINE
  5
3CE
330
1F
100
AcDbEntity
  8
0
  6
Continuous
 62
     7
370
    25
100
AcDbLine
 10
36.7140681756
 20
10.8406900534
 30
0.0
 11
32.4576860513
 21
10.8406900534
 31
0.0
  0
LINE
  5
3CF
330
1F
100
AcDbEntity
  8
0
  6
Continuous
 62
     7
370
    25
100
AcDbLine
 10
32.4308771134
 20
11.1094552277
 30
0.0
 11
32.4576860513
 21
10.8406900534
 31
0.0
  0
LINE
  5
3D0
330
1F
100
AcDbEntity
  8
0
  6
Continuous
 62
     7
370
    25
100
AcDbLine
 10
32.4308771134
 20
11.1094552277
 30
0.0
 11
32.3308771134
 21
11.1094552277
 31
0.0
  0
LINE
  5
3D1
330
1F
100
AcDbEntity
  8
0
  6
Continuous
 62
     7
370
    25
100
AcDbLine
 10
32.3308771134
 20
11.1094552277
 30
0.0
 11
32.3040681756
 21
10.8406900534
 31
0.0
  0
LINE
  5
3D2
330
1F
100
AcDbEntity
  8
0
  6
Continuous
 62
     7
370
    25
100
AcDbLine
 10
32.3040681756
 20
10.8406900534
 30
0.0
 11
30.5332735186
 21
10.8406900534
 31
0.0
  0
LINE
  5
3D3
330
1F
100
AcDbEntity
  8
0
  6
Continuous
 62
     7
370
    25
100
AcDbLine
 10
30.5411583341
 20
10.8802105006
 30
0.0
 11
30.5332735186
 21
10.8406900534
 31
0.0
  0
LINE
  5
3D4
330
1F
100
AcDbEntity
  8
0
  6
Continuous
 62
     7
370
    25
100
AcDbLine
 10
31.2413940456
 20
10.8802105006
 30
0.0
 11
30.5411583341
 21
10.8802105006
 31
0.0
  0
LINE
  5
3D5
330
1F
100
AcDbEntity
  8
0
  6
Continuous
 62
     7
370
    25
100
AcDbLine
 10
31.2101801029
 20
11.0844199091
 30
0.0
 11
31.2413940456
 21
10.8802105006
 31
0.0
  0
LINE
  5
3D6
330
1F
100
AcDbEntity
  8
0
  6
Continuous
 62
     7
370
    25
100
AcDbLine
 10
31.4493702007
 20
11.1573990154
 30
0.0
 11
31.2101801029
 21
11.0844199091
 31
0.0
  0
LINE
  5
3D7
330
1F
100
AcDbEntity
  8
0
  6
Continuous
 62
     7
370
    25
100
AcDbLine
 10
37.2723601812
 20
10.8802105006
 30
0.0
 11
37.3147291715
 21
11.1573990154
 31
0.0
  0
LINE
  5
3D8
330
1F
100
AcDbEntity
  8
0
  6
Continuous
 62
     7
370
    25
100
AcDbLine
 10
37.9725958927
 20
10.8802105006
 30
0.0
 11
37.2723601812
 21
10.8802105006
 31
0.0
  0
LINE
  5
3D9
330
1F
100
AcDbEntity
  8
0
  6
Continuous
 62
     7
370
    25
100
AcDbLine
 10
37.9804807082
 20
10.8406900534
 30
0.0
 11
36.8676860513
 21
10.8406900534
 31
0.0
  0
LINE
  5
3DA
330
1F
100
AcDbEntity
  8
0
  6
Continuous
 62
     7
370
    25
100
AcDbLine
 10
36.8408771134
 20
11.1094552277
 30
0.0
 11
36.8676860513
 21
10.8406900534
 31
0.0
  0
LINE
  5
3DB
330
1F
100
AcDbEntity
  8
0
  6
Continuous
 62
     7
370
    25
100
AcDbLine
 10
36.7408771134
 20
11.1094552277
 30
0.0
 11
36.8408771134
 21
11.1094552277
 31
0.0
  0
LINE
  5
3DC
330
1F
100
AcDbEntity
  8
0
  6
Continuous
 62
     7
370
    25
100
AcDbLine
 10
36.7408771134
 20
11.1094552277
 30
0.0
 11
36.7140681756
 21
10.8406900534
 31
0.0
  0
LINE
  5
3DD
330
1F
100
AcDbEntity
  8
0
  6
Continuous
 62
     7
370
    25
100
AcDbLine
 10
32.7108771134
 20
10.8909085463
 30
0.0
 11
36.4608771134
 21
10.8909085463
 31
0.0
  0
LINE
  5
3DE
330
1F
100
AcDbEntity
  8
0
  6
Continuous
 62
     7
370
    25
100
AcDbLine
 10
36.4608771134
 20
11.0900327444
 30
0.0
 11
36.4608771134
 21
10.8909085463
 31
0.0
  0
LINE
  5
3DF
330
1F
100
AcDbEntity
  8
0
  6
Continuous
 62
     7
370
    25
100
AcDbLine
 10
32.7108771134
 20
11.0900327444
 30
0.0
 11
36.4608771134
 21
11.0900327444
 31
0.0
  0
LINE
  5
3E0
330
1F
100
AcDbEntity
  8
0
  6
Continuous
 62
     7
370
    25
100
AcDbLine
 10
32.7108771134
 20
10.8909085463
 30
0.0
 11
32.7108771134
 21
11.0900327444
 31
0.0
  0
LINE
  5
3E1
330
1F
100
AcDbEntity
  8
0
  6
Continuous
 62
     7
370
    25
100
AcDbLine
 10
37.9726139291
 20
11.5803876642
 30
0.0
 11
37.9725779003
 21
11.5803006828
 31
0.0
  0
LINE
  5
3E2
330
1F
100
AcDbEntity
  8
0
  6
Continuous
 62
     7
370
    25
100
AcDbLine
 10
37.2725779003
 20
10.8803006828
 30
0.0
 11
37.9725779003
 21
11.5803006828
 31
0.0
  0
LINE
  5
3E3
330
1F
100
AcDbEntity
  8
0
  6
Continuous
 62
     7
370
    25
100
AcDbLine
 10
37.2723601812
 20
10.8802105006
 30
0.0
 11
37.2725779003
 21
10.8803006828
 31
0.0
  0
LINE
  5
3E4
330
1F
100
AcDbEntity
  8
0
  6
Continuous
 62
     7
370
    25
100
AcDbLine
 10
30.5411763266
 20
12.0465487951
 30
0.0
 11
30.5411763266
 21
16.3108331255
 31
0.0
  0
LINE
  5
3E5
330
1F
100
AcDbEntity
  8
0
  6
Continuous
 62
     7
370
    25
100
AcDbLine
 10
31.2922337293
 20
16.3336909603
 30
0.0
 11
30.5411763266
 21
16.3108331255
 31
0.0
  0
LINE
  5
3E6
330
1F
100
AcDbEntity
  8
0
  6
Continuous
 62
     7
370
    25
100
AcDbLine
 10
31.2922337293
 20
16.3336909603
 30
0.0
 11
31.2922337293
 21
16.4336909603
 31
0.0
  0
LINE
  5
3E7
330
1F
100
AcDbEntity
  8
0
  6
Continuous
 62
     7
370
    25
100
AcDbLine
 10
31.2922337293
 20
16.4336909603
 30
0.0
 11
30.5411763266
 21
16.4565487951
 31
0.0
  0
LINE
  5
3E8
330
1F
100
AcDbEntity
  8
0
  6
Continuous
 62
     7
370
    25
100
AcDbLine
 10
30.5411763266
 20
16.4565487951
 30
0.0
 11
30.5411763266
 21
16.7768773034
 31
0.0
  0
LINE
  5
3E9
330
1F
100
AcDbEntity
  8
0
  6
Continuous
 62
     7
370
    25
100
AcDbLine
 10
31.2101801029
 20
17.2729620116
 30
0.0
 11
30.5411763266
 21
16.7768773034
 31
0.0
  0
LINE
  5
3EA
330
1F
100
AcDbEntity
  8
0
  6
Continuous
 62
     7
370
    25
100
AcDbLine
 10
31.2101801029
 20
17.2729620116
 30
0.0
 11
31.4493702007
 21
17.1999829053
 31
0.0
  0
LINE
  5
3EB
330
1F
100
AcDbEntity
  8
0
  6
Continuous
 62
     7
370
    25
100
AcDbLine
 10
30.5411763266
 20
11.5805046172
 30
0.0
 11
31.2101801029
 21
11.0844199091
 31
0.0
  0
LINE
  5
3EC
330
1F
100
AcDbEntity
  8
0
  6
Continuous
 62
     7
370
    25
100
AcDbLine
 10
30.5411763266
 20
11.5805046172
 30
0.0
 11
30.5411763266
 21
11.9008331255
 31
0.0
  0
LINE
  5
3ED
330
1F
100
AcDbEntity
  8
0
  6
Continuous
 62
     7
370
    25
100
AcDbLine
 10
31.2922337293
 20
11.9236909603
 30
0.0
 11
30.5411763266
 21
11.9008331255
 31
0.0
  0
LINE
  5
3EE
330
1F
100
AcDbEntity
  8
0
  6
Continuous
 62
     7
370
    25
100
AcDbLine
 10
31.2922337293
 20
12.0236909603
 30
0.0
 11
31.2922337293
 21
11.9236909603
 31
0.0
  0
LINE
  5
3EF
330
1F
100
AcDbEntity
  8
0
  6
Continuous
 62
     7
370
    25
100
AcDbLine
 10
31.2922337293
 20
12.0236909603
 30
0.0
 11
30.5411763266
 21
12.0465487951
 31
0.0
  0
LINE
  5
3F0
330
1F
100
AcDbEntity
  8
0
  6
Continuous
 62
     7
370
    25
100
AcDbLine
 10
30.6636878438
 20
16.0536909603
 30
0.0
 11
30.6636878438
 21
12.3036909603
 31
0.0
  0
LINE
  5
3F1
330
1F
100
AcDbEntity
  8
0
  6
Continuous
 62
     7
370
    25
100
AcDbLine
 10
31.2922337293
 20
12.3036909603
 30
0.0
 11
30.6636878438
 21
12.3036909603
 31
0.0
  0
LINE
  5
3F2
330
1F
100
AcDbEntity
  8
0
  6
Continuous
 62
     7
370
    25
100
AcDbLine
 10
31.2922337293
 20
16.0536909603
 30
0.0
 11
31.2922337293
 21
12.3036909603
 31
0.0
  0
LINE
  5
3F3
330
1F
100
AcDbEntity
  8
0
  6
Continuous
 62
     7
370
    25
100
AcDbLine
 10
30.6636878438
 20
16.0536909603
 30
0.0
 11
31.2922337293
 21
16.0536909603
 31
0.0
  0
LINE
  5
3F4
330
1F
100
AcDbEntity
  8
0
  6
Continuous
 62
     7
370
    25
100
AcDbLine
 10
36.7408771134
 20
17.2479266929
 30
0.0
 11
36.8408771134
 21
17.2479266929
 31
0.0
  0
LINE
  5
3F5
330
1F
100
AcDbEntity
  8
0
  6
Continuous
 62
     7
370
    25
100
AcDbLine
 10
36.8676860513
 20
17.5166918672
 30
0.0
 11
36.8408771134
 21
17.2479266929
 31
0.0
  0
LINE
  5
3F6
330
1F
100
AcDbEntity
  8
0
  6
Continuous
 62
     7
370
    25
100
AcDbLine
 10
36.8676860513
 20
17.5166918672
 30
0.0
 11
37.9804807082
 21
17.5166918672
 31
0.0
  0
LINE
  5
3F7
330
1F
100
AcDbEntity
  8
0
  6
Continuous
 62
     7
370
    25
100
AcDbLine
 10
37.2723601812
 20
17.47717142
 30
0.0
 11
37.9725958927
 21
17.47717142
 31
0.0
  0
LINE
  5
3F8
330
1F
100
AcDbEntity
  8
0
  6
Continuous
 62
     7
370
    25
100
AcDbLine
 10
31.2413940456
 20
17.47717142
 30
0.0
 11
31.2101801029
 21
17.2729620116
 31
0.0
  0
LINE
  5
3F9
330
1F
100
AcDbEntity
  8
0
  6
Continuous
 62
     7
370
    25
100
AcDbLine
 10
30.5411583341
 20
17.47717142
 30
0.0
 11
31.2413940456
 21
17.47717142
 31
0.0
  0
LINE
  5
3FA
330
1F
100
AcDbEntity
  8
0
  6
Continuous
 62
     7
370
    25
100
AcDbLine
 10
30.5411583341
 20
17.47717142
 30
0.0
 11
30.5332735186
 21
17.5166918672
 31
0.0
  0
LINE
  5
3FB
330
1F
100
AcDbEntity
  8
0
  6
Continuous
 62
     7
370
    25
100
AcDbLine
 10
30.5332735186
 20
17.5166918672
 30
0.0
 11
32.3040681756
 21
17.5166918672
 31
0.0
  0
LINE
  5
3FC
330
1F
100
AcDbEntity
  8
0
  6
Continuous
 62
     7
370
    25
100
AcDbLine
 10
32.3040681756
 20
17.5166918672
 30
0.0
 11
32.3308771134
 21
17.2479266929
 31
0.0
  0
LINE
  5
3FD
330
1F
100
AcDbEntity
  8
0
  6
Continuous
 62
     7
370
    25
100
AcDbLine
 10
32.4308771134
 20
17.2479266929
 30
0.0
 11
32.3308771134
 21
17.2479266929
 31
0.0
  0
LINE
  5
3FE
330
1F
100
AcDbEntity
  8
0
  6
Continuous
 62
     7
370
    25
100
AcDbLine
 10
32.4576860513
 20
17.5166918672
 30
0.0
 11
32.4308771134
 21
17.2479266929
 31
0.0
  0
LINE
  5
3FF
330
1F
100
AcDbEntity
  8
0
  6
Continuous
 62
     7
370
    25
100
AcDbLine
 10
32.4576860513
 20
17.5166918672
 30
0.0
 11
36.7140681756
 21
17.5166918672
 31
0.0
  0
LINE
  5
400
330
1F
100
AcDbEntity
  8
0
  6
Continuous
 62
     7
370
    25
100
AcDbLine
 10
36.7140681756
 20
17.5166918672
 30
0.0
 11
36.7408771134
 21
17.2479266929
 31
0.0
  0
LINE
  5
401
330
1F
100
AcDbEntity
  8
0
  6
Continuous
 62
     7
370
    25
100
AcDbLine
 10
36.4608771134
 20
17.4664733744
 30
0.0
 11
32.7108771134
 21
17.4664733744
 31
0.0
  0
LINE
  5
402
330
1F
100
AcDbEntity
  8
0
  6
Continuous
 62
     7
370
    25
100
AcDbLine
 10
32.7108771134
 20
17.2673491762
 30
0.0
 11
32.7108771134
 21
17.4664733744
 31
0.0
  0
LINE
  5
403
330
1F
100
AcDbEntity
  8
0
  6
Continuous
 62
     7
370
    25
100
AcDbLine
 10
36.4608771134
 20
17.2673491762
 30
0.0
 11
32.7108771134
 21
17.2673491762
 31
0.0
  0
LINE
  5
404
330
1F
100
AcDbEntity
  8
0
  6
Continuous
 62
     7
370
    25
100
AcDbLine
 10
36.4608771134
 20
17.4664733744
 30
0.0
 11
36.4608771134
 21
17.2673491762
 31
0.0
  0
LINE
  5
405
330
1F
100
AcDbEntity
  8
0
  6
Continuous
 62
     7
370
    25
100
AcDbLine
 10
30.5411763266
 20
16.3108331255
 30
0.0
 11
30.5529767377
 21
16.3167328817
 31
0.0
  0
LINE
  5
406
330
1F
100
AcDbEntity
  8
0
  6
Continuous
 62
     7
370
    25
100
AcDbLine
 10
30.5529767377
 20
16.3167328817
 30
0.0
 11
31.1101813281
 21
16.3336909603
 31
0.0
  0
LINE
  5
407
330
1F
100
AcDbEntity
  8
0
  6
Continuous
 62
     7
370
    25
100
AcDbLine
 10
31.1101813281
 20
16.3336909603
 30
0.0
 11
31.2922337293
 21
16.3336909603
 31
0.0
  0
LINE
  5
408
330
1F
100
AcDbEntity
  8
0
  6
Continuous
 62
     7
370
    25
100
AcDbLine
 10
31.1101813281
 20
12.0236909603
 30
0.0
 11
31.2922337293
 21
12.0236909603
 31
0.0
  0
LINE
  5
409
330
1F
100
AcDbEntity
  8
0
  6
Continuous
 62
     7
370
    25
100
AcDbLine
 10
31.1101813281
 20
11.9236909603
 30
0.0
 11
31.2922337293
 21
11.9236909603
 31
0.0
  0
LINE
  5
40A
330
1F
100
AcDbEntity
  8
0
  6
Continuous
 62
     7
370
    25
100
AcDbLine
 10
31.1101813281
 20
12.0236909603
 30
0.0
 11
31.1101813281
 21
11.9236909603
 31
0.0
  0
LINE
  5
40B
330
1F
100
AcDbEntity
  8
0
  6
Continuous
 62
     7
370
    25
100
AcDbLine
 10
30.5529767377
 20
16.3167328817
 30
0.0
 11
30.5529767377
 21
16.4506490389
 31
0.0
  0
LINE
  5
40C
330
1F
100
AcDbEntity
  8
0
  6
Continuous
 62
     7
370
    25
100
AcDbLine
 10
30.5529767377
 20
16.4506490389
 30
0.0
 11
31.1101813281
 21
16.4336909603
 31
0.0
  0
LINE
  5
40D
330
1F
100
AcDbEntity
  8
0
  6
Continuous
 62
     7
370
    25
100
AcDbLine
 10
31.1101813281
 20
16.3336909603
 30
0.0
 11
31.1101813281
 21
16.4336909603
 31
0.0
  0
LINE
  5
40E
330
1F
100
AcDbEntity
  8
0
  6
Continuous
 62
     7
370
    25
100
AcDbLine
 10
30.5411763266
 20
16.4565487951
 30
0.0
 11
30.5529767377
 21
16.4506490389
 31
0.0
  0
LINE
  5
40F
330
1F
100
AcDbEntity
  8
0
  6
Continuous
 62
     7
370
    25
100
AcDbLine
 10
31.1101813281
 20
16.4336909603
 30
0.0
 11
31.2922337293
 21
16.4336909603
 31
0.0
  0
LINE
  5
410
330
1F
100
AcDbEntity
  8
0
  6
Continuous
 62
     7
370
    25
100
AcDbLine
 10
30.5411763266
 20
11.9008331255
 30
0.0
 11
30.5529767377
 21
11.9067328817
 31
0.0
  0
LINE
  5
411
330
1F
100
AcDbEntity
  8
0
  6
Continuous
 62
     7
370
    25
100
AcDbLine
 10
30.5529767377
 20
11.9067328817
 30
0.0
 11
31.1101813281
 21
11.9236909603
 31
0.0
  0
LINE
  5
412
330
1F
100
AcDbEntity
  8
0
  6
Continuous
 62
     7
370
    25
100
AcDbLine
 10
30.5529767377
 20
12.0406490389
 30
0.0
 11
31.1101813281
 21
12.0236909603
 31
0.0
  0
LINE
  5
413
330
1F
100
AcDbEntity
  8
0
  6
Continuous
 62
     7
370
    25
100
AcDbLine
 10
30.5529767377
 20
12.0406490389
 30
0.0
 11
30.5529767377
 21
11.9067328817
 31
0.0
  0
LINE
  5
414
330
1F
100
AcDbEntity
  8
0
  6
Continuous
 62
     7
370
    25
100
AcDbLine
 10
30.5411763266
 20
12.0465487951
 30
0.0
 11
30.5529767377
 21
12.0406490389
 31
0.0
  0
LINE
  5
415
330
1F
100
AcDbEntity
  8
0
  6
Continuous
 62
     7
370
    25
100
AcDbLine
 10
32.3130762125
 20
10.7804245204
 30
0.0
 11
32.3308771134
 21
10.9588822521
 31
0.0
  0
LINE
  5
416
330
1F
100
AcDbEntity
  8
0
  6
Continuous
 62
     7
370
    25
100
AcDbLine
 10
32.4308771134
 20
10.9588822521
 30
0.0
 11
32.3308771134
 21
10.9588822521
 31
0.0
  0
LINE
  5
417
330
1F
100
AcDbEntity
  8
0
  6
Continuous
 62
     7
370
    25
100
AcDbLine
 10
32.4486780144
 20
10.7804245204
 30
0.0
 11
32.4308771134
 21
10.9588822521
 31
0.0
  0
LINE
  5
418
330
1F
100
AcDbEntity
  8
0
  6
Continuous
 62
     7
370
    25
100
AcDbLine
 10
32.4486780144
 20
10.7804245204
 30
0.0
 11
32.3130762125
 21
10.7804245204
 31
0.0
  0
LINE
  5
419
330
1F
100
AcDbEntity
  8
0
  6
Continuous
 62
     7
370
    25
100
AcDbLine
 10
32.3308771134
 20
10.9588822521
 30
0.0
 11
32.3308771134
 21
11.1094552277
 31
0.0
  0
LINE
  5
41A
330
1F
100
AcDbEntity
  8
0
  6
Continuous
 62
     7
370
    25
100
AcDbLine
 10
32.3040681756
 20
10.7624070743
 30
0.0
 11
32.3130762125
 21
10.7804245204
 31
0.0
  0
LINE
  5
41B
330
1F
100
AcDbEntity
  8
0
  6
Continuous
 62
     7
370
    25
100
AcDbLine
 10
32.3040681756
 20
10.8406900534
 30
0.0
 11
32.3040681756
 21
10.7624070743
 31
0.0
  0
LINE
  5
41C
330
1F
100
AcDbEntity
  8
0
  6
Continuous
 62
     7
370
    25
100
AcDbLine
 10
32.4576860513
 20
17.5949748463
 30
0.0
 11
32.4576860513
 21
17.5166918672
 31
0.0
  0
LINE
  5
41D
330
1F
100
AcDbEntity
  8
0
  6
Continuous
 62
     7
370
    25
100
AcDbLine
 10
32.4308771134
 20
17.2479266929
 30
0.0
 11
32.4308771134
 21
17.3984996685
 31
0.0
  0
LINE
  5
41E
330
1F
100
AcDbEntity
  8
0
  6
Continuous
 62
     7
370
    25
100
AcDbLine
 10
32.4308771134
 20
17.3984996685
 30
0.0
 11
32.4486780144
 21
17.5769574003
 31
0.0
  0
LINE
  5
41F
330
1F
100
AcDbEntity
  8
0
  6
Continuous
 62
     7
370
    25
100
AcDbLine
 10
32.4486780144
 20
17.5769574003
 30
0.0
 11
32.4576860513
 21
17.5949748463
 31
0.0
  0
LINE
  5
420
330
1F
100
AcDbEntity
  8
0
  6
Continuous
 62
     7
370
    25
100
AcDbLine
 10
32.4308771134
 20
10.9588822521
 30
0.0
 11
32.4308771134
 21
11.1094552277
 31
0.0
  0
LINE
  5
421
330
1F
100
AcDbEntity
  8
0
  6
Continuous
 62
     7
370
    25
100
AcDbLine
 10
32.3308771134
 20
17.2479266929
 30
0.0
 11
32.3308771134
 21
17.3984996685
 31
0.0
  0
LINE
  5
422
330
1F
100
AcDbEntity
  8
0
  6
Continuous
 62
     7
370
    25
100
AcDbLine
 10
32.3040681756
 20
17.5949748463
 30
0.0
 11
32.3040681756
 21
17.5166918672
 31
0.0
  0
LINE
  5
423
330
1F
100
AcDbEntity
  8
0
  6
Continuous
 62
     7
370
    25
100
AcDbLine
 10
32.3130762125
 20
17.5769574003
 30
0.0
 11
32.3040681756
 21
17.5949748463
 31
0.0
  0
LINE
  5
424
330
1F
100
AcDbEntity
  8
0
  6
Continuous
 62
     7
370
    25
100
AcDbLine
 10
32.3308771134
 20
17.3984996685
 30
0.0
 11
32.3130762125
 21
17.5769574003
 31
0.0
  0
LINE
  5
425
330
1F
100
AcDbEntity
  8
0
  6
Continuous
 62
     7
370
    25
100
AcDbLine
 10
32.4576860513
 20
10.8406900534
 30
0.0
 11
32.4576860513
 21
10.7624070743
 31
0.0
  0
LINE
  5
426
330
1F
100
AcDbEntity
  8
0
  6
Continuous
 62
     7
370
    25
100
AcDbLine
 10
32.4576860513
 20
10.7624070743
 30
0.0
 11
32.4486780144
 21
10.7804245204
 31
0.0
  0
LINE
  5
427
330
1F
100
AcDbEntity
  8
0
  6
Continuous
 62
     7
370
    25
100
AcDbLine
 10
32.4308771134
 20
17.3984996685
 30
0.0
 11
32.3308771134
 21
17.3984996685
 31
0.0
  0
LINE
  5
428
330
1F
100
AcDbEntity
  8
0
  6
Continuous
 62
     7
370
    25
100
AcDbLine
 10
32.4486780144
 20
17.5769574003
 30
0.0
 11
32.3130762125
 21
17.5769574003
 31
0.0
  0
LINE
  5
429
330
1F
100
AcDbEntity
  8
0
  6
Continuous
 62
     7
370
    25
100
AcDbLine
 10
36.7408771134
 20
10.9588822521
 30
0.0
 11
36.7408771134
 21
11.1094552277
 31
0.0
  0
LINE
  5
42A
330
1F
100
AcDbEntity
  8
0
  6
Continuous
 62
     7
370
    25
100
AcDbLine
 10
36.7230762125
 20
10.7804245204
 30
0.0
 11
36.7408771134
 21
10.9588822521
 31
0.0
  0
LINE
  5
42B
330
1F
100
AcDbEntity
  8
0
  6
Continuous
 62
     7
370
    25
100
AcDbLine
 10
36.7140681756
 20
10.7624070743
 30
0.0
 11
36.7230762125
 21
10.7804245204
 31
0.0
  0
LINE
  5
42C
330
1F
100
AcDbEntity
  8
0
  6
Continuous
 62
     7
370
    25
100
AcDbLine
 10
36.7140681756
 20
10.8406900534
 30
0.0
 11
36.7140681756
 21
10.7624070743
 31
0.0
  0
LINE
  5
42D
330
1F
100
AcDbEntity
  8
0
  6
Continuous
 62
     7
370
    25
100
AcDbLine
 10
36.7408771134
 20
17.3984996685
 30
0.0
 11
36.8408771134
 21
17.3984996685
 31
0.0
  0
LINE
  5
42E
330
1F
100
AcDbEntity
  8
0
  6
Continuous
 62
     7
370
    25
100
AcDbLine
 10
36.7408771134
 20
17.3984996685
 30
0.0
 11
36.7230762125
 21
17.5769574003
 31
0.0
  0
LINE
  5
42F
330
1F
100
AcDbEntity
  8
0
  6
Continuous
 62
     7
370
    25
100
AcDbLine
 10
36.8586780144
 20
17.5769574003
 30
0.0
 11
36.7230762125
 21
17.5769574003
 31
0.0
  0
LINE
  5
430
330
1F
100
AcDbEntity
  8
0
  6
Continuous
 62
     7
370
    25
100
AcDbLine
 10
36.8408771134
 20
17.3984996685
 30
0.0
 11
36.8586780144
 21
17.5769574003
 31
0.0
  0
LINE
  5
431
330
1F
100
AcDbEntity
  8
0
  6
Continuous
 62
     7
370
    25
100
AcDbLine
 10
36.8676860513
 20
17.5949748463
 30
0.0
 11
36.8676860513
 21
17.5166918672
 31
0.0
  0
LINE
  5
432
330
1F
100
AcDbEntity
  8
0
  6
Continuous
 62
     7
370
    25
100
AcDbLine
 10
36.8408771134
 20
17.2479266929
 30
0.0
 11
36.8408771134
 21
17.3984996685
 31
0.0
  0
LINE
  5
433
330
1F
100
AcDbEntity
  8
0
  6
Continuous
 62
     7
370
    25
100
AcDbLine
 10
36.8586780144
 20
17.5769574003
 30
0.0
 11
36.8676860513
 21
17.5949748463
 31
0.0
  0
LINE
  5
434
330
1F
100
AcDbEntity
  8
0
  6
Continuous
 62
     7
370
    25
100
AcDbLine
 10
36.8586780144
 20
10.7804245204
 30
0.0
 11
36.8408771134
 21
10.9588822521
 31
0.0
  0
LINE
  5
435
330
1F
100
AcDbEntity
  8
0
  6
Continuous
 62
     7
370
    25
100
AcDbLine
 10
36.8408771134
 20
10.9588822521
 30
0.0
 11
36.8408771134
 21
11.1094552277
 31
0.0
  0
LINE
  5
436
330
1F
100
AcDbEntity
  8
0
  6
Continuous
 62
     7
370
    25
100
AcDbLine
 10
36.8676860513
 20
10.8406900534
 30
0.0
 11
36.8676860513
 21
10.7624070743
 31
0.0
  0
LINE
  5
437
330
1F
100
AcDbEntity
  8
0
  6
Continuous
 62
     7
370
    25
100
AcDbLine
 10
36.8676860513
 20
10.7624070743
 30
0.0
 11
36.8586780144
 21
10.7804245204
 31
0.0
  0
LINE
  5
438
330
1F
100
AcDbEntity
  8
0
  6
Continuous
 62
     7
370
    25
100
AcDbLine
 10
36.7408771134
 20
10.9588822521
 30
0.0
 11
36.8408771134
 21
10.9588822521
 31
0.0
  0
LINE
  5
439
330
1F
100
AcDbEntity
  8
0
  6
Continuous
 62
     7
370
    25
100
AcDbLine
 10
36.7408771134
 20
17.2479266929
 30
0.0
 11
36.7408771134
 21
17.3984996685
 31
0.0
  0
LINE
  5
43A
330
1F
100
AcDbEntity
  8
0
  6
Continuous
 62
     7
370
    25
100
AcDbLine
 10
36.7140681756
 20
17.5949748463
 30
0.0
 11
36.7140681756
 21
17.5166918672
 31
0.0
  0
LINE
  5
43B
330
1F
100
AcDbEntity
  8
0
  6
Continuous
 62
     7
370
    25
100
AcDbLine
 10
36.7230762125
 20
17.5769574003
 30
0.0
 11
36.7140681756
 21
17.5949748463
 31
0.0
  0
LINE
  5
43C
330
1F
100
AcDbEntity
  8
0
  6
Continuous
 62
     7
370
    25
100
AcDbLine
 10
36.8586780144
 20
10.7804245204
 30
0.0
 11
36.7230762125
 21
10.7804245204
 31
0.0
  0
LINE
  5
43D
330
1F
100
AcDbEntity
  8
0
  6
Continuous
 62
     7
370
    25
100
AcDbLine
 10
30.5411763266
 20
16.7768773034
 30
0.0
 11
30.5411402977
 21
16.7769942564
 31
0.0
  0
LINE
  5
43E
330
1F
100
AcDbEntity
  8
0
  6
Continuous
 62
     7
370
    25
100
AcDbLine
 10
30.5411402977
 20
16.7769942564
 30
0.0
 11
30.5411763266
 21
16.7770812379
 31
0.0
  0
LINE
  5
43F
330
1F
100
AcDbEntity
  8
0
  6
Continuous
 62
     7
370
    25
100
AcDbLine
 10
31.2411763266
 20
17.4770812379
 30
0.0
 11
30.5411763266
 21
16.7770812379
 31
0.0
  0
LINE
  5
440
330
1F
100
AcDbEntity
  8
0
  6
Continuous
 62
     7
370
    25
100
AcDbLine
 10
31.2413940456
 20
17.47717142
 30
0.0
 11
31.2411763266
 21
17.4770812379
 31
0.0
  0
LINE
  5
441
330
1F
100
AcDbEntity
  8
0
  6
Continuous
 62
     7
370
    25
100
AcDbLine
 10
30.5411402977
 20
11.5803876642
 30
0.0
 11
30.5411763266
 21
11.5805046172
 31
0.0
  0
LINE
  5
442
330
1F
100
AcDbEntity
  8
0
  6
Continuous
 62
     7
370
    25
100
AcDbLine
 10
31.2413940456
 20
10.8802105006
 30
0.0
 11
31.2411763266
 21
10.8803006828
 31
0.0
  0
LINE
  5
443
330
1F
100
AcDbEntity
  8
0
  6
Continuous
 62
     7
370
    25
100
AcDbLine
 10
30.5411763266
 20
11.5803006828
 30
0.0
 11
31.2411763266
 21
10.8803006828
 31
0.0
  0
LINE
  5
444
330
1F
100
AcDbEntity
  8
0
  6
Continuous
 62
     7
370
    25
100
AcDbLine
 10
30.5411402977
 20
11.5803876642
 30
0.0
 11
30.5411763266
 21
11.5803006828
 31
0.0
  0
LINE
  5
445
330
1F
100
AcDbEntity
  8
0
  6
Continuous
 62
     7
370
    25
100
AcDbLine
 10
30.5411763266
 20
16.4565487951
 30
0.0
 11
30.5411763266
 21
16.3108331255
 31
0.0
  0
LINE
  5
446
330
1F
100
AcDbEntity
  8
0
  6
Continuous
 62
     7
370
    25
100
AcDbLine
 10
30.5411763266
 20
12.0465487951
 30
0.0
 11
30.5411763266
 21
11.9008331255
 31
0.0
  0
LINE
  5
447
330
1F
100
AcDbEntity
  8
0
  6
Continuous
 62
     7
370
    25
100
AcDbLine
 10
36.8676860513
 20
17.5949748463
 30
0.0
 11
36.7140681756
 21
17.5949748463
 31
0.0
  0
LINE
  5
448
330
1F
100
AcDbEntity
  8
0
  6
Continuous
 62
     7
370
    25
100
AcDbLine
 10
32.4576860513
 20
17.5949748463
 30
0.0
 11
32.3040681756
 21
17.5949748463
 31
0.0
  0
LINE
  5
449
330
1F
100
AcDbEntity
  8
0
  6
Continuous
 62
     7
370
    25
100
AcDbLine
 10
32.4576860513
 20
10.7624070743
 30
0.0
 11
32.3040681756
 21
10.7624070743
 31
0.0
  0
LINE
  5
44A
330
1F
100
AcDbEntity
  8
0
  6
Continuous
 62
     7
370
    25
100
AcDbLine
 10
36.8676860513
 20
10.7624070743
 30
0.0
 11
36.7140681756
 21
10.7624070743
 31
0.0
  0
LINE
  5
44B
330
1F
100
AcDbEntity
  8
0
  6
Continuous
 62
     7
370
    25
100
AcDbLine
 10
30.7677177873
 20
16.0536909603
 30
0.0
 11
30.7677177873
 21
12.3036909603
 31
0.0
  0
LINE
  5
44C
330
1F
100
AcDbEntity
  8
0
  6
Continuous
 62
     7
370
    25
100
AcDbLine
 10
32.7108771134
 20
10.99129053
 30
0.0
 11
36.4608771134
 21
10.99129053
 31
0.0
  0
LINE
  5
44D
330
1F
100
AcDbEntity
  8
0
  6
Continuous
 62
     7
370
    25
100
AcDbLine
 10
36.4608771134
 20
17.3660913906
 30
0.0
 11
32.7108771134
 21
17.3660913906
 31
0.0
  0
ARC
  5
44E
330
1F
100
AcDbEntity
  8
0
  6
Continuous
 62
     7
370
    25
100
AcDbCircle
 10
37.2936391075
 20
12.7636909603
 30
0.0
 40
0.6587991389618794
100
AcDbArc
 50
349.5050069387
 51
10.4949930613
  0
ARC
  5
44F
330
1F
100
AcDbEntity
  8
0
  6
Continuous
 62
     7
370
    25
100
AcDbCircle
 10
37.1899332317
 20
12.7636909603
 30
0.0
 40
0.6587991389623684
100
AcDbArc
 50
349.5050069387
 51
10.4949930613
  0
ARC
  5
450
330
1F
100
AcDbEntity
  8
0
  6
Continuous
 62
     7
370
    25
100
AcDbCircle
 10
37.2936391075
 20
15.5936909603
 30
0.0
 40
0.6587991389621455
100
AcDbArc
 50
349.5050069387
 51
10.4949930613
  0
ARC
  5
451
330
1F
100
AcDbEntity
  8
0
  6
Continuous
 62
     7
370
    25
100
AcDbCircle
 10
37.1899332317
 20
15.5936909603
 30
0.0
 40
0.6587991389623831
100
AcDbArc
 50
349.5050069387
 51
10.4949930613
  0
LINE
  5
452
330
1F
100
AcDbEntity
  8
0
  6
Continuous
 62
     7
370
    25
100
AcDbLine
 10
37.9804807082
 20
15.7136909603
 30
0.0
 11
37.9804807082
 21
15.4736909603
 31
0.0
  0
LINE
  5
453
330
1F
100
AcDbEntity
  8
0
  6
Continuous
 62
     7
370
    25
100
AcDbLine
 10
37.9804807082
 20
12.8836909603
 30
0.0
 11
37.9804807082
 21
12.6436909603
 31
0.0
  0
LINE
  5
454
330
1F
100
AcDbEntity
  8
0
  6
Continuous
 62
     7
370
    25
100
AcDbLine
 10
30.5411402977
 20
10.8802646539
 30
0.0
 11
30.5411402977
 21
11.5803876642
 31
0.0
  0
LINE
  5
455
330
1F
100
AcDbEntity
  8
0
  6
Continuous
 62
     7
370
    25
100
AcDbLine
 10
30.5411583341
 20
10.8802105006
 30
0.0
 11
30.5411402977
 21
10.8802646539
 31
0.0
  0
LINE
  5
456
330
1F
100
AcDbEntity
  8
0
  6
Continuous
 62
     7
370
    25
100
AcDbLine
 10
30.5332735186
 20
10.8406900534
 30
0.0
 11
30.5332735186
 21
17.5166918672
 31
0.0
  0
LINE
  5
457
330
1F
100
AcDbEntity
  8
0
  6
Continuous
 62
     7
370
    25
100
AcDbLine
 10
30.5411402977
 20
17.4771172667
 30
0.0
 11
30.5411583341
 21
17.47717142
 31
0.0
  0
LINE
  5
458
330
1F
100
AcDbEntity
  8
0
  6
Continuous
 62
     7
370
    25
100
AcDbLine
 10
30.5411402977
 20
16.7769942564
 30
0.0
 11
30.5411402977
 21
17.4771172667
 31
0.0
  0
LINE
  5
459
330
1F
100
AcDbEntity
  8
0
  6
Continuous
 62
     7
370
    25
100
AcDbLine
 10
30.5411763266
 20
17.4770812379
 30
0.0
 11
31.2411763266
 21
17.4770812379
 31
0.0
  0
LINE
  5
45A
330
1F
100
AcDbEntity
  8
0
  6
Continuous
 62
     7
370
    25
100
AcDbLine
 10
30.5411402977
 20
17.4771172667
 30
0.0
 11
30.5411763266
 21
17.4770812379
 31
0.0
  0
LINE
  5
45B
330
1F
100
AcDbEntity
  8
0
  6
Continuous
 62
     7
370
    25
100
AcDbLine
 10
37.9726139291
 20
17.4771172667
 30
0.0
 11
37.9725779003
 21
17.4770812379
 31
0.0
  0
LINE
  5
45C
330
1F
100
AcDbEntity
  8
0
  6
Continuous
 62
     7
370
    25
100
AcDbLine
 10
37.2725779003
 20
17.4770812379
 30
0.0
 11
37.9725779003
 21
17.4770812379
 31
0.0
  0
LINE
  5
45D
330
1F
100
AcDbEntity
  8
0
  6
Continuous
 62
     7
370
    25
100
AcDbLine
 10
37.9725779003
 20
10.8803006828
 30
0.0
 11
37.2725779003
 21
10.8803006828
 31
0.0
  0
LINE
  5
45E
330
1F
100
AcDbEntity
  8
0
  6
Continuous
 62
     7
370
    25
100
AcDbLine
 10
37.9726139291
 20
10.8802646539
 30
0.0
 11
37.9725779003
 21
10.8803006828
 31
0.0
  0
LINE
  5
45F
330
1F
100
AcDbEntity
  8
0
  6
Continuous
 62
     7
370
    25
100
AcDbLine
 10
30.5411402977
 20
10.8802646539
 30
0.0
 11
30.5411763266
 21
10.8803006828
 31
0.0
  0
LINE
  5
460
330
1F
100
AcDbEntity
  8
0
  6
Continuous
 62
     7
370
    25
100
AcDbLine
 10
31.2411763266
 20
10.8803006828
 30
0.0
 11
30.5411763266
 21
10.8803006828
 31
0.0
  0
LINE
  5
461
330
1F
100
AcDbEntity
  8
0
  6
Continuous
 62
     7
370
    25
100
AcDbLine
 10
30.5411763266
 20
16.7770812379
 30
0.0
 11
30.5411763266
 21
17.4770812379
 31
0.0
  0
LINE
  5
462
330
1F
100
AcDbEntity
  8
0
  6
Continuous
 62
     7
370
    25
100
AcDbLine
 10
30.5411763266
 20
10.8803006828
 30
0.0
 11
30.5411763266
 21
11.5803006828
 31
0.0
  0
LINE
  5
463
330
1F
100
AcDbEntity
  8
0
  6
Continuous
 62
     7
370
    25
100
AcDbLine
 10
37.9725779003
 20
11.5803006828
 30
0.0
 11
37.9725779003
 21
10.8803006828
 31
0.0
  0
LINE
  5
464
330
1F
100
AcDbEntity
  8
0
  6
Continuous
 62
     7
370
    25
100
AcDbLine
 10
37.9725779003
 20
17.4770812379
 30
0.0
 11
37.9725779003
 21
16.7770812379
 31
0.0
  0
CIRCLE
  5
465
330
1F
100
AcDbEntity
  8
0
  6
Continuous
 62
     7
370
    25
100
AcDbCircle
 10
37.7473771134
 20
11.1031909603
 30
0.0
 40
0.0750000000000028
  0
CIRCLE
  5
466
330
1F
100
AcDbEntity
  8
0
  6
Continuous
 62
     7
370
    25
100
AcDbCircle
 10
30.7663771134
 20
17.2541909603
 30
0.0
 40
0.0657488155880444
  0
CIRCLE
  5
467
330
1F
100
AcDbEntity
  8
0
  6
Continuous
 62
     7
370
    25
100
AcDbCircle
 10
30.7663771134
 20
17.2541909603
 30
0.0
 40
0.0749999999999993
  0
CIRCLE
  5
468
330
1F
100
AcDbEntity
  8
0
  6
Continuous
 62
     7
370
    25
100
AcDbCircle
 10
37.7473771134
 20
17.2541909603
 30
0.0
 40
0.0657488155880444
  0
CIRCLE
  5
469
330
1F
100
AcDbEntity
  8
0
  6
Continuous
 62
     7
370
    25
100
AcDbCircle
 10
37.7473771134
 20
17.2541909603
 30
0.0
 40
0.0749999999999993
  0
CIRCLE
  5
46A
330
1F
100
AcDbEntity
  8
0
  6
Continuous
 62
     7
370
    25
100
AcDbCircle
 10
30.7663771134
 20
11.1031909603
 30
0.0
 40
0.0657488155880461
  0
CIRCLE
  5
46B
330
1F
100
AcDbEntity
  8
0
  6
Continuous
 62
     7
370
    25
100
AcDbCircle
 10
30.7663771134
 20
11.1031909603
 30
0.0
 40
0.0750000000000028
  0
CIRCLE
  5
46C
330
1F
100
AcDbEntity
  8
0
  6
Continuous
 62
     7
370
    25
100
AcDbCircle
 10
37.7473771134
 20
11.1031909603
 30
0.0
 40
0.0657488155880461
  0
LINE
  5
46D
330
1F
100
AcDbEntity
  8
0
  6
Continuous
 62
     7
370
    25
100
AcDbLine
 10
30.3218771134
 20
10.6186909603
 30
0.0
 11
30.3218771134
 21
17.7386909603
 31
0.0
  0
LINE
  5
46E
330
1F
100
AcDbEntity
  8
0
  6
Continuous
 62
     7
370
    25
100
AcDbLine
 10
30.3218771134
 20
17.7386909603
 30
0.0
 11
38.1918771134
 21
17.7386909603
 31
0.0
  0
LINE
  5
46F
330
1F
100
AcDbEntity
  8
0
  6
Continuous
 62
     7
370
    25
100
AcDbLine
 10
38.1918771134
 20
17.7386909603
 30
0.0
 11
38.1918771134
 21
10.6186909603
 31
0.0
  0
LINE
  5
470
330
1F
100
AcDbEntity
  8
0
  6
Continuous
 62
     7
370
    25
100
AcDbLine
 10
38.1918771134
 20
10.6186909603
 30
0.0
 11
30.3218771134
 21
10.6186909603
 31
0.0
  0
ENDSEC
  0
SECTION
  2
OBJECTS
  0
DICTIONARY
  5
C
330
0
100
AcDbDictionary
281
     1
  3
ACAD_GROUP
350
D
  3
ACAD_LAYOUT
350
1A
  3
ACAD_MLINESTYLE
350
17
  3
ACAD_PLOTSETTINGS
350
19
  3
ACAD_PLOTSTYLENAME
350
E
  3
ACAD_SCALELIST
350
47
  3
DWGPROPS
350
471
  0
DICTIONARY
  5
D
102
{ACAD_REACTORS
330
C
102
}
330
C
100
AcDbDictionary
281
     1
  0
DICTIONARY
  5
1A
102
{ACAD_REACTORS
330
C
102
}
330
C
100
AcDbDictionary
281
     1
  3
Layout1
350
1E
  3
Layout2
350
26
  3
Model
350
22
  0
DICTIONARY
  5
17
102
{ACAD_REACTORS
330
C
102
}
330
C
100
AcDbDictionary
281
     1
  3
Standard
350
18
  0
DICTIONARY
  5
19
102
{ACAD_REACTORS
330
C
102
}
330
C
100
AcDbDictionary
281
     1
  0
ACDBDICTIONARYWDFLT
  5
E
102
{ACAD_REACTORS
330
C
102
}
330
C
100
AcDbDictionary
281
     1
  3
Normal
350
F
100
AcDbDictionaryWithDefault
340
F
  0
DICTIONARY
  5
47
102
{ACAD_REACTORS
330
C
102
}
330
C
100
AcDbDictionary
281
     1
  3
A0
350
48
  3
A1
350
49
  3
A2
350
4A
  3
A3
350
4B
  3
A4
350
4C
  3
A5
350
4D
  3
A6
350
4E
  3
A7
350
4F
  3
A8
350
50
  3
A9
350
51
  3
B0
350
52
  3
B1
350
53
  3
B2
350
54
  3
B3
350
55
  3
B4
350
56
  3
B5
350
57
  3
B6
350
58
  3
B7
350
59
  3
B8
350
5A
  3
B9
350
5B
  3
C0
350
5C
  3
C1
350
5D
  3
C2
350
5E
  3
C3
350
5F
  3
C4
350
60
  3
C5
350
61
  3
C6
350
62
  3
C7
350
63
  3
C8
350
64
  3
C9
350
65
  3
D0
350
66
  3
D1
350
67
  3
D2
350
68
  0
XRECORD
  5
471
102
{ACAD_REACTORS
330
C
102
}
330
C
100
AcDbXrecord
280
     1
  1
DWGPROPS COOKIE
  2

  3

  4

  6

  7

  8
ELM
  9

300
=
301
=
302
=
303
=
304
=
305
=
306
=
307
=
308
=
309
=
 40
0.0
 41
2459845.61008191
 42
2459845.610083032
  1

 90
        0
  0
LAYOUT
  5
1E
102
{ACAD_REACTORS
330
1A
102
}
330
1A
100
AcDbPlotSettings
  1

  2
none_device
  4

  6

 40
0.0
 41
0.0
 42
0.0
 43
0.0
 44
0.0
 45
0.0
 46
0.0
 47
0.0
 48
0.0
 49
0.0
140
0.0
141
0.0
142
1.0
143
1.0
 70
   688
 72
     0
 73
     0
 74
     5
  7

 75
    16
147
1.0
148
0.0
149
0.0
100
AcDbLayout
  1
Layout1
 70
     1
 71
     1
 10
0.0
 20
0.0
 11
12.0
 21
9.0
 12
0.0
 22
0.0
 32
0.0
 14
1.0000000000E+20
 24
1.0000000000E+20
 34
1.0000000000E+20
 15
-1.0000000000E+20
 25
-1.0000000000E+20
 35
-1.0000000000E+20
146
0.0
 13
0.0
 23
0.0
 33
0.0
 16
1.0
 26
0.0
 36
0.0
 17
0.0
 27
1.0
 37
0.0
 76
     0
330
1B
  0
LAYOUT
  5
26
102
{ACAD_REACTORS
330
1A
102
}
330
1A
100
AcDbPlotSettings
  1

  2
none_device
  4

  6

 40
0.0
 41
0.0
 42
0.0
 43
0.0
 44
0.0
 45
0.0
 46
0.0
 47
0.0
 48
0.0
 49
0.0
140
0.0
141
0.0
142
1.0
143
1.0
 70
   688
 72
     0
 73
     0
 74
     5
  7

 75
    16
147
1.0
148
0.0
149
0.0
100
AcDbLayout
  1
Layout2
 70
     1
 71
     2
 10
0.0
 20
0.0
 11
0.0
 21
0.0
 12
0.0
 22
0.0
 32
0.0
 14
0.0
 24
0.0
 34
0.0
 15
0.0
 25
0.0
 35
0.0
146
0.0
 13
0.0
 23
0.0
 33
0.0
 16
1.0
 26
0.0
 36
0.0
 17
0.0
 27
1.0
 37
0.0
 76
     0
330
23
  0
LAYOUT
  5
22
102
{ACAD_REACTORS
330
1A
102
}
330
1A
100
AcDbPlotSettings
  1

  2
none_device
  4
Letter_(8.50_x_11.00_Inches)
  6

 40
6.35
 41
6.35
 42
6.35000508
 43
6.35000508
 44
215.9
 45
279.4
 46
0.0
 47
0.0
 48
0.0
 49
0.0
140
0.0
141
0.0
142
1.0
143
1.0
 70
  1712
 72
     0
 73
     0
 74
     0
  7

 75
     0
147
1.0
148
0.0
149
0.0
100
AcDbLayout
  1
Model
 70
     1
 71
     0
 10
0.0
 20
0.0
 11
50.0
 21
30.0
 12
0.0
 22
0.0
 32
0.0
 14
0.0
 24
0.0
 34
0.0
 15
50.0
 25
30.0
 35
0.0
146
0.0
 13
0.0
 23
0.0
 33
0.0
 16
1.0
 26
0.0
 36
0.0
 17
0.0
 27
1.0
 37
0.0
 76
     0
330
1F
331
29
  0
MLINESTYLE
  5
18
102
{ACAD_REACTORS
330
17
102
}
330
17
100
AcDbMlineStyle
  2
Standard
 70
     0
  3

 62
   256
 51
90.0
 52
90.0
 71
     2
 49
0.5
 62
   256
  6
BYLAYER
 49
-0.5
 62
   256
  6
BYLAYER
  0
ACDBPLACEHOLDER
  5
F
102
{ACAD_REACTORS
330
E
102
}
330
E
  0
SCALE
  5
48
102
{ACAD_REACTORS
330
47
102
}
330
47
100
AcDbScale
 70
     0
300
1:1
140
1.0
141
1.0
290
     1
  0
SCALE
  5
49
102
{ACAD_REACTORS
330
47
102
}
330
47
100
AcDbScale
 70
     0
300
1:2
140
1.0
141
2.0
290
     0
  0
SCALE
  5
4A
102
{ACAD_REACTORS
330
47
102
}
330
47
100
AcDbScale
 70
     0
300
1:4
140
1.0
141
4.0
290
     0
  0
SCALE
  5
4B
102
{ACAD_REACTORS
330
47
102
}
330
47
100
AcDbScale
 70
     0
300
1:5
140
1.0
141
5.0
290
     0
  0
SCALE
  5
4C
102
{ACAD_REACTORS
330
47
102
}
330
47
100
AcDbScale
 70
     0
300
1:8
140
1.0
141
8.0
290
     0
  0
SCALE
  5
4D
102
{ACAD_REACTORS
330
47
102
}
330
47
100
AcDbScale
 70
     0
300
1:10
140
1.0
141
10.0
290
     0
  0
SCALE
  5
4E
102
{ACAD_REACTORS
330
47
102
}
330
47
100
AcDbScale
 70
     0
300
1:16
140
1.0
141
16.0
290
     0
  0
SCALE
  5
4F
102
{ACAD_REACTORS
330
47
102
}
330
47
100
AcDbScale
 70
     0
300
1:20
140
1.0
141
20.0
290
     0
  0
SCALE
  5
50
102
{ACAD_REACTORS
330
47
102
}
330
47
100
AcDbScale
 70
     0
300
1:30
140
1.0
141
30.0
290
     0
  0
SCALE
  5
51
102
{ACAD_REACTORS
330
47
102
}
330
47
100
AcDbScale
 70
     0
300
1:40
140
1.0
141
40.0
290
     0
  0
SCALE
  5
52
102
{ACAD_REACTORS
330
47
102
}
330
47
100
AcDbScale
 70
     0
300
1:50
140
1.0
141
50.0
290
     0
  0
SCALE
  5
53
102
{ACAD_REACTORS
330
47
102
}
330
47
100
AcDbScale
 70
     0
300
1:100
140
1.0
141
100.0
290
     0
  0
SCALE
  5
54
102
{ACAD_REACTORS
330
47
102
}
330
47
100
AcDbScale
 70
     0
300
2:1
140
2.0
141
1.0
290
     0
  0
SCALE
  5
55
102
{ACAD_REACTORS
330
47
102
}
330
47
100
AcDbScale
 70
     0
300
4:1
140
4.0
141
1.0
290
     0
  0
SCALE
  5
56
102
{ACAD_REACTORS
330
47
102
}
330
47
100
AcDbScale
 70
     0
300
8:1
140
8.0
141
1.0
290
     0
  0
SCALE
  5
57
102
{ACAD_REACTORS
330
47
102
}
330
47
100
AcDbScale
 70
     0
300
10:1
140
10.0
141
1.0
290
     0
  0
SCALE
  5
58
102
{ACAD_REACTORS
330
47
102
}
330
47
100
AcDbScale
 70
     0
300
100:1
140
100.0
141
1.0
290
     0
  0
SCALE
  5
59
102
{ACAD_REACTORS
330
47
102
}
330
47
100
AcDbScale
 70
     0
300
1/128" = 1'-0"
140
0.0078125
141
12.0
290
     0
  0
SCALE
  5
5A
102
{ACAD_REACTORS
330
47
102
}
330
47
100
AcDbScale
 70
     0
300
1/64" = 1'-0"
140
0.015625
141
12.0
290
     0
  0
SCALE
  5
5B
102
{ACAD_REACTORS
330
47
102
}
330
47
100
AcDbScale
 70
     0
300
1/32" = 1'-0"
140
0.03125
141
12.0
290
     0
  0
SCALE
  5
5C
102
{ACAD_REACTORS
330
47
102
}
330
47
100
AcDbScale
 70
     0
300
1/16" = 1'-0"
140
0.0625
141
12.0
290
     0
  0
SCALE
  5
5D
102
{ACAD_REACTORS
330
47
102
}
330
47
100
AcDbScale
 70
     0
300
3/32" = 1'-0"
140
0.09375
141
12.0
290
     0
  0
SCALE
  5
5E
102
{ACAD_REACTORS
330
47
102
}
330
47
100
AcDbScale
 70
     0
300
1/8" = 1'-0"
140
0.125
141
12.0
290
     0
  0
SCALE
  5
5F
102
{ACAD_REACTORS
330
47
102
}
330
47
100
AcDbScale
 70
     0
300
3/16" = 1'-0"
140
0.1875
141
12.0
290
     0
  0
SCALE
  5
60
102
{ACAD_REACTORS
330
47
102
}
330
47
100
AcDbScale
 70
     0
300
1/4" = 1'-0"
140
0.25
141
12.0
290
     0
  0
SCALE
  5
61
102
{ACAD_REACTORS
330
47
102
}
330
47
100
AcDbScale
 70
     0
300
3/8" = 1'-0"
140
0.375
141
12.0
290
     0
  0
SCALE
  5
62
102
{ACAD_REACTORS
330
47
102
}
330
47
100
AcDbScale
 70
     0
300
1/2" = 1'-0"
140
0.5
141
12.0
290
     0
  0
SCALE
  5
63
102
{ACAD_REACTORS
330
47
102
}
330
47
100
AcDbScale
 70
     0
300
3/4" = 1'-0"
140
0.75
141
12.0
290
     0
  0
SCALE
  5
64
102
{ACAD_REACTORS
330
47
102
}
330
47
100
AcDbScale
 70
     0
300
1" = 1'-0"
140
1.0
141
12.0
290
     0
  0
SCALE
  5
65
102
{ACAD_REACTORS
330
47
102
}
330
47
100
AcDbScale
 70
     0
300
1-1/2" = 1'-0"
140
1.5
141
12.0
290
     0
  0
SCALE
  5
66
102
{ACAD_REACTORS
330
47
102
}
330
47
100
AcDbScale
 70
     0
300
3" = 1'-0"
140
3.0
141
12.0
290
     0
  0
SCALE
  5
67
102
{ACAD_REACTORS
330
47
102
}
330
47
100
AcDbScale
 70
     0
300
6" = 1'-0"
140
6.0
141
12.0
290
     0
  0
SCALE
  5
68
102
{ACAD_REACTORS
330
47
102
}
330
47
100
AcDbScale
 70
     0
300
1'-0" = 1'-0"
140
12.0
141
12.0
290
     0
  0
ENDSEC
  0
EOF
