  0
SECTION
  2
HEADER
  9
$ACADVER
  1
AC1015
  9
$ACADMAINTVER
 70
     6
  9
$DWGCODEPAGE
  3
ANSI_1252
  9
$INSBASE
 10
0.0
 20
0.0
 30
0.0
  9
$EXTMIN
 10
0.0
 20
0.0
 30
0.0
  9
$EXTMAX
 10
50.0
 20
30.0
 30
0.0
  9
$LIMMIN
 10
0.0
 20
0.0
  9
$LIMMAX
 10
50.0
 20
30.0
  9
$ORTHOMODE
 70
     0
  9
$REGENMODE
 70
     1
  9
$FILLMODE
 70
     1
  9
$QTEXTMODE
 70
     0
  9
$MIRRTEXT
 70
     1
  9
$LTSCALE
 40
1.0
  9
$ATTMODE
 70
     1
  9
$TEXTSIZE
 40
0.25
  9
$TRACEWID
 40
0.05
  9
$TEXTSTYLE
  7
Standard
  9
$CLAYER
  8
0
  9
$CELTYPE
  6
ByLayer
  9
$CECOLOR
 62
   256
  9
$CELTSCALE
 40
1.0
  9
$DISPSILH
 70
     0
  9
$DIMSCALE
 40
1.0
  9
$DIMASZ
 40
0.15
  9
$DIMEXO
 40
0.05
  9
$DIMDLI
 40
0.38
  9
$DIMRND
 40
0.0
  9
$DIMDLE
 40
0.0
  9
$DIMEXE
 40
0.075
  9
$DIMTP
 40
0.0
  9
$DIMTM
 40
0.0
  9
$DIMTXT
 40
0.2
  9
$DIMCEN
 40
0.09
  9
$DIMTSZ
 40
0.0
  9
$DIMTOL
 70
     0
  9
$DIMLIM
 70
     0
  9
$DIMTIH
 70
     1
  9
$DIMTOH
 70
     1
  9
$DIMSE1
 70
     0
  9
$DIMSE2
 70
     0
  9
$DIMTAD
 70
     0
  9
$DIMZIN
 70
     0
  9
$DIMBLK
  1

  9
$DIMASO
 70
     1
  9
$DIMSHO
 70
     1
  9
$DIMPOST
  1

  9
$DIMAPOST
  1

  9
$DIMALT
 70
     0
  9
$DIMALTD
 70
     2
  9
$DIMALTF
 40
25.4
  9
$DIMLFAC
 40
1.0
  9
$DIMTOFL
 70
     0
  9
$DIMTVP
 40
0.0
  9
$DIMTIX
 70
     0
  9
$DIMSOXD
 70
     0
  9
$DIMSAH
 70
     0
  9
$DIMBLK1
  1

  9
$DIMBLK2
  1

  9
$DIMSTYLE
  2
Standard
  9
$DIMCLRD
 70
     0
  9
$DIMCLRE
 70
     0
  9
$DIMCLRT
 70
     0
  9
$DIMTFAC
 40
1.0
  9
$DIMGAP
 40
0.06
  9
$DIMJUST
 70
     0
  9
$DIMSD1
 70
     0
  9
$DIMSD2
 70
     0
  9
$DIMTOLJ
 70
     1
  9
$DIMTZIN
 70
     0
  9
$DIMALTZ
 70
     0
  9
$DIMALTTZ
 70
     0
  9
$DIMUPT
 70
     0
  9
$DIMDEC
 70
     3
  9
$DIMTDEC
 70
     3
  9
$DIMALTU
 70
     2
  9
$DIMALTTD
 70
     2
  9
$DIMTXSTY
  7
Standard
  9
$DIMAUNIT
 70
     0
  9
$DIMADEC
 70
     2
  9
$DIMALTRND
 40
0.0
  9
$DIMAZIN
 70
     0
  9
$DIMDSEP
 70
    46
  9
$DIMATFIT
 70
     3
  9
$DIMFRAC
 70
     0
  9
$DIMLDRBLK
  1

  9
$DIMLUNIT
 70
     2
  9
$DIMLWD
 70
    -2
  9
$DIMLWE
 70
    -2
  9
$DIMTMOVE
 70
     0
  9
$LUNITS
 70
     2
  9
$LUPREC
 70
     3
  9
$SKETCHINC
 40
0.1
  9
$FILLETRAD
 40
0.5
  9
$AUNITS
 70
     0
  9
$AUPREC
 70
     2
  9
$MENU
  1
.
  9
$ELEVATION
 40
0.0
  9
$PELEVATION
 40
0.0
  9
$THICKNESS
 40
0.0
  9
$LIMCHECK
 70
     0
  9
$CHAMFERA
 40
0.0
  9
$CHAMFERB
 40
0.0
  9
$CHAMFERC
 40
0.0
  9
$CHAMFERD
 40
0.0
  9
$SKPOLY
 70
     0
  9
$TDCREATE
 40
2459845.321415868
  9
$TDUCREATE
 40
2459845.613082535
  9
$TDUPDATE
 40
2459845.321417025
  9
$TDUUPDATE
 40
2459845.613083692
  9
$TDINDWG
 40
0.0000000116
  9
$TDUSRTIMER
 40
0.0000000116
  9
$USRTIMER
 70
     1
  9
$ANGBASE
 50
0.0
  9
$ANGDIR
 70
     0
  9
$PDMODE
 70
     0
  9
$PDSIZE
 40
-1.0
  9
$PLINEWID
 40
0.0
  9
$SPLFRAME
 70
     0
  9
$SPLINETYPE
 70
     6
  9
$SPLINESEGS
 70
     8
  9
$HANDSEED
  5
4AD
  9
$SURFTAB1
 70
     6
  9
$SURFTAB2
 70
     6
  9
$SURFTYPE
 70
     6
  9
$SURFU
 70
     6
  9
$SURFV
 70
     6
  9
$UCSBASE
  2

  9
$UCSNAME
  2

  9
$UCSORG
 10
0.0
 20
0.0
 30
0.0
  9
$UCSXDIR
 10
1.0
 20
0.0
 30
0.0
  9
$UCSYDIR
 10
0.0
 20
1.0
 30
0.0
  9
$UCSORTHOREF
  2

  9
$UCSORTHOVIEW
 70
     0
  9
$UCSORGTOP
 10
0.0
 20
0.0
 30
0.0
  9
$UCSORGBOTTOM
 10
0.0
 20
0.0
 30
0.0
  9
$UCSORGLEFT
 10
0.0
 20
0.0
 30
0.0
  9
$UCSORGRIGHT
 10
0.0
 20
0.0
 30
0.0
  9
$UCSORGFRONT
 10
0.0
 20
0.0
 30
0.0
  9
$UCSORGBACK
 10
0.0
 20
0.0
 30
0.0
  9
$PUCSBASE
  2

  9
$PUCSNAME
  2

  9
$PUCSORG
 10
0.0
 20
0.0
 30
0.0
  9
$PUCSXDIR
 10
1.0
 20
0.0
 30
0.0
  9
$PUCSYDIR
 10
0.0
 20
1.0
 30
0.0
  9
$PUCSORTHOREF
  2

  9
$PUCSORTHOVIEW
 70
     0
  9
$PUCSORGTOP
 10
0.0
 20
0.0
 30
0.0
  9
$PUCSORGBOTTOM
 10
0.0
 20
0.0
 30
0.0
  9
$PUCSORGLEFT
 10
0.0
 20
0.0
 30
0.0
  9
$PUCSORGRIGHT
 10
0.0
 20
0.0
 30
0.0
  9
$PUCSORGFRONT
 10
0.0
 20
0.0
 30
0.0
  9
$PUCSORGBACK
 10
0.0
 20
0.0
 30
0.0
  9
$USERI1
 70
     0
  9
$USERI2
 70
     0
  9
$USERI3
 70
     0
  9
$USERI4
 70
     0
  9
$USERI5
 70
     0
  9
$USERR1
 40
0.0
  9
$USERR2
 40
0.0
  9
$USERR3
 40
0.0
  9
$USERR4
 40
0.0
  9
$USERR5
 40
0.0
  9
$WORLDVIEW
 70
     1
  9
$SHADEDGE
 70
     3
  9
$SHADEDIF
 70
    70
  9
$TILEMODE
 70
     1
  9
$MAXACTVP
 70
    64
  9
$PINSBASE
 10
0.0
 20
0.0
 30
0.0
  9
$PLIMCHECK
 70
     0
  9
$PEXTMIN
 10
1.0000000000E+20
 20
1.0000000000E+20
 30
1.0000000000E+20
  9
$PEXTMAX
 10
-1.0000000000E+20
 20
-1.0000000000E+20
 30
-1.0000000000E+20
  9
$PLIMMIN
 10
0.0
 20
0.0
  9
$PLIMMAX
 10
12.0
 20
9.0
  9
$UNITMODE
 70
     0
  9
$VISRETAIN
 70
     1
  9
$PLINEGEN
 70
     0
  9
$PSLTSCALE
 70
     1
  9
$TREEDEPTH
 70
  3020
  9
$CMLSTYLE
  2
Standard
  9
$CMLJUST
 70
     0
  9
$CMLSCALE
 40
1.0
  9
$PROXYGRAPHICS
 70
     1
  9
$MEASUREMENT
 70
     0
  9
$CELWEIGHT
370
    -1
  9
$ENDCAPS
280
     0
  9
$JOINSTYLE
280
     0
  9
$LWDISPLAY
290
     1
  9
$INSUNITS
 70
     1
  9
$HYPERLINKBASE
  1

  9
$STYLESHEET
  1

  9
$XEDIT
290
     1
  9
$CEPSNTYPE
380
     0
  9
$PSTYLEMODE
290
     1
  9
$FINGERPRINTGUID
  2
{660dfccd-9ace-4537-880d-054e770b540d}
  9
$VERSIONGUID
  2
{FAEB1C32-E019-11D5-929B-00C0DF256EC4}
  9
$EXTNAMES
290
     1
  9
$PSVPSCALE
 40
0.0
  9
$OLESTARTUP
290
     0
  0
ENDSEC
  0
SECTION
  2
CLASSES
  0
CLASS
  1
ACDBDICTIONARYWDFLT
  2
AcDbDictionaryWithDefault
  3
ObjectDBX Classes
 90
        0
280
     0
281
     0
  0
CLASS
  1
VISUALSTYLE
  2
AcDbVisualStyle
  3
ObjectDBX Classes
 90
     4095
280
     0
281
     0
  0
CLASS
  1
MATERIAL
  2
AcDbMaterial
  3
ObjectDBX Classes
 90
     1153
280
     0
281
     0
  0
CLASS
  1
SCALE
  2
AcDbScale
  3
ObjectDBX Classes
 90
     1153
280
     0
281
     0
  0
CLASS
  1
TABLESTYLE
  2
AcDbTableStyle
  3
ObjectDBX Classes
 90
     4095
280
     0
281
     0
  0
CLASS
  1
MLEADERSTYLE
  2
AcDbMLeaderStyle
  3
ACDB_MLEADERSTYLE_CLASS
 90
     4095
280
     0
281
     0
  0
CLASS
  1
SUN
  2
AcDbSun
  3
SCENEOE
 90
     1153
280
     0
281
     0
  0
CLASS
  1
ACDBPLACEHOLDER
  2
AcDbPlaceHolder
  3
ObjectDBX Classes
 90
        0
280
     0
281
     0
  0
CLASS
  1
LAYOUT
  2
AcDbLayout
  3
ObjectDBX Classes
 90
        0
280
     0
281
     0
  0
ENDSEC
  0
SECTION
  2
TABLES
  0
TABLE
  2
VPORT
  5
8
330
0
100
AcDbSymbolTable
 70
     1
  0
VPORT
  5
29
330
8
100
AcDbSymbolTableRecord
100
AcDbViewportTableRecord
  2
*Active
 70
     0
 10
0.0
 20
0.0
 11
1.0
 21
1.0
 12
25.0
 22
15.0
 13
0.0
 23
0.0
 14
0.5
 24
0.5
 15
0.5
 25
0.5
 16
0.0
 26
0.0
 36
1.0
 17
0.0
 27
0.0
 37
0.0
 40
30.0
 41
1.6666666667
 42
50.0
 43
0.0
 44
0.0
 50
0.0
 51
0.0
 71
     0
 72
  2000
 73
     1
 74
     3
 75
     0
 76
     0
 77
     0
 78
     0
281
     0
 65
     1
110
0.0
120
0.0
130
0.0
111
1.0
121
0.0
131
0.0
112
0.0
122
1.0
132
0.0
 79
     0
146
0.0
  0
ENDTAB
  0
TABLE
  2
LTYPE
  5
5
330
0
100
AcDbSymbolTable
 70
     6
  0
LTYPE
  5
14
330
5
100
AcDbSymbolTableRecord
100
AcDbLinetypeTableRecord
  2
ByBlock
 70
     0
  3

 72
    65
 73
     0
 40
0.0
  0
LTYPE
  5
15
330
5
100
AcDbSymbolTableRecord
100
AcDbLinetypeTableRecord
  2
ByLayer
 70
     0
  3

 72
    65
 73
     0
 40
0.0
  0
LTYPE
  5
16
330
5
100
AcDbSymbolTableRecord
100
AcDbLinetypeTableRecord
  2
Continuous
 70
     0
  3
Solid line
 72
    65
 73
     0
 40
0.0
  0
LTYPE
  5
6E
330
5
100
AcDbSymbolTableRecord
100
AcDbLinetypeTableRecord
  2
HIDDEN
 70
     0
  3
Hidden __ __ __ __ __ __ __ __ __ __ __ __ __ __
 72
    65
 73
     2
 40
0.075
 49
0.05
 74
     0
 49
-0.025
 74
     0
  0
LTYPE
  5
6F
330
5
100
AcDbSymbolTableRecord
100
AcDbLinetypeTableRecord
  2
PHANTOM
 70
     0
  3
Phantom ______  __  __  ______  __  __  ______
 72
    65
 73
     6
 40
0.5
 49
0.25
 74
     0
 49
-0.05
 74
     0
 49
0.05
 74
     0
 49
-0.05
 74
     0
 49
0.05
 74
     0
 49
-0.05
 74
     0
  0
LTYPE
  5
70
330
5
100
AcDbSymbolTableRecord
100
AcDbLinetypeTableRecord
  2
CENTER
 70
     0
  3
Center ____ _ ____ _ ____ _ ____ _ ____ _ ____
 72
    65
 73
     4
 40
0.4
 49
0.25
 74
     0
 49
-0.05
 74
     0
 49
0.05
 74
     0
 49
-0.05
 74
     0
  0
LTYPE
  5
71
330
5
100
AcDbSymbolTableRecord
100
AcDbLinetypeTableRecord
  2
CENTERX2
 70
     0
  3
Center (2x) ________  __  ________  __  _____
 72
    65
 73
     4
 40
0.8
 49
0.5
 74
     0
 49
-0.1
 74
     0
 49
0.1
 74
     0
 49
-0.1
 74
     0
  0
LTYPE
  5
72
330
5
100
AcDbSymbolTableRecord
100
AcDbLinetypeTableRecord
  2
DOT2
 70
     0
  3
Dot (.5x) ........................................
 72
    65
 73
     2
 40
0.025
 49
0.0
 74
     0
 49
-0.025
 74
     0
  0
ENDTAB
  0
TABLE
  2
LAYER
  5
2
330
0
100
AcDbSymbolTable
 70
     3
  0
LAYER
  5
10
330
2
100
AcDbSymbolTableRecord
100
AcDbLayerTableRecord
  2
0
 70
     0
 62
     7
  6
Continuous
370
    -3
390
F
  0
LAYER
  5
73
330
2
100
AcDbSymbolTableRecord
100
AcDbLayerTableRecord
  2
FORMAT
 70
     0
 62
     7
  6
Continuous
370
    -3
390
F
  0
LAYER
  5
74
330
2
100
AcDbSymbolTableRecord
100
AcDbLayerTableRecord
  2
1
 70
     0
 62
   179
  6
Continuous
370
    -3
390
F
  0
ENDTAB
  0
TABLE
  2
STYLE
  5
3
330
0
100
AcDbSymbolTable
 70
     2
  0
STYLE
  5
11
330
3
100
AcDbSymbolTableRecord
100
AcDbTextStyleTableRecord
  2
Standard
 70
     0
 40
0.0
 41
1.0
 50
0.0
 71
     0
 42
0.25
  3
txt
  4

  0
STYLE
  5
78
330
3
100
AcDbSymbolTableRecord
100
AcDbTextStyleTableRecord
  2
SLDTEXTSTYLE0
 70
     0
 40
0.0
 41
0.605
 50
0.0
 71
     0
 42
0.25
  3
TXT
  4

  0
ENDTAB
  0
TABLE
  2
VIEW
  5
6
330
0
100
AcDbSymbolTable
 70
     0
  0
ENDTAB
  0
TABLE
  2
UCS
  5
7
330
0
100
AcDbSymbolTable
 70
     0
  0
ENDTAB
  0
TABLE
  2
APPID
  5
9
330
0
100
AcDbSymbolTable
 70
     1
  0
APPID
  5
12
330
9
100
AcDbSymbolTableRecord
100
AcDbRegAppTableRecord
  2
ACAD
 70
     0
  0
ENDTAB
  0
TABLE
  2
DIMSTYLE
  5
A
330
0
100
AcDbSymbolTable
 70
     3
100
AcDbDimStyleTable
  0
DIMSTYLE
105
27
330
A
100
AcDbSymbolTableRecord
100
AcDbDimStyleTableRecord
  2
Standard
 70
     0
178
     0
340
11
  0
DIMSTYLE
105
144
102
{ACAD_REACTORS
330
143
330
156
330
1B6
330
1C8
330
1ED
102
}
330
A
100
AcDbSymbolTableRecord
100
AcDbDimStyleTableRecord
  2
SLDDIMSTYLE0
 70
     0
 41
0.15
 44
0.0
 45
0.000000001
 78
    12
 79
     3
140
0.2
147
0.05
148
0.000000001
170
     1
173
     1
178
     0
271
     2
272
     2
276
     2
284
    12
340
78
  0
DIMSTYLE
105
1DB
102
{ACAD_REACTORS
330
1DA
102
}
330
A
100
AcDbSymbolTableRecord
100
AcDbDimStyleTableRecord
  2
SLDDIMSTYLE1
 70
     0
 41
0.15
 44
0.0
 45
0.000000001
 78
    12
 79
     3
140
0.2
147
0.05
148
0.000000001
170
     1
172
     1
173
     1
178
     0
271
     2
272
     2
276
     2
284
    12
289
     0
340
78
  0
ENDTAB
  0
TABLE
  2
BLOCK_RECORD
  5
1
330
0
100
AcDbSymbolTable
 70
     8
  0
BLOCK_RECORD
  5
1F
330
1
100
AcDbSymbolTableRecord
100
AcDbBlockTableRecord
  2
*Model_Space
340
22
  0
BLOCK_RECORD
  5
1B
330
1
100
AcDbSymbolTableRecord
100
AcDbBlockTableRecord
  2
*Paper_Space
340
1E
  0
BLOCK_RECORD
  5
23
330
1
100
AcDbSymbolTableRecord
100
AcDbBlockTableRecord
  2
*Paper_Space0
340
26
  0
BLOCK_RECORD
  5
75
330
1
100
AcDbSymbolTableRecord
100
AcDbBlockTableRecord
  2
SW_NOTE_0
340
0
102
{BLKREFS
331
7C
102
}
  0
BLOCK_RECORD
  5
145
330
1
100
AcDbSymbolTableRecord
100
AcDbBlockTableRecord
  2
_D
340
0
  0
BLOCK_RECORD
  5
157
330
1
100
AcDbSymbolTableRecord
100
AcDbBlockTableRecord
  2
_D_1
340
0
  0
BLOCK_RECORD
  5
1B7
330
1
100
AcDbSymbolTableRecord
100
AcDbBlockTableRecord
  2
_D_2
340
0
  0
BLOCK_RECORD
  5
1C9
330
1
100
AcDbSymbolTableRecord
100
AcDbBlockTableRecord
  2
_D_3
340
0
  0
BLOCK_RECORD
  5
1DC
330
1
100
AcDbSymbolTableRecord
100
AcDbBlockTableRecord
  2
_D_4
340
0
  0
BLOCK_RECORD
  5
1EE
330
1
100
AcDbSymbolTableRecord
100
AcDbBlockTableRecord
  2
_D_5
340
0
  0
ENDTAB
  0
ENDSEC
  0
SECTION
  2
BLOCKS
  0
BLOCK
  5
20
330
1F
100
AcDbEntity
  8
0
100
AcDbBlockBegin
  2
*Model_Space
 70
     0
 10
0.0
 20
0.0
 30
0.0
  3
*Model_Space
  1

  0
ENDBLK
  5
21
330
1F
100
AcDbEntity
  8
0
100
AcDbBlockEnd
  0
BLOCK
  5
1C
330
1B
100
AcDbEntity
 67
     1
  8
0
100
AcDbBlockBegin
  2
*Paper_Space
 70
     0
 10
0.0
 20
0.0
 30
0.0
  3
*Paper_Space
  1

  0
ENDBLK
  5
1D
330
1B
100
AcDbEntity
 67
     1
  8
0
100
AcDbBlockEnd
  0
BLOCK
  5
24
330
23
100
AcDbEntity
  8
0
100
AcDbBlockBegin
  2
*Paper_Space0
 70
     0
 10
0.0
 20
0.0
 30
0.0
  3
*Paper_Space0
  1

  0
ENDBLK
  5
25
330
23
100
AcDbEntity
  8
0
100
AcDbBlockEnd
  0
BLOCK
  5
76
330
75
100
AcDbEntity
  8
0
100
AcDbBlockBegin
  2
SW_NOTE_0
 70
     0
 10
0.0
 20
0.0
 30
0.0
  3
SW_NOTE_0
  1

  0
MTEXT
  5
79
330
75
100
AcDbEntity
  8
FORMAT
 62
     0
100
AcDbMText
 10
0.71875
 20
0.3222669349
 30
0.0
 40
0.25
 41
0.0
 71
     2
 72
     1
  1
LEVITON
  7
SLDTEXTSTYLE0
 73
     1
 44
1.0
  0
MTEXT
  5
7A
330
75
100
AcDbEntity
  8
FORMAT
 62
     0
100
AcDbMText
 10
0.7181422769
 20
-0.0006497347
 30
0.0
 40
0.25
 41
0.0
 71
     2
 72
     1
  1
47617-REB
  7
SLDTEXTSTYLE0
 73
     1
 44
1.0
  0
MTEXT
  5
7B
330
75
100
AcDbEntity
  8
FORMAT
 62
     0
100
AcDbMText
 10
0.6331604332
 20
-0.3235664043
 30
0.0
 40
0.25
 41
0.0
 71
     2
 72
     1
  1
RECESSED ENTERTAINMENT BOX WITH LOW PROFILE FRAME
  7
SLDTEXTSTYLE0
 73
     1
 44
1.0
  0
ENDBLK
  5
77
330
75
100
AcDbEntity
  8
0
100
AcDbBlockEnd
  0
BLOCK
  5
146
330
145
100
AcDbEntity
  8
0
100
AcDbBlockBegin
  2
_D
 70
     0
 10
0.0
 20
0.0
 30
0.0
  3
_D
  1

  0
SOLID
  5
148
330
145
100
AcDbEntity
  8
FORMAT
 62
     7
100
AcDbTrace
 10
8.670445119
 20
10.2111909603
 30
0.0
 11
8.700445119
 21
10.3611909603
 31
0.0
 12
8.640445119
 22
10.3611909603
 32
0.0
 13
8.640445119
 23
10.3611909603
 33
0.0
  0
SOLID
  5
149
330
145
100
AcDbEntity
  8
FORMAT
 62
     7
100
AcDbTrace
 10
8.670445119
 20
18.1471909603
 30
0.0
 11
8.640445119
 21
17.9971909603
 31
0.0
 12
8.700445119
 22
17.9971909603
 32
0.0
 13
8.700445119
 23
17.9971909603
 33
0.0
  0
LINE
  5
14A
330
145
100
AcDbEntity
  8
FORMAT
 62
     7
100
AcDbLine
 10
8.2503062742
 20
14.2854176158
 30
0.0
 11
8.1815562709
 21
14.2854176158
 31
0.0
  0
LINE
  5
14B
330
145
100
AcDbEntity
  8
FORMAT
 62
     7
100
AcDbLine
 10
8.1815562709
 20
14.2854176158
 30
0.0
 11
8.1815562709
 21
13.978473165
 31
0.0
  0
LINE
  5
14C
330
145
100
AcDbEntity
  8
FORMAT
 62
     7
100
AcDbLine
 10
8.1815562709
 20
13.978473165
 30
0.0
 11
8.2503062742
 21
13.978473165
 31
0.0
  0
LINE
  5
14D
330
145
100
AcDbEntity
  8
FORMAT
 62
     7
100
AcDbLine
 10
9.0905840006
 20
14.2854176158
 30
0.0
 11
9.1593340039
 21
14.2854176158
 31
0.0
  0
LINE
  5
14E
330
145
100
AcDbEntity
  8
FORMAT
 62
     7
100
AcDbLine
 10
9.1593340039
 20
14.2854176158
 30
0.0
 11
9.1593340039
 21
13.978473165
 31
0.0
  0
LINE
  5
14F
330
145
100
AcDbEntity
  8
FORMAT
 62
     7
100
AcDbLine
 10
9.1593340039
 20
13.978473165
 30
0.0
 11
9.0905840006
 21
13.978473165
 31
0.0
  0
LINE
  5
150
330
145
100
AcDbEntity
  8
FORMAT
 62
     7
100
AcDbLine
 10
9.820445119
 20
10.2111909603
 30
0.0
 11
8.595445119
 21
10.2111909603
 31
0.0
  0
LINE
  5
151
330
145
100
AcDbEntity
  8
FORMAT
 62
     7
100
AcDbLine
 10
9.820445119
 20
18.1471909603
 30
0.0
 11
8.595445119
 21
18.1471909603
 31
0.0
  0
LINE
  5
152
330
145
100
AcDbEntity
  8
FORMAT
 62
     7
100
AcDbLine
 10
8.670445119
 20
10.2111909603
 30
0.0
 11
8.670445119
 21
13.9326398478
 31
0.0
  0
LINE
  5
153
330
145
100
AcDbEntity
  8
FORMAT
 62
     7
100
AcDbLine
 10
8.670445119
 20
18.1471909603
 30
0.0
 11
8.670445119
 21
14.5895843054
 31
0.0
  0
MTEXT
  5
154
330
145
100
AcDbEntity
  8
FORMAT
 62
     7
100
AcDbMText
 10
8.4030840043
 20
14.5890644993
 30
0.0
 40
0.2
 41
0.0
 71
     1
 72
     1
  1
7.94
  7
SLDTEXTSTYLE0
 73
     1
 44
1.0
  0
MTEXT
  5
155
330
145
100
AcDbEntity
  8
FORMAT
 62
     7
100
AcDbMText
 10
8.2503062742
 20
14.2362867221
 30
0.0
 40
0.2
 41
0.0
 71
     1
 72
     1
  1
201.57
  7
SLDTEXTSTYLE0
 73
     1
 44
1.0
  0
ENDBLK
  5
147
330
145
100
AcDbEntity
  8
0
100
AcDbBlockEnd
  0
BLOCK
  5
158
330
157
100
AcDbEntity
  8
0
100
AcDbBlockBegin
  2
_D_1
 70
     0
 10
0.0
 20
0.0
 30
0.0
  3
_D_1
  1

  0
SOLID
  5
15A
330
157
100
AcDbEntity
  8
FORMAT
 62
     7
100
AcDbTrace
 10
19.128445119
 20
19.1471909603
 30
0.0
 11
18.978445119
 21
19.1771909603
 31
0.0
 12
18.978445119
 22
19.1171909603
 32
0.0
 13
18.978445119
 23
19.1171909603
 33
0.0
  0
SOLID
  5
15B
330
157
100
AcDbEntity
  8
FORMAT
 62
     7
100
AcDbTrace
 10
9.670445119
 20
19.1471909603
 30
0.0
 11
9.820445119
 21
19.1171909603
 31
0.0
 12
9.820445119
 22
19.1771909603
 32
0.0
 13
9.820445119
 23
19.1771909603
 33
0.0
  0
LINE
  5
15C
330
157
100
AcDbEntity
  8
FORMAT
 62
     7
100
AcDbLine
 10
14.0855986951
 20
19.1714964995
 30
0.0
 11
14.0168486918
 21
19.1714964995
 31
0.0
  0
LINE
  5
15D
330
157
100
AcDbEntity
  8
FORMAT
 62
     7
100
AcDbLine
 10
14.0168486918
 20
19.1714964995
 30
0.0
 11
14.0168486918
 21
18.8645520487
 31
0.0
  0
LINE
  5
15E
330
157
100
AcDbEntity
  8
FORMAT
 62
     7
100
AcDbLine
 10
14.0168486918
 20
18.8645520487
 30
0.0
 11
14.0855986951
 21
18.8645520487
 31
0.0
  0
LINE
  5
15F
330
157
100
AcDbEntity
  8
FORMAT
 62
     7
100
AcDbLine
 10
14.9258764215
 20
19.1714964995
 30
0.0
 11
14.9946264248
 21
19.1714964995
 31
0.0
  0
LINE
  5
160
330
157
100
AcDbEntity
  8
FORMAT
 62
     7
100
AcDbLine
 10
14.9946264248
 20
19.1714964995
 30
0.0
 11
14.9946264248
 21
18.8645520487
 31
0.0
  0
LINE
  5
161
330
157
100
AcDbEntity
  8
FORMAT
 62
     7
100
AcDbLine
 10
14.9946264248
 20
18.8645520487
 30
0.0
 11
14.9258764215
 21
18.8645520487
 31
0.0
  0
LINE
  5
162
330
157
100
AcDbEntity
  8
FORMAT
 62
     7
100
AcDbLine
 10
19.128445119
 20
17.9971909603
 30
0.0
 11
19.128445119
 21
19.2221909603
 31
0.0
  0
LINE
  5
163
330
157
100
AcDbEntity
  8
FORMAT
 62
     7
100
AcDbLine
 10
9.670445119
 20
17.9971909603
 30
0.0
 11
9.670445119
 21
19.2221909603
 31
0.0
  0
LINE
  5
164
330
157
100
AcDbEntity
  8
FORMAT
 62
     7
100
AcDbLine
 10
19.128445119
 20
19.1471909603
 30
0.0
 11
15.1091842441
 21
19.1471909603
 31
0.0
  0
LINE
  5
165
330
157
100
AcDbEntity
  8
FORMAT
 62
     7
100
AcDbLine
 10
9.670445119
 20
19.1471909603
 30
0.0
 11
13.9022908358
 21
19.1471909603
 31
0.0
  0
MTEXT
  5
166
330
157
100
AcDbEntity
  8
FORMAT
 62
     7
100
AcDbMText
 10
14.2383764252
 20
19.475143383
 30
0.0
 40
0.2
 41
0.0
 71
     1
 72
     1
  1
9.46
  7
SLDTEXTSTYLE0
 73
     1
 44
1.0
  0
MTEXT
  5
167
330
157
100
AcDbEntity
  8
FORMAT
 62
     7
100
AcDbMText
 10
14.0855986951
 20
19.1223656058
 30
0.0
 40
0.2
 41
0.0
 71
     1
 72
     1
  1
240.23
  7
SLDTEXTSTYLE0
 73
     1
 44
1.0
  0
ENDBLK
  5
159
330
157
100
AcDbEntity
  8
0
100
AcDbBlockEnd
  0
BLOCK
  5
1B8
330
1B7
100
AcDbEntity
  8
0
100
AcDbBlockBegin
  2
_D_2
 70
     0
 10
0.0
 20
0.0
 30
0.0
  3
_D_2
  1

  0
SOLID
  5
1BA
330
1B7
100
AcDbEntity
  8
FORMAT
 62
     7
100
AcDbTrace
 10
27.4631687792
 20
16.0536909603
 30
0.0
 11
27.4331687792
 21
15.9036909603
 31
0.0
 12
27.4931687792
 22
15.9036909603
 32
0.0
 13
27.4931687792
 23
15.9036909603
 33
0.0
  0
SOLID
  5
1BB
330
1B7
100
AcDbEntity
  8
FORMAT
 62
     7
100
AcDbTrace
 10
27.4631687792
 20
12.3036909603
 30
0.0
 11
27.4931687792
 21
12.4536909603
 31
0.0
 12
27.4331687792
 22
12.4536909603
 32
0.0
 13
27.4331687792
 23
12.4536909603
 33
0.0
  0
LINE
  5
1BC
330
1B7
100
AcDbEntity
  8
FORMAT
 62
     7
100
AcDbLine
 10
27.1194187719
 20
14.3961044608
 30
0.0
 11
27.0506687686
 21
14.3961044608
 31
0.0
  0
LINE
  5
1BD
330
1B7
100
AcDbEntity
  8
FORMAT
 62
     7
100
AcDbLine
 10
27.0506687686
 20
14.3961044608
 30
0.0
 11
27.0506687686
 21
14.08916001
 31
0.0
  0
LINE
  5
1BE
330
1B7
100
AcDbEntity
  8
FORMAT
 62
     7
100
AcDbLine
 10
27.0506687686
 20
14.08916001
 30
0.0
 11
27.1194187719
 21
14.08916001
 31
0.0
  0
LINE
  5
1BF
330
1B7
100
AcDbEntity
  8
FORMAT
 62
     7
100
AcDbLine
 10
27.8069187498
 20
14.3961044608
 30
0.0
 11
27.8756687531
 21
14.3961044608
 31
0.0
  0
LINE
  5
1C0
330
1B7
100
AcDbEntity
  8
FORMAT
 62
     7
100
AcDbLine
 10
27.8756687531
 20
14.3961044608
 30
0.0
 11
27.8756687531
 21
14.08916001
 31
0.0
  0
LINE
  5
1C1
330
1B7
100
AcDbEntity
  8
FORMAT
 62
     7
100
AcDbLine
 10
27.8756687531
 20
14.08916001
 30
0.0
 11
27.8069187498
 21
14.08916001
 31
0.0
  0
LINE
  5
1C2
330
1B7
100
AcDbEntity
  8
FORMAT
 62
     7
100
AcDbLine
 10
25.9251687792
 20
16.0536909603
 30
0.0
 11
27.5381687792
 21
16.0536909603
 31
0.0
  0
LINE
  5
1C3
330
1B7
100
AcDbEntity
  8
FORMAT
 62
     7
100
AcDbLine
 10
25.9251687792
 20
12.3036909603
 30
0.0
 11
27.5381687792
 21
12.3036909603
 31
0.0
  0
LINE
  5
1C4
330
1B7
100
AcDbEntity
  8
FORMAT
 62
     7
100
AcDbLine
 10
27.4631687792
 20
16.0536909603
 30
0.0
 11
27.4631687792
 21
14.7002711504
 31
0.0
  0
LINE
  5
1C5
330
1B7
100
AcDbEntity
  8
FORMAT
 62
     7
100
AcDbLine
 10
27.4631687792
 20
12.3036909603
 30
0.0
 11
27.4631687792
 21
14.0433266928
 31
0.0
  0
MTEXT
  5
1C6
330
1B7
100
AcDbEntity
  8
FORMAT
 62
     7
100
AcDbMText
 10
27.1958076644
 20
14.6997513443
 30
0.0
 40
0.2
 41
0.0
 71
     1
 72
     1
  1
3.75
  7
SLDTEXTSTYLE0
 73
     1
 44
1.0
  0
MTEXT
  5
1C7
330
1B7
100
AcDbEntity
  8
FORMAT
 62
     7
100
AcDbMText
 10
27.1194187719
 20
14.3469735671
 30
0.0
 40
0.2
 41
0.0
 71
     1
 72
     1
  1
95.25
  7
SLDTEXTSTYLE0
 73
     1
 44
1.0
  0
ENDBLK
  5
1B9
330
1B7
100
AcDbEntity
  8
0
100
AcDbBlockEnd
  0
BLOCK
  5
1CA
330
1C9
100
AcDbEntity
  8
0
100
AcDbBlockBegin
  2
_D_3
 70
     0
 10
0.0
 20
0.0
 30
0.0
  3
_D_3
  1

  0
SOLID
  5
1CC
330
1C9
100
AcDbEntity
  8
FORMAT
 62
     7
100
AcDbTrace
 10
23.6831687792
 20
9.7111909603
 30
0.0
 11
23.8331687792
 21
9.6811909603
 31
0.0
 12
23.8331687792
 22
9.7411909603
 32
0.0
 13
23.8331687792
 23
9.7411909603
 33
0.0
  0
SOLID
  5
1CD
330
1C9
100
AcDbEntity
  8
FORMAT
 62
     7
100
AcDbTrace
 10
25.8751687792
 20
9.7111909603
 30
0.0
 11
25.7251687792
 21
9.7411909603
 31
0.0
 12
25.7251687792
 22
9.6811909603
 32
0.0
 13
25.7251687792
 23
9.6811909603
 33
0.0
  0
LINE
  5
1CE
330
1C9
100
AcDbEntity
  8
FORMAT
 62
     7
100
AcDbLine
 10
24.4772191478
 20
9.7354964995
 30
0.0
 11
24.4084691445
 21
9.7354964995
 31
0.0
  0
LINE
  5
1CF
330
1C9
100
AcDbEntity
  8
FORMAT
 62
     7
100
AcDbLine
 10
24.4084691445
 20
9.7354964995
 30
0.0
 11
24.4084691445
 21
9.4285520487
 31
0.0
  0
LINE
  5
1D0
330
1C9
100
AcDbEntity
  8
FORMAT
 62
     7
100
AcDbLine
 10
24.4084691445
 20
9.4285520487
 30
0.0
 11
24.4772191478
 21
9.4285520487
 31
0.0
  0
LINE
  5
1D1
330
1C9
100
AcDbEntity
  8
FORMAT
 62
     7
100
AcDbLine
 10
25.1647191257
 20
9.7354964995
 30
0.0
 11
25.233469129
 21
9.7354964995
 31
0.0
  0
LINE
  5
1D2
330
1C9
100
AcDbEntity
  8
FORMAT
 62
     7
100
AcDbLine
 10
25.233469129
 20
9.7354964995
 30
0.0
 11
25.233469129
 21
9.4285520487
 31
0.0
  0
LINE
  5
1D3
330
1C9
100
AcDbEntity
  8
FORMAT
 62
     7
100
AcDbLine
 10
25.233469129
 20
9.4285520487
 30
0.0
 11
25.1647191257
 21
9.4285520487
 31
0.0
  0
LINE
  5
1D4
330
1C9
100
AcDbEntity
  8
FORMAT
 62
     7
100
AcDbLine
 10
23.6831687792
 20
12.2536909603
 30
0.0
 11
23.6831687792
 21
9.6361909603
 31
0.0
  0
LINE
  5
1D5
330
1C9
100
AcDbEntity
  8
FORMAT
 62
     7
100
AcDbLine
 10
25.8751687792
 20
12.2536909603
 30
0.0
 11
25.8751687792
 21
9.6361909603
 31
0.0
  0
LINE
  5
1D6
330
1C9
100
AcDbEntity
  8
FORMAT
 62
     7
100
AcDbLine
 10
23.6831687792
 20
9.7111909603
 30
0.0
 11
24.2939112885
 21
9.7111909603
 31
0.0
  0
LINE
  5
1D7
330
1C9
100
AcDbEntity
  8
FORMAT
 62
     7
100
AcDbLine
 10
25.8751687792
 20
9.7111909603
 30
0.0
 11
25.3480270217
 21
9.7111909603
 31
0.0
  0
MTEXT
  5
1D8
330
1C9
100
AcDbEntity
  8
FORMAT
 62
     7
100
AcDbMText
 10
24.5536080403
 20
10.039143383
 30
0.0
 40
0.2
 41
0.0
 71
     1
 72
     1
  1
2.29
  7
SLDTEXTSTYLE0
 73
     1
 44
1.0
  0
MTEXT
  5
1D9
330
1C9
100
AcDbEntity
  8
FORMAT
 62
     7
100
AcDbMText
 10
24.4772191478
 20
9.6863656058
 30
0.0
 40
0.2
 41
0.0
 71
     1
 72
     1
  1
58.17
  7
SLDTEXTSTYLE0
 73
     1
 44
1.0
  0
ENDBLK
  5
1CB
330
1C9
100
AcDbEntity
  8
0
100
AcDbBlockEnd
  0
BLOCK
  5
1DD
330
1DC
100
AcDbEntity
  8
0
100
AcDbBlockBegin
  2
_D_4
 70
     0
 10
0.0
 20
0.0
 30
0.0
  3
_D_4
  1

  0
SOLID
  5
1DF
330
1DC
100
AcDbEntity
  8
FORMAT
 62
     7
100
AcDbTrace
 10
22.4981687792
 20
19.1471909603
 30
0.0
 11
22.3481687792
 21
19.1771909603
 31
0.0
 12
22.3481687792
 22
19.1171909603
 32
0.0
 13
22.3481687792
 23
19.1171909603
 33
0.0
  0
SOLID
  5
1E0
330
1DC
100
AcDbEntity
  8
FORMAT
 62
     7
100
AcDbTrace
 10
22.7231687792
 20
19.1471909603
 30
0.0
 11
22.8731687792
 21
19.1171909603
 31
0.0
 12
22.8731687792
 22
19.1771909603
 32
0.0
 13
22.8731687792
 23
19.1771909603
 33
0.0
  0
LINE
  5
1E1
330
1DC
100
AcDbEntity
  8
FORMAT
 62
     7
100
AcDbLine
 10
23.2689431147
 20
19.1714964995
 30
0.0
 11
23.2001931114
 21
19.1714964995
 31
0.0
  0
LINE
  5
1E2
330
1DC
100
AcDbEntity
  8
FORMAT
 62
     7
100
AcDbLine
 10
23.2001931114
 20
19.1714964995
 30
0.0
 11
23.2001931114
 21
18.8645520487
 31
0.0
  0
LINE
  5
1E3
330
1DC
100
AcDbEntity
  8
FORMAT
 62
     7
100
AcDbLine
 10
23.2001931114
 20
18.8645520487
 30
0.0
 11
23.2689431147
 21
18.8645520487
 31
0.0
  0
LINE
  5
1E4
330
1DC
100
AcDbEntity
  8
FORMAT
 62
     7
100
AcDbLine
 10
23.8036653442
 20
19.1714964995
 30
0.0
 11
23.8724153475
 21
19.1714964995
 31
0.0
  0
LINE
  5
1E5
330
1DC
100
AcDbEntity
  8
FORMAT
 62
     7
100
AcDbLine
 10
23.8724153475
 20
19.1714964995
 30
0.0
 11
23.8724153475
 21
18.8645520487
 31
0.0
  0
LINE
  5
1E6
330
1DC
100
AcDbEntity
  8
FORMAT
 62
     7
100
AcDbLine
 10
23.8724153475
 20
18.8645520487
 30
0.0
 11
23.8036653442
 21
18.8645520487
 31
0.0
  0
LINE
  5
1E7
330
1DC
100
AcDbEntity
  8
FORMAT
 62
     7
100
AcDbLine
 10
22.4981687792
 20
18.1265634068
 30
0.0
 11
22.4981687792
 21
19.2221909603
 31
0.0
  0
LINE
  5
1E8
330
1DC
100
AcDbEntity
  8
FORMAT
 62
     7
100
AcDbLine
 10
22.7231687792
 20
18.1971909603
 30
0.0
 11
22.7231687792
 21
19.2221909603
 31
0.0
  0
LINE
  5
1E9
330
1DC
100
AcDbEntity
  8
FORMAT
 62
     7
100
AcDbLine
 10
22.4981687792
 20
19.1471909603
 30
0.0
 11
22.2481687792
 21
19.1471909603
 31
0.0
  0
LINE
  5
1EA
330
1DC
100
AcDbEntity
  8
FORMAT
 62
     7
100
AcDbLine
 10
22.7231687792
 20
19.1471909603
 30
0.0
 11
23.0856352554
 21
19.1471909603
 31
0.0
  0
MTEXT
  5
1EB
330
1DC
100
AcDbEntity
  8
FORMAT
 62
     7
100
AcDbMText
 10
23.3453319889
 20
19.475143383
 30
0.0
 40
0.2
 41
0.0
 71
     1
 72
     1
  1
.23
  7
SLDTEXTSTYLE0
 73
     1
 44
1.0
  0
MTEXT
  5
1EC
330
1DC
100
AcDbEntity
  8
FORMAT
 62
     7
100
AcDbMText
 10
23.2689431147
 20
19.1223656058
 30
0.0
 40
0.2
 41
0.0
 71
     1
 72
     1
  1
5.72
  7
SLDTEXTSTYLE0
 73
     1
 44
1.0
  0
ENDBLK
  5
1DE
330
1DC
100
AcDbEntity
  8
0
100
AcDbBlockEnd
  0
BLOCK
  5
1EF
330
1EE
100
AcDbEntity
  8
0
100
AcDbBlockBegin
  2
_D_5
 70
     0
 10
0.0
 20
0.0
 30
0.0
  3
_D_5
  1

  0
SOLID
  5
1F1
330
1EE
100
AcDbEntity
  8
FORMAT
 62
     7
100
AcDbTrace
 10
22.4981687792
 20
20.1471909603
 30
0.0
 11
22.6481687792
 21
20.1171909603
 31
0.0
 12
22.6481687792
 22
20.1771909603
 32
0.0
 13
22.6481687792
 23
20.1771909603
 33
0.0
  0
SOLID
  5
1F2
330
1EE
100
AcDbEntity
  8
FORMAT
 62
     7
100
AcDbTrace
 10
26.4631687792
 20
20.1471909603
 30
0.0
 11
26.3131687792
 21
20.1771909603
 31
0.0
 12
26.3131687792
 22
20.1171909603
 32
0.0
 13
26.3131687792
 23
20.1171909603
 33
0.0
  0
LINE
  5
1F3
330
1EE
100
AcDbEntity
  8
FORMAT
 62
     7
100
AcDbLine
 10
24.0550962959
 20
20.1714964995
 30
0.0
 11
23.9863462926
 21
20.1714964995
 31
0.0
  0
LINE
  5
1F4
330
1EE
100
AcDbEntity
  8
FORMAT
 62
     7
100
AcDbLine
 10
23.9863462926
 20
20.1714964995
 30
0.0
 11
23.9863462926
 21
19.8645520487
 31
0.0
  0
LINE
  5
1F5
330
1EE
100
AcDbEntity
  8
FORMAT
 62
     7
100
AcDbLine
 10
23.9863462926
 20
19.8645520487
 30
0.0
 11
24.0550962959
 21
19.8645520487
 31
0.0
  0
LINE
  5
1F6
330
1EE
100
AcDbEntity
  8
FORMAT
 62
     7
100
AcDbLine
 10
24.8953740222
 20
20.1714964995
 30
0.0
 11
24.9641240255
 21
20.1714964995
 31
0.0
  0
LINE
  5
1F7
330
1EE
100
AcDbEntity
  8
FORMAT
 62
     7
100
AcDbLine
 10
24.9641240255
 20
20.1714964995
 30
0.0
 11
24.9641240255
 21
19.8645520487
 31
0.0
  0
LINE
  5
1F8
330
1EE
100
AcDbEntity
  8
FORMAT
 62
     7
100
AcDbLine
 10
24.9641240255
 20
19.8645520487
 30
0.0
 11
24.8953740222
 21
19.8645520487
 31
0.0
  0
LINE
  5
1F9
330
1EE
100
AcDbEntity
  8
FORMAT
 62
     7
100
AcDbLine
 10
22.4981687792
 20
18.1265634068
 30
0.0
 11
22.4981687792
 21
20.2221909603
 31
0.0
  0
LINE
  5
1FA
330
1EE
100
AcDbEntity
  8
FORMAT
 62
     7
100
AcDbLine
 10
26.4631687792
 20
15.3961909603
 30
0.0
 11
26.4631687792
 21
20.2221909603
 31
0.0
  0
LINE
  5
1FB
330
1EE
100
AcDbEntity
  8
FORMAT
 62
     7
100
AcDbLine
 10
22.4981687792
 20
20.1471909603
 30
0.0
 11
23.8717884366
 21
20.1471909603
 31
0.0
  0
LINE
  5
1FC
330
1EE
100
AcDbEntity
  8
FORMAT
 62
     7
100
AcDbLine
 10
26.4631687792
 20
20.1471909603
 30
0.0
 11
25.0786818448
 21
20.1471909603
 31
0.0
  0
MTEXT
  5
1FD
330
1EE
100
AcDbEntity
  8
FORMAT
 62
     7
100
AcDbMText
 10
24.207874026
 20
20.475143383
 30
0.0
 40
0.2
 41
0.0
 71
     1
 72
     1
  1
3.97
  7
SLDTEXTSTYLE0
 73
     1
 44
1.0
  0
MTEXT
  5
1FE
330
1EE
100
AcDbEntity
  8
FORMAT
 62
     7
100
AcDbMText
 10
24.0550962959
 20
20.1223656058
 30
0.0
 40
0.2
 41
0.0
 71
     1
 72
     1
  1
100.71
  7
SLDTEXTSTYLE0
 73
     1
 44
1.0
  0
ENDBLK
  5
1F0
330
1EE
100
AcDbEntity
  8
0
100
AcDbBlockEnd
  0
ENDSEC
  0
SECTION
  2
ENTITIES
  0
INSERT
  5
7C
330
1F
100
AcDbEntity
  8
FORMAT
 62
     7
100
AcDbBlockReference
  2
SW_NOTE_0
 10
24.7605268577
 20
1.6746649099
 30
0.0
  0
LINE
  5
7D
330
1F
100
AcDbEntity
  8
0
  6
Continuous
 62
     7
370
    25
100
AcDbLine
 10
17.1570966267
 20
11.2490321328
 30
0.0
 11
11.4096637997
 21
11.2490321328
 31
0.0
  0
LINE
  5
7E
330
1F
100
AcDbEntity
  8
0
  6
Continuous
 62
     7
370
    25
100
AcDbLine
 10
17.1570966267
 20
11.2490321328
 30
0.0
 11
17.4276105497
 21
11.1664958383
 31
0.0
  0
LINE
  5
7F
330
1F
100
AcDbEntity
  8
0
  6
Continuous
 62
     7
370
    25
100
AcDbLine
 10
17.4276105497
 20
11.1664958383
 30
0.0
 11
17.4236993169
 21
11.1409075765
 31
0.0
  0
LINE
  5
80
330
1F
100
AcDbEntity
  8
0
  6
Continuous
 62
     7
370
    25
100
AcDbLine
 10
11.4297928835
 20
11.1173426397
 30
0.0
 11
11.4096637997
 21
11.2490321328
 31
0.0
  0
LINE
  5
81
330
1F
100
AcDbEntity
  8
0
  6
Continuous
 62
     7
370
    25
100
AcDbLine
 10
12.220945119
 20
11.1904147282
 30
0.0
 11
12.220945119
 21
11.0671909603
 31
0.0
  0
LINE
  5
82
330
1F
100
AcDbEntity
  8
0
  6
Continuous
 62
     7
370
    25
100
AcDbLine
 10
15.970945119
 20
11.0671909603
 30
0.0
 11
15.970945119
 21
11.1904147282
 31
0.0
  0
LINE
  5
83
330
1F
100
AcDbEntity
  8
0
  6
Continuous
 62
     7
370
    25
100
AcDbLine
 10
15.970945119
 20
11.1904147282
 30
0.0
 11
12.220945119
 21
11.1904147282
 31
0.0
  0
CIRCLE
  5
84
330
1F
100
AcDbEntity
  8
0
  6
Continuous
 62
     7
370
    25
100
AcDbCircle
 10
10.934445119
 20
17.2541909603
 30
0.0
 40
0.0657488155880444
  0
CIRCLE
  5
85
330
1F
100
AcDbEntity
  8
0
  6
Continuous
 62
     7
370
    25
100
AcDbCircle
 10
10.934445119
 20
11.1031909603
 30
0.0
 40
0.0657488155880461
  0
CIRCLE
  5
86
330
1F
100
AcDbEntity
  8
0
  6
Continuous
 62
     7
370
    25
100
AcDbCircle
 10
17.915445119
 20
11.1031909603
 30
0.0
 40
0.0657488155880461
  0
CIRCLE
  5
87
330
1F
100
AcDbEntity
  8
0
  6
Continuous
 62
     7
370
    25
100
AcDbCircle
 10
17.915445119
 20
17.2541909603
 30
0.0
 40
0.0657488155880444
  0
LINE
  5
88
330
1F
100
AcDbEntity
  8
0
  6
Continuous
 62
     7
370
    25
100
AcDbLine
 10
17.4235343803
 20
17.2175534007
 30
0.0
 11
17.4276105497
 21
17.1908860823
 31
0.0
  0
LINE
  5
89
330
1F
100
AcDbEntity
  8
0
  6
Continuous
 62
     7
370
    25
100
AcDbLine
 10
17.4276105497
 20
17.1908860823
 30
0.0
 11
17.1570966267
 21
17.1083497879
 31
0.0
  0
LINE
  5
8A
330
1F
100
AcDbEntity
  8
0
  6
Continuous
 62
     7
370
    25
100
AcDbLine
 10
11.4096637997
 20
17.1083497879
 30
0.0
 11
17.1570966267
 21
17.1083497879
 31
0.0
  0
LINE
  5
8B
330
1F
100
AcDbEntity
  8
0
  6
Continuous
 62
     7
370
    25
100
AcDbLine
 10
11.4096637997
 20
17.1083497879
 30
0.0
 11
11.4299552981
 21
17.2411018378
 31
0.0
  0
LINE
  5
8C
330
1F
100
AcDbEntity
  8
0
  6
Continuous
 62
     7
370
    25
100
AcDbLine
 10
15.970945119
 20
17.1669671924
 30
0.0
 11
15.970945119
 21
17.2911909603
 31
0.0
  0
LINE
  5
8D
330
1F
100
AcDbEntity
  8
0
  6
Continuous
 62
     7
370
    25
100
AcDbLine
 10
12.220945119
 20
17.2911909603
 30
0.0
 11
12.220945119
 21
17.1669671924
 31
0.0
  0
LINE
  5
8E
330
1F
100
AcDbEntity
  8
0
  6
Continuous
 62
     7
370
    25
100
AcDbLine
 10
12.220945119
 20
17.1669671924
 30
0.0
 11
15.970945119
 21
17.1669671924
 31
0.0
  0
LINE
  5
8F
330
1F
100
AcDbEntity
  8
0
  6
Continuous
 62
     7
370
    25
100
AcDbLine
 10
11.0516968748
 20
16.0051844008
 30
0.0
 11
10.949445119
 21
16.0051221545
 31
0.0
  0
LINE
  5
90
330
1F
100
AcDbEntity
  8
0
  6
Continuous
 62
     7
370
    25
100
AcDbLine
 10
10.949445119
 20
15.9923922181
 30
0.0
 11
11.0516968748
 21
16.0051844008
 31
0.0
  0
LINE
  5
91
330
1F
100
AcDbEntity
  8
0
  6
Continuous
 62
     7
370
    25
100
AcDbLine
 10
11.0516968748
 20
15.1821975198
 30
0.0
 11
11.0516968748
 21
16.0051844008
 31
0.0
  0
LINE
  5
92
330
1F
100
AcDbEntity
  8
0
  6
Continuous
 62
     7
370
    25
100
AcDbLine
 10
11.0516968748
 20
15.1821975198
 30
0.0
 11
10.949445119
 21
15.1949897025
 31
0.0
  0
ARC
  5
93
330
1F
100
AcDbEntity
  8
0
  6
Continuous
 62
     7
370
    25
100
AcDbCircle
 10
10.3609583279
 20
15.5936909603
 30
0.0
 40
0.6587991389621619
100
AcDbArc
 50
349.5050069387
 51
10.4949930613
  0
LINE
  5
94
330
1F
100
AcDbEntity
  8
0
  6
Continuous
 62
     7
370
    25
100
AcDbLine
 10
11.0087363034
 20
15.7136909603
 30
0.0
 11
10.949445119
 21
15.7136909603
 31
0.0
  0
LINE
  5
95
330
1F
100
AcDbEntity
  8
0
  6
Continuous
 62
     7
370
    25
100
AcDbLine
 10
10.949445119
 20
15.4736909603
 30
0.0
 11
11.0087363034
 21
15.4736909603
 31
0.0
  0
LINE
  5
96
330
1F
100
AcDbEntity
  8
0
  6
Continuous
 62
     7
370
    25
100
AcDbLine
 10
10.949445119
 20
15.1822597662
 30
0.0
 11
11.0516968748
 21
15.1821975198
 31
0.0
  0
LINE
  5
97
330
1F
100
AcDbEntity
  8
0
  6
Continuous
 62
     7
370
    25
100
AcDbLine
 10
17.4276105497
 20
17.1908860823
 30
0.0
 11
17.7025666418
 21
16.9869985745
 31
0.0
  0
LINE
  5
98
330
1F
100
AcDbEntity
  8
0
  6
Continuous
 62
     7
370
    25
100
AcDbLine
 10
11.0516968748
 20
12.3521975198
 30
0.0
 11
10.949445119
 21
12.3649897025
 31
0.0
  0
LINE
  5
99
330
1F
100
AcDbEntity
  8
0
  6
Continuous
 62
     7
370
    25
100
AcDbLine
 10
10.949445119
 20
12.3522597662
 30
0.0
 11
11.0516968748
 21
12.3521975198
 31
0.0
  0
LINE
  5
9A
330
1F
100
AcDbEntity
  8
0
  6
Continuous
 62
     7
370
    25
100
AcDbLine
 10
11.0516968748
 20
13.1751844008
 30
0.0
 11
10.949445119
 21
13.1751221545
 31
0.0
  0
LINE
  5
9B
330
1F
100
AcDbEntity
  8
0
  6
Continuous
 62
     7
370
    25
100
AcDbLine
 10
10.949445119
 20
13.1623922181
 30
0.0
 11
11.0516968748
 21
13.1751844008
 31
0.0
  0
LINE
  5
9C
330
1F
100
AcDbEntity
  8
0
  6
Continuous
 62
     7
370
    25
100
AcDbLine
 10
17.7009168457
 20
11.369159977
 30
0.0
 11
17.4276105497
 21
11.1664958383
 31
0.0
  0
LINE
  5
9D
330
1F
100
AcDbEntity
  8
0
  6
Continuous
 62
     7
370
    25
100
AcDbLine
 10
10.9586502934
 20
11.700045639
 30
0.0
 11
11.4096637997
 21
11.2490321328
 31
0.0
  0
LINE
  5
9E
330
1F
100
AcDbEntity
  8
0
  6
Continuous
 62
     7
370
    25
100
AcDbLine
 10
11.4096637997
 20
17.1083497879
 30
0.0
 11
10.958463612
 21
16.6571496002
 31
0.0
  0
LINE
  5
9F
330
1F
100
AcDbEntity
  8
0
  6
Continuous
 62
     7
370
    25
100
AcDbLine
 10
11.0516968748
 20
13.1751844008
 30
0.0
 11
11.0516968748
 21
12.3521975198
 31
0.0
  0
LINE
  5
A0
330
1F
100
AcDbEntity
  8
0
  6
Continuous
 62
     7
370
    25
100
AcDbLine
 10
11.0087363034
 20
12.6436909603
 30
0.0
 11
10.949445119
 21
12.6436909603
 31
0.0
  0
ARC
  5
A1
330
1F
100
AcDbEntity
  8
0
  6
Continuous
 62
     7
370
    25
100
AcDbCircle
 10
10.3609583279
 20
12.7636909603
 30
0.0
 40
0.658799138962185
100
AcDbArc
 50
349.5050069387
 51
10.4949930613
  0
LINE
  5
A2
330
1F
100
AcDbEntity
  8
0
  6
Continuous
 62
     7
370
    25
100
AcDbLine
 10
10.949445119
 20
12.8836909603
 30
0.0
 11
11.0087363034
 21
12.8836909603
 31
0.0
  0
LINE
  5
A3
330
1F
100
AcDbEntity
  8
0
  6
Continuous
 62
     7
370
    25
100
AcDbLine
 10
17.1570966267
 20
11.2490321328
 30
0.0
 11
17.1570966267
 21
17.1083497879
 31
0.0
  0
LINE
  5
A4
330
1F
100
AcDbEntity
  8
0
  6
Continuous
 62
     7
370
    25
100
AcDbLine
 10
17.2855585596
 20
12.3036909603
 30
0.0
 11
17.849445119
 21
12.3036909603
 31
0.0
  0
LINE
  5
A5
330
1F
100
AcDbEntity
  8
0
  6
Continuous
 62
     7
370
    25
100
AcDbLine
 10
17.849445119
 20
16.0536909603
 30
0.0
 11
17.2855585596
 21
16.0536909603
 31
0.0
  0
LINE
  5
A6
330
1F
100
AcDbEntity
  8
0
  6
Continuous
 62
     7
370
    25
100
AcDbLine
 10
17.2855585596
 20
16.0536909603
 30
0.0
 11
17.2855585596
 21
12.3036909603
 31
0.0
  0
LINE
  5
A7
330
1F
100
AcDbEntity
  8
0
  6
Continuous
 62
     7
370
    25
100
AcDbLine
 10
15.970945119
 20
11.0900327444
 30
0.0
 11
12.220945119
 21
11.0900327444
 31
0.0
  0
LINE
  5
A8
330
1F
100
AcDbEntity
  8
0
  6
Continuous
 62
     7
370
    25
100
AcDbLine
 10
12.220945119
 20
17.2673491762
 30
0.0
 11
15.970945119
 21
17.2673491762
 31
0.0
  0
LINE
  5
A9
330
1F
100
AcDbEntity
  8
0
  6
Continuous
 62
     7
370
    25
100
AcDbLine
 10
17.3895885031
 20
16.0536909603
 30
0.0
 11
17.3895885031
 21
12.3036909603
 31
0.0
  0
LINE
  5
AA
330
1F
100
AcDbEntity
  8
0
  6
Continuous
 62
     7
370
    25
100
AcDbLine
 10
11.3067985856
 20
13.9602846599
 30
0.0
 11
11.4627985856
 21
14.0122846599
 31
0.0
  0
LINE
  5
AB
330
1F
100
AcDbEntity
  8
0
  6
Continuous
 62
     7
370
    25
100
AcDbLine
 10
11.3067985856
 20
13.9602846599
 30
0.0
 11
11.3067985856
 21
14.0072846599
 31
0.0
  0
LINE
  5
AC
330
1F
100
AcDbEntity
  8
0
  6
Continuous
 62
     7
370
    25
100
AcDbLine
 10
11.3997985856
 20
14.0382846599
 30
0.0
 11
11.3067985856
 21
14.0692846599
 31
0.0
  0
LINE
  5
AD
330
1F
100
AcDbEntity
  8
0
  6
Continuous
 62
     7
370
    25
100
AcDbLine
 10
11.3067985856
 20
14.1162846599
 30
0.0
 11
11.3067985856
 21
14.0692846599
 31
0.0
  0
LINE
  5
AE
330
1F
100
AcDbEntity
  8
0
  6
Continuous
 62
     7
370
    25
100
AcDbLine
 10
11.4627985856
 20
14.0642846599
 30
0.0
 11
11.3067985856
 21
14.1162846599
 31
0.0
  0
LINE
  5
AF
330
1F
100
AcDbEntity
  8
0
  6
Continuous
 62
     7
370
    25
100
AcDbLine
 10
11.4627985856
 20
14.0122846599
 30
0.0
 11
11.4627985856
 21
14.0642846599
 31
0.0
  0
LINE
  5
B0
330
1F
100
AcDbEntity
  8
0
  6
Continuous
 62
     7
370
    25
100
AcDbLine
 10
11.3067985856
 20
14.0072846599
 30
0.0
 11
11.3997985856
 21
14.0382846599
 31
0.0
  0
LINE
  5
B1
330
1F
100
AcDbEntity
  8
0
  6
Continuous
 62
     7
370
    25
100
AcDbLine
 10
11.3687985856
 20
13.8786909603
 30
0.0
 11
11.3687985856
 21
13.9296909603
 31
0.0
  0
LINE
  5
B2
330
1F
100
AcDbEntity
  8
0
  6
Continuous
 62
     7
370
    25
100
AcDbLine
 10
11.3687985856
 20
13.9296909603
 30
0.0
 11
11.4007985856
 21
13.9296909603
 31
0.0
  0
LINE
  5
B3
330
1F
100
AcDbEntity
  8
0
  6
Continuous
 62
     7
370
    25
100
AcDbLine
 10
11.4227985856
 20
13.8786909603
 30
0.0
 11
11.4227985856
 21
13.9392846599
 31
0.0
  0
LINE
  5
B4
330
1F
100
AcDbEntity
  8
0
  6
Continuous
 62
     7
370
    25
100
AcDbLine
 10
11.4227985856
 20
13.9392846599
 30
0.0
 11
11.4627985856
 21
13.9392846599
 31
0.0
  0
LINE
  5
B5
330
1F
100
AcDbEntity
  8
0
  6
Continuous
 62
     7
370
    25
100
AcDbLine
 10
11.4627985856
 20
13.9392846599
 30
0.0
 11
11.4627985856
 21
13.8346909603
 31
0.0
  0
LINE
  5
B6
330
1F
100
AcDbEntity
  8
0
  6
Continuous
 62
     7
370
    25
100
AcDbLine
 10
11.3067985856
 20
13.8346909603
 30
0.0
 11
11.3067985856
 21
13.9392846599
 31
0.0
  0
LINE
  5
B7
330
1F
100
AcDbEntity
  8
0
  6
Continuous
 62
     7
370
    25
100
AcDbLine
 10
11.3467985856
 20
13.9392846599
 30
0.0
 11
11.3067985856
 21
13.9392846599
 31
0.0
  0
LINE
  5
B8
330
1F
100
AcDbEntity
  8
0
  6
Continuous
 62
     7
370
    25
100
AcDbLine
 10
11.3467985856
 20
13.8786909603
 30
0.0
 11
11.3467985856
 21
13.9392846599
 31
0.0
  0
LINE
  5
B9
330
1F
100
AcDbEntity
  8
0
  6
Continuous
 62
     7
370
    25
100
AcDbLine
 10
11.3467985856
 20
13.8786909603
 30
0.0
 11
11.3687985856
 21
13.8786909603
 31
0.0
  0
LINE
  5
BA
330
1F
100
AcDbEntity
  8
0
  6
Continuous
 62
     7
370
    25
100
AcDbLine
 10
11.4007985856
 20
13.9296909603
 30
0.0
 11
11.4007985856
 21
13.8786909603
 31
0.0
  0
LINE
  5
BB
330
1F
100
AcDbEntity
  8
0
  6
Continuous
 62
     7
370
    25
100
AcDbLine
 10
11.4227985856
 20
13.8786909603
 30
0.0
 11
11.4007985856
 21
13.8786909603
 31
0.0
  0
LINE
  5
BC
330
1F
100
AcDbEntity
  8
0
  6
Continuous
 62
     7
370
    25
100
AcDbLine
 10
11.4627985856
 20
13.8346909603
 30
0.0
 11
11.3067985856
 21
13.8346909603
 31
0.0
  0
LINE
  5
BD
330
1F
100
AcDbEntity
  8
0
  6
Continuous
 62
     7
370
    25
100
AcDbLine
 10
11.4627985856
 20
13.7096909603
 30
0.0
 11
11.3067985856
 21
13.7096909603
 31
0.0
  0
LINE
  5
BE
330
1F
100
AcDbEntity
  8
0
  6
Continuous
 62
     7
370
    25
100
AcDbLine
 10
11.3067985856
 20
13.7536909603
 30
0.0
 11
11.4227985856
 21
13.7536909603
 31
0.0
  0
LINE
  5
BF
330
1F
100
AcDbEntity
  8
0
  6
Continuous
 62
     7
370
    25
100
AcDbLine
 10
11.4227985856
 20
13.7536909603
 30
0.0
 11
11.4227985856
 21
13.8136909603
 31
0.0
  0
LINE
  5
C0
330
1F
100
AcDbEntity
  8
0
  6
Continuous
 62
     7
370
    25
100
AcDbLine
 10
11.4627985856
 20
13.8136909603
 30
0.0
 11
11.4627985856
 21
13.7096909603
 31
0.0
  0
LINE
  5
C1
330
1F
100
AcDbEntity
  8
0
  6
Continuous
 62
     7
370
    25
100
AcDbLine
 10
11.4627985856
 20
13.8136909603
 30
0.0
 11
11.4227985856
 21
13.8136909603
 31
0.0
  0
LINE
  5
C2
330
1F
100
AcDbEntity
  8
0
  6
Continuous
 62
     7
370
    25
100
AcDbLine
 10
11.3067985856
 20
13.7096909603
 30
0.0
 11
11.3067985856
 21
13.7536909603
 31
0.0
  0
CIRCLE
  5
C3
330
1F
100
AcDbEntity
  8
0
  6
Continuous
 62
     7
370
    25
100
AcDbCircle
 10
11.3847985856
 20
14.4002846599
 30
0.0
 40
0.0339999999999971
  0
CIRCLE
  5
C4
330
1F
100
AcDbEntity
  8
0
  6
Continuous
 62
     7
370
    25
100
AcDbCircle
 10
11.3847985856
 20
14.4002846599
 30
0.0
 40
0.0779999999999976
  0
LINE
  5
C5
330
1F
100
AcDbEntity
  8
0
  6
Continuous
 62
     7
370
    25
100
AcDbLine
 10
11.4627985856
 20
14.6476909603
 30
0.0
 11
11.3067985856
 21
14.6476909603
 31
0.0
  0
LINE
  5
C6
330
1F
100
AcDbEntity
  8
0
  6
Continuous
 62
     7
370
    25
100
AcDbLine
 10
11.3847985856
 20
14.5442846599
 30
0.0
 11
11.4627985856
 21
14.5442846599
 31
0.0
  0
LINE
  5
C7
330
1F
100
AcDbEntity
  8
0
  6
Continuous
 62
     7
370
    25
100
AcDbLine
 10
11.3847985856
 20
14.5442846599
 30
0.0
 11
11.4627985856
 21
14.6150408773
 31
0.0
  0
LINE
  5
C8
330
1F
100
AcDbEntity
  8
0
  6
Continuous
 62
     7
370
    25
100
AcDbLine
 10
11.4627985856
 20
14.5442846599
 30
0.0
 11
11.4627985856
 21
14.5002846599
 31
0.0
  0
LINE
  5
C9
330
1F
100
AcDbEntity
  8
0
  6
Continuous
 62
     7
370
    25
100
AcDbLine
 10
11.4627985856
 20
14.6476909603
 30
0.0
 11
11.4627985856
 21
14.6150408773
 31
0.0
  0
LINE
  5
CA
330
1F
100
AcDbEntity
  8
0
  6
Continuous
 62
     7
370
    25
100
AcDbLine
 10
11.3067985856
 20
14.5002846599
 30
0.0
 11
11.4627985856
 21
14.5002846599
 31
0.0
  0
LINE
  5
CB
330
1F
100
AcDbEntity
  8
0
  6
Continuous
 62
     7
370
    25
100
AcDbLine
 10
11.3067985856
 20
14.532934743
 30
0.0
 11
11.3847985856
 21
14.6036909603
 31
0.0
  0
LINE
  5
CC
330
1F
100
AcDbEntity
  8
0
  6
Continuous
 62
     7
370
    25
100
AcDbLine
 10
11.3067985856
 20
14.6036909603
 30
0.0
 11
11.3847985856
 21
14.6036909603
 31
0.0
  0
LINE
  5
CD
330
1F
100
AcDbEntity
  8
0
  6
Continuous
 62
     7
370
    25
100
AcDbLine
 10
11.3067985856
 20
14.6036909603
 30
0.0
 11
11.3067985856
 21
14.6476909603
 31
0.0
  0
LINE
  5
CE
330
1F
100
AcDbEntity
  8
0
  6
Continuous
 62
     7
370
    25
100
AcDbLine
 10
11.3067985856
 20
14.5002846599
 30
0.0
 11
11.3067985856
 21
14.532934743
 31
0.0
  0
LINE
  5
CF
330
1F
100
AcDbEntity
  8
0
  6
Continuous
 62
     7
370
    25
100
AcDbLine
 10
11.3467985856
 20
14.2842846599
 30
0.0
 11
11.3467985856
 21
14.3222846599
 31
0.0
  0
LINE
  5
D0
330
1F
100
AcDbEntity
  8
0
  6
Continuous
 62
     7
370
    25
100
AcDbLine
 10
11.3467985856
 20
14.2842846599
 30
0.0
 11
11.4627985856
 21
14.2842846599
 31
0.0
  0
LINE
  5
D1
330
1F
100
AcDbEntity
  8
0
  6
Continuous
 62
     7
370
    25
100
AcDbLine
 10
11.4627985856
 20
14.2402846599
 30
0.0
 11
11.4627985856
 21
14.2842846599
 31
0.0
  0
LINE
  5
D2
330
1F
100
AcDbEntity
  8
0
  6
Continuous
 62
     7
370
    25
100
AcDbLine
 10
11.3467985856
 20
14.2022846599
 30
0.0
 11
11.3467985856
 21
14.2402846599
 31
0.0
  0
LINE
  5
D3
330
1F
100
AcDbEntity
  8
0
  6
Continuous
 62
     7
370
    25
100
AcDbLine
 10
11.3067985856
 20
14.2022846599
 30
0.0
 11
11.3467985856
 21
14.2022846599
 31
0.0
  0
LINE
  5
D4
330
1F
100
AcDbEntity
  8
0
  6
Continuous
 62
     7
370
    25
100
AcDbLine
 10
11.3067985856
 20
14.2022846599
 30
0.0
 11
11.3067985856
 21
14.3222846599
 31
0.0
  0
LINE
  5
D5
330
1F
100
AcDbEntity
  8
0
  6
Continuous
 62
     7
370
    25
100
AcDbLine
 10
11.3467985856
 20
14.2402846599
 30
0.0
 11
11.4627985856
 21
14.2402846599
 31
0.0
  0
LINE
  5
D6
330
1F
100
AcDbEntity
  8
0
  6
Continuous
 62
     7
370
    25
100
AcDbLine
 10
11.3067985856
 20
14.3222846599
 30
0.0
 11
11.3467985856
 21
14.3222846599
 31
0.0
  0
LINE
  5
D7
330
1F
100
AcDbEntity
  8
0
  6
Continuous
 62
     7
370
    25
100
AcDbLine
 10
11.4627985856
 20
14.1372846599
 30
0.0
 11
11.4627985856
 21
14.1812846599
 31
0.0
  0
LINE
  5
D8
330
1F
100
AcDbEntity
  8
0
  6
Continuous
 62
     7
370
    25
100
AcDbLine
 10
11.3067985856
 20
14.1372846599
 30
0.0
 11
11.4627985856
 21
14.1372846599
 31
0.0
  0
LINE
  5
D9
330
1F
100
AcDbEntity
  8
0
  6
Continuous
 62
     7
370
    25
100
AcDbLine
 10
11.3067985856
 20
14.1372846599
 30
0.0
 11
11.3067985856
 21
14.1812846599
 31
0.0
  0
LINE
  5
DA
330
1F
100
AcDbEntity
  8
0
  6
Continuous
 62
     7
370
    25
100
AcDbLine
 10
11.3067985856
 20
14.1812846599
 30
0.0
 11
11.4627985856
 21
14.1812846599
 31
0.0
  0
LINE
  5
DB
330
1F
100
AcDbEntity
  8
0
  6
Continuous
 62
     7
370
    25
100
AcDbLine
 10
11.4627985856
 20
14.6150408773
 30
0.0
 11
11.4627985856
 21
14.5442846599
 31
0.0
  0
LINE
  5
DC
330
1F
100
AcDbEntity
  8
0
  6
Continuous
 62
     7
370
    25
100
AcDbLine
 10
11.3467985856
 20
14.3222846599
 30
0.0
 11
11.3847985856
 21
14.3222846599
 31
0.0
  0
LINE
  5
DD
330
1F
100
AcDbEntity
  8
0
  6
Continuous
 62
     7
370
    25
100
AcDbLine
 10
11.1297985856
 20
14.6476909603
 30
0.0
 11
11.1297985856
 21
14.3222846599
 31
0.0
  0
LINE
  5
DE
330
1F
100
AcDbEntity
  8
0
  6
Continuous
 62
     7
370
    25
100
AcDbLine
 10
11.1297985856
 20
14.3222846599
 30
0.0
 11
11.3067985856
 21
14.3222846599
 31
0.0
  0
LINE
  5
DF
330
1F
100
AcDbEntity
  8
0
  6
Continuous
 62
     7
370
    25
100
AcDbLine
 10
11.3067985856
 20
14.6476909603
 30
0.0
 11
11.1297985856
 21
14.6476909603
 31
0.0
  0
LINE
  5
E0
330
1F
100
AcDbEntity
  8
0
  6
Continuous
 62
     7
370
    25
100
AcDbLine
 10
11.4627985856
 20
14.5002846599
 30
0.0
 11
11.4627985856
 21
14.4002846599
 31
0.0
  0
ARC
  5
E1
330
1F
100
AcDbEntity
  8
0
  6
Continuous
 62
     7
370
    25
100
AcDbCircle
 10
9.870445119
 20
17.9471909603
 30
0.0
 40
0.129372446524993
100
AcDbArc
 50
90.0
 51
180.0
  0
LINE
  5
E2
330
1F
100
AcDbEntity
  8
0
  6
Continuous
 62
     7
370
    25
100
AcDbLine
 10
9.6791576414
 20
17.9471909603
 30
0.0
 11
9.7410726725
 21
17.9471909603
 31
0.0
  0
ARC
  5
E3
330
1F
100
AcDbEntity
  8
0
  6
Continuous
 62
     7
370
    25
100
AcDbCircle
 10
9.870445119
 20
17.9471909603
 30
0.0
 40
0.1912874776797775
100
AcDbArc
 50
90.0
 51
180.0
  0
LINE
  5
E4
330
1F
100
AcDbEntity
  8
0
  6
Continuous
 62
     7
370
    25
100
AcDbLine
 10
9.870445119
 20
18.0765634068
 30
0.0
 11
9.870445119
 21
18.138478438
 31
0.0
  0
LINE
  5
E5
330
1F
100
AcDbEntity
  8
0
  6
Continuous
 62
     7
370
    25
100
AcDbLine
 10
9.6791576414
 20
10.4111909603
 30
0.0
 11
9.6791576414
 21
17.9471909603
 31
0.0
  0
LINE
  5
E6
330
1F
100
AcDbEntity
  8
0
  6
Continuous
 62
     7
370
    25
100
AcDbLine
 10
9.7410726725
 20
17.9471909603
 30
0.0
 11
9.7410726725
 21
10.4111909603
 31
0.0
  0
LINE
  5
E7
330
1F
100
AcDbEntity
  8
0
  6
Continuous
 62
     7
370
    25
100
AcDbLine
 10
9.6791576414
 20
10.4111909603
 30
0.0
 11
9.7410726725
 21
10.4111909603
 31
0.0
  0
LINE
  5
E8
330
1F
100
AcDbEntity
  8
0
  6
Continuous
 62
     7
370
    25
100
AcDbLine
 10
11.699445119
 20
11.05539921
 30
0.0
 11
11.699445119
 21
11.0671909603
 31
0.0
  0
LINE
  5
E9
330
1F
100
AcDbEntity
  8
0
  6
Continuous
 62
     7
370
    25
100
AcDbLine
 10
11.699445119
 20
11.0671909603
 30
0.0
 11
17.099445119
 21
11.0671909603
 31
0.0
  0
LINE
  5
EA
330
1F
100
AcDbEntity
  8
0
  6
Continuous
 62
     7
370
    25
100
AcDbLine
 10
17.099445119
 20
11.05539921
 30
0.0
 11
17.099445119
 21
11.0671909603
 31
0.0
  0
LINE
  5
EB
330
1F
100
AcDbEntity
  8
0
  6
Continuous
 62
     7
370
    25
100
AcDbLine
 10
16.849445119
 20
11.05539921
 30
0.0
 11
17.099445119
 21
11.05539921
 31
0.0
  0
LINE
  5
EC
330
1F
100
AcDbEntity
  8
0
  6
Continuous
 62
     7
370
    25
100
AcDbLine
 10
16.849445119
 20
11.05539921
 30
0.0
 11
16.849445119
 21
11.0571333183
 31
0.0
  0
LINE
  5
ED
330
1F
100
AcDbEntity
  8
0
  6
Continuous
 62
     7
370
    25
100
AcDbLine
 10
16.849445119
 20
11.0571333183
 30
0.0
 11
11.949445119
 21
11.0571333183
 31
0.0
  0
LINE
  5
EE
330
1F
100
AcDbEntity
  8
0
  6
Continuous
 62
     7
370
    25
100
AcDbLine
 10
11.949445119
 20
11.05539921
 30
0.0
 11
11.949445119
 21
11.0571333183
 31
0.0
  0
LINE
  5
EF
330
1F
100
AcDbEntity
  8
0
  6
Continuous
 62
     7
370
    25
100
AcDbLine
 10
11.699445119
 20
11.05539921
 30
0.0
 11
11.949445119
 21
11.05539921
 31
0.0
  0
CIRCLE
  5
F0
330
1F
100
AcDbEntity
  8
0
  6
Continuous
 62
     7
370
    25
100
AcDbCircle
 10
10.934445119
 20
17.2541909603
 30
0.0
 40
0.1675000000000004
  0
CIRCLE
  5
F1
330
1F
100
AcDbEntity
  8
0
  6
Continuous
 62
     7
370
    25
100
AcDbCircle
 10
10.934445119
 20
17.2541909603
 30
0.0
 40
0.1654053922086156
  0
ARC
  5
F2
330
1F
100
AcDbEntity
  8
0
  6
Continuous
 62
     7
370
    25
100
AcDbCircle
 10
18.928445119
 20
10.4111909603
 30
0.0
 40
0.129372446524993
100
AcDbArc
 50
270.0
 51
0.0
  0
LINE
  5
F3
330
1F
100
AcDbEntity
  8
0
  6
Continuous
 62
     7
370
    25
100
AcDbLine
 10
19.0578175656
 20
10.4111909603
 30
0.0
 11
19.1197325967
 21
10.4111909603
 31
0.0
  0
ARC
  5
F4
330
1F
100
AcDbEntity
  8
0
  6
Continuous
 62
     7
370
    25
100
AcDbCircle
 10
18.928445119
 20
10.4111909603
 30
0.0
 40
0.1912874776797793
100
AcDbArc
 50
270.0
 51
0.0
  0
LINE
  5
F5
330
1F
100
AcDbEntity
  8
0
  6
Continuous
 62
     7
370
    25
100
AcDbLine
 10
18.928445119
 20
10.2199034826
 30
0.0
 11
18.928445119
 21
10.2818185138
 31
0.0
  0
LINE
  5
F6
330
1F
100
AcDbEntity
  8
0
  6
Continuous
 62
     7
370
    25
100
AcDbLine
 10
19.0578175656
 20
10.4111909603
 30
0.0
 11
19.0578175656
 21
17.9471909603
 31
0.0
  0
LINE
  5
F7
330
1F
100
AcDbEntity
  8
0
  6
Continuous
 62
     7
370
    25
100
AcDbLine
 10
19.0578175656
 20
17.9471909603
 30
0.0
 11
19.1197325967
 21
17.9471909603
 31
0.0
  0
LINE
  5
F8
330
1F
100
AcDbEntity
  8
0
  6
Continuous
 62
     7
370
    25
100
AcDbLine
 10
19.1197325967
 20
17.9471909603
 30
0.0
 11
19.1197325967
 21
10.4111909603
 31
0.0
  0
LINE
  5
F9
330
1F
100
AcDbEntity
  8
0
  6
Continuous
 62
     7
370
    25
100
AcDbLine
 10
18.928445119
 20
10.2199034826
 30
0.0
 11
9.870445119
 21
10.2199034826
 31
0.0
  0
LINE
  5
FA
330
1F
100
AcDbEntity
  8
0
  6
Continuous
 62
     7
370
    25
100
AcDbLine
 10
9.870445119
 20
10.2199034826
 30
0.0
 11
9.870445119
 21
10.2818185138
 31
0.0
  0
LINE
  5
FB
330
1F
100
AcDbEntity
  8
0
  6
Continuous
 62
     7
370
    25
100
AcDbLine
 10
9.870445119
 20
10.2818185138
 30
0.0
 11
18.928445119
 21
10.2818185138
 31
0.0
  0
ARC
  5
FC
330
1F
100
AcDbEntity
  8
0
  6
Continuous
 62
     7
370
    25
100
AcDbCircle
 10
18.928445119
 20
17.9471909603
 30
0.0
 40
0.129372446524993
100
AcDbArc
 50
0.0
 51
90.0
  0
LINE
  5
FD
330
1F
100
AcDbEntity
  8
0
  6
Continuous
 62
     7
370
    25
100
AcDbLine
 10
18.928445119
 20
18.0765634068
 30
0.0
 11
18.928445119
 21
18.138478438
 31
0.0
  0
ARC
  5
FE
330
1F
100
AcDbEntity
  8
0
  6
Continuous
 62
     7
370
    25
100
AcDbCircle
 10
18.928445119
 20
17.9471909603
 30
0.0
 40
0.1912874776797757
100
AcDbArc
 50
0.0
 51
90.0
  0
ARC
  5
FF
330
1F
100
AcDbEntity
  8
0
  6
Continuous
 62
     7
370
    25
100
AcDbCircle
 10
9.870445119
 20
10.4111909603
 30
0.0
 40
0.1912874776797757
100
AcDbArc
 50
180.0
 51
270.0
  0
ARC
  5
100
330
1F
100
AcDbEntity
  8
0
  6
Continuous
 62
     7
370
    25
100
AcDbCircle
 10
9.870445119
 20
10.4111909603
 30
0.0
 40
0.129372446524993
100
AcDbArc
 50
180.0
 51
270.0
  0
LINE
  5
101
330
1F
100
AcDbEntity
  8
0
  6
Continuous
 62
     7
370
    25
100
AcDbLine
 10
18.928445119
 20
18.0765634068
 30
0.0
 11
9.870445119
 21
18.0765634068
 31
0.0
  0
LINE
  5
102
330
1F
100
AcDbEntity
  8
0
  6
Continuous
 62
     7
370
    25
100
AcDbLine
 10
9.870445119
 20
18.138478438
 30
0.0
 11
18.928445119
 21
18.138478438
 31
0.0
  0
LINE
  5
103
330
1F
100
AcDbEntity
  8
0
  6
Continuous
 62
     7
370
    25
100
AcDbLine
 10
17.099445119
 20
17.3029827107
 30
0.0
 11
17.099445119
 21
17.2911909603
 31
0.0
  0
ARC
  5
104
330
1F
100
AcDbEntity
  8
0
  6
Continuous
 62
     7
370
    25
100
AcDbCircle
 10
17.099445119
 20
16.5411909603
 30
0.0
 40
0.7617917503386842
100
AcDbArc
 50
0.0
 51
90.0
  0
LINE
  5
105
330
1F
100
AcDbEntity
  8
0
  6
Continuous
 62
     7
370
    25
100
AcDbLine
 10
17.8612368694
 20
16.5411909603
 30
0.0
 11
17.849445119
 21
16.5411909603
 31
0.0
  0
ARC
  5
106
330
1F
100
AcDbEntity
  8
0
  6
Continuous
 62
     7
370
    25
100
AcDbCircle
 10
17.099445119
 20
16.5411909603
 30
0.0
 40
0.75
100
AcDbArc
 50
0.0
 51
90.0
  0
CIRCLE
  5
107
330
1F
100
AcDbEntity
  8
0
  6
Continuous
 62
     7
370
    25
100
AcDbCircle
 10
10.934445119
 20
11.1041909603
 30
0.0
 40
0.1674999999999986
  0
CIRCLE
  5
108
330
1F
100
AcDbEntity
  8
0
  6
Continuous
 62
     7
370
    25
100
AcDbCircle
 10
17.915445119
 20
11.1041909603
 30
0.0
 40
0.1675000000000004
  0
CIRCLE
  5
109
330
1F
100
AcDbEntity
  8
0
  6
Continuous
 62
     7
370
    25
100
AcDbCircle
 10
17.915445119
 20
17.2541909603
 30
0.0
 40
0.1675000000000004
  0
LINE
  5
10A
330
1F
100
AcDbEntity
  8
0
  6
Continuous
 62
     7
370
    25
100
AcDbLine
 10
11.949445119
 20
17.3029827107
 30
0.0
 11
11.699445119
 21
17.3029827107
 31
0.0
  0
ARC
  5
10B
330
1F
100
AcDbEntity
  8
0
  6
Continuous
 62
     7
370
    25
100
AcDbCircle
 10
11.699445119
 20
16.5411909603
 30
0.0
 40
0.761791750338686
100
AcDbArc
 50
90.0
 51
180.0
  0
LINE
  5
10C
330
1F
100
AcDbEntity
  8
0
  6
Continuous
 62
     7
370
    25
100
AcDbLine
 10
10.9376533687
 20
16.5411909603
 30
0.0
 11
10.9376533687
 21
11.8171909603
 31
0.0
  0
ARC
  5
10D
330
1F
100
AcDbEntity
  8
0
  6
Continuous
 62
     7
370
    25
100
AcDbCircle
 10
11.699445119
 20
11.8171909603
 30
0.0
 40
0.7617917503386842
100
AcDbArc
 50
180.0
 51
270.0
  0
LINE
  5
10E
330
1F
100
AcDbEntity
  8
0
  6
Continuous
 62
     7
370
    25
100
AcDbLine
 10
11.949445119
 20
11.0240445602
 30
0.0
 11
11.949445119
 21
11.05539921
 31
0.0
  0
LINE
  5
10F
330
1F
100
AcDbEntity
  8
0
  6
Continuous
 62
     7
370
    25
100
AcDbLine
 10
11.949445119
 20
11.0240445602
 30
0.0
 11
16.849445119
 21
11.0240445602
 31
0.0
  0
LINE
  5
110
330
1F
100
AcDbEntity
  8
0
  6
Continuous
 62
     7
370
    25
100
AcDbLine
 10
16.849445119
 20
11.0240445602
 30
0.0
 11
16.849445119
 21
11.05539921
 31
0.0
  0
ARC
  5
111
330
1F
100
AcDbEntity
  8
0
  6
Continuous
 62
     7
370
    25
100
AcDbCircle
 10
17.099445119
 20
11.8171909603
 30
0.0
 40
0.7617917503386842
100
AcDbArc
 50
270.0
 51
0.0
  0
LINE
  5
112
330
1F
100
AcDbEntity
  8
0
  6
Continuous
 62
     7
370
    25
100
AcDbLine
 10
17.8612368694
 20
11.8171909603
 30
0.0
 11
17.8612368694
 21
16.5411909603
 31
0.0
  0
LINE
  5
113
330
1F
100
AcDbEntity
  8
0
  6
Continuous
 62
     7
370
    25
100
AcDbLine
 10
17.099445119
 20
17.3029827107
 30
0.0
 11
16.849445119
 21
17.3029827107
 31
0.0
  0
LINE
  5
114
330
1F
100
AcDbEntity
  8
0
  6
Continuous
 62
     7
370
    25
100
AcDbLine
 10
16.849445119
 20
17.3343373604
 30
0.0
 11
11.949445119
 21
17.3343373604
 31
0.0
  0
LINE
  5
115
330
1F
100
AcDbEntity
  8
0
  6
Continuous
 62
     7
370
    25
100
AcDbLine
 10
11.949445119
 20
17.3343373604
 30
0.0
 11
11.949445119
 21
17.3029827107
 31
0.0
  0
LINE
  5
116
330
1F
100
AcDbEntity
  8
0
  6
Continuous
 62
     7
370
    25
100
AcDbLine
 10
16.849445119
 20
17.3343373604
 30
0.0
 11
16.849445119
 21
17.3029827107
 31
0.0
  0
LINE
  5
117
330
1F
100
AcDbEntity
  8
0
  6
Continuous
 62
     7
370
    25
100
AcDbLine
 10
10.949445119
 20
16.5391909603
 30
0.0
 11
10.949445119
 21
11.8191909603
 31
0.0
  0
LINE
  5
118
330
1F
100
AcDbEntity
  8
0
  6
Continuous
 62
     7
370
    25
100
AcDbLine
 10
10.949445119
 20
11.8191909603
 30
0.0
 11
10.949445119
 21
11.8171909603
 31
0.0
  0
LINE
  5
119
330
1F
100
AcDbEntity
  8
0
  6
Continuous
 62
     7
370
    25
100
AcDbLine
 10
10.9376533687
 20
11.8171909603
 30
0.0
 11
10.949445119
 21
11.8171909603
 31
0.0
  0
LINE
  5
11A
330
1F
100
AcDbEntity
  8
0
  6
Continuous
 62
     7
370
    25
100
AcDbLine
 10
10.9376533687
 20
16.5411909603
 30
0.0
 11
10.949445119
 21
16.5411909603
 31
0.0
  0
LINE
  5
11B
330
1F
100
AcDbEntity
  8
0
  6
Continuous
 62
     7
370
    25
100
AcDbLine
 10
10.949445119
 20
16.5411909603
 30
0.0
 11
10.949445119
 21
16.5391909603
 31
0.0
  0
ARC
  5
11C
330
1F
100
AcDbEntity
  8
0
  6
Continuous
 62
     7
370
    25
100
AcDbCircle
 10
11.699445119
 20
11.8171909603
 30
0.0
 40
0.7500000000000018
100
AcDbArc
 50
180.0
 51
270.0
  0
CIRCLE
  5
11D
330
1F
100
AcDbEntity
  8
0
  6
Continuous
 62
     7
370
    25
100
AcDbCircle
 10
17.915445119
 20
17.2541909603
 30
0.0
 40
0.1654053922086156
  0
LINE
  5
11E
330
1F
100
AcDbEntity
  8
0
  6
Continuous
 62
     7
370
    25
100
AcDbLine
 10
17.8612368694
 20
11.8171909603
 30
0.0
 11
17.849445119
 21
11.8171909603
 31
0.0
  0
ARC
  5
11F
330
1F
100
AcDbEntity
  8
0
  6
Continuous
 62
     7
370
    25
100
AcDbCircle
 10
17.099445119
 20
11.8171909603
 30
0.0
 40
0.7500000000000018
100
AcDbArc
 50
270.0
 51
0.0
  0
LINE
  5
120
330
1F
100
AcDbEntity
  8
0
  6
Continuous
 62
     7
370
    25
100
AcDbLine
 10
17.849445119
 20
11.8191909603
 30
0.0
 11
17.849445119
 21
16.5391909603
 31
0.0
  0
LINE
  5
121
330
1F
100
AcDbEntity
  8
0
  6
Continuous
 62
     7
370
    25
100
AcDbLine
 10
17.849445119
 20
16.5391909603
 30
0.0
 11
17.849445119
 21
16.5411909603
 31
0.0
  0
LINE
  5
122
330
1F
100
AcDbEntity
  8
0
  6
Continuous
 62
     7
370
    25
100
AcDbLine
 10
17.849445119
 20
11.8171909603
 30
0.0
 11
17.849445119
 21
11.8191909603
 31
0.0
  0
CIRCLE
  5
123
330
1F
100
AcDbEntity
  8
0
  6
Continuous
 62
     7
370
    25
100
AcDbCircle
 10
10.934445119
 20
11.1041909603
 30
0.0
 40
0.1654053922086138
  0
LINE
  5
124
330
1F
100
AcDbEntity
  8
0
  6
Continuous
 62
     7
370
    25
100
AcDbLine
 10
11.699445119
 20
17.3029827107
 30
0.0
 11
11.699445119
 21
17.2911909603
 31
0.0
  0
ARC
  5
125
330
1F
100
AcDbEntity
  8
0
  6
Continuous
 62
     7
370
    25
100
AcDbCircle
 10
11.699445119
 20
16.5411909603
 30
0.0
 40
0.75
100
AcDbArc
 50
90.0
 51
180.0
  0
LINE
  5
126
330
1F
100
AcDbEntity
  8
0
  6
Continuous
 62
     7
370
    25
100
AcDbLine
 10
11.949445119
 20
17.3012486023
 30
0.0
 11
16.849445119
 21
17.3012486023
 31
0.0
  0
LINE
  5
127
330
1F
100
AcDbEntity
  8
0
  6
Continuous
 62
     7
370
    25
100
AcDbLine
 10
17.099445119
 20
17.2911909603
 30
0.0
 11
11.699445119
 21
17.2911909603
 31
0.0
  0
LINE
  5
128
330
1F
100
AcDbEntity
  8
0
  6
Continuous
 62
     7
370
    25
100
AcDbLine
 10
11.949445119
 20
17.3029827107
 30
0.0
 11
11.949445119
 21
17.3012486023
 31
0.0
  0
LINE
  5
129
330
1F
100
AcDbEntity
  8
0
  6
Continuous
 62
     7
370
    25
100
AcDbLine
 10
16.849445119
 20
17.3029827107
 30
0.0
 11
16.849445119
 21
17.3012486023
 31
0.0
  0
CIRCLE
  5
12A
330
1F
100
AcDbEntity
  8
0
  6
Continuous
 62
     7
370
    25
100
AcDbCircle
 10
17.915445119
 20
11.1041909603
 30
0.0
 40
0.1654053922086138
  0
ARC
  5
12B
330
1F
100
AcDbEntity
  8
0
  6
Continuous
 62
     7
370
    25
100
AcDbCircle
 10
9.870445119
 20
17.9471909603
 30
0.0
 40
0.1999999999999993
100
AcDbArc
 50
90.0
 51
180.0
  0
LINE
  5
12C
330
1F
100
AcDbEntity
  8
0
  6
Continuous
 62
     7
370
    25
100
AcDbLine
 10
9.870445119
 20
18.138478438
 30
0.0
 11
9.870445119
 21
18.1471909603
 31
0.0
  0
LINE
  5
12D
330
1F
100
AcDbEntity
  8
0
  6
Continuous
 62
     7
370
    25
100
AcDbLine
 10
9.6791576414
 20
17.9471909603
 30
0.0
 11
9.670445119
 21
17.9471909603
 31
0.0
  0
ARC
  5
12E
330
1F
100
AcDbEntity
  8
0
  6
Continuous
 62
     7
370
    25
100
AcDbCircle
 10
9.870445119
 20
10.4111909603
 30
0.0
 40
0.2000000000000011
100
AcDbArc
 50
180.0
 51
270.0
  0
LINE
  5
12F
330
1F
100
AcDbEntity
  8
0
  6
Continuous
 62
     7
370
    25
100
AcDbLine
 10
9.6791576414
 20
10.4111909603
 30
0.0
 11
9.670445119
 21
10.4111909603
 31
0.0
  0
LINE
  5
130
330
1F
100
AcDbEntity
  8
0
  6
Continuous
 62
     7
370
    25
100
AcDbLine
 10
9.870445119
 20
10.2199034826
 30
0.0
 11
9.870445119
 21
10.2111909603
 31
0.0
  0
LINE
  5
131
330
1F
100
AcDbEntity
  8
0
  6
Continuous
 62
     7
370
    25
100
AcDbLine
 10
9.670445119
 20
17.9471909603
 30
0.0
 11
9.670445119
 21
10.4111909603
 31
0.0
  0
LINE
  5
132
330
1F
100
AcDbEntity
  8
0
  6
Continuous
 62
     7
370
    25
100
AcDbLine
 10
19.128445119
 20
10.4111909603
 30
0.0
 11
19.128445119
 21
17.9471909603
 31
0.0
  0
LINE
  5
133
330
1F
100
AcDbEntity
  8
0
  6
Continuous
 62
     7
370
    25
100
AcDbLine
 10
19.1197325967
 20
10.4111909603
 30
0.0
 11
19.128445119
 21
10.4111909603
 31
0.0
  0
LINE
  5
134
330
1F
100
AcDbEntity
  8
0
  6
Continuous
 62
     7
370
    25
100
AcDbLine
 10
19.1197325967
 20
17.9471909603
 30
0.0
 11
19.128445119
 21
17.9471909603
 31
0.0
  0
LINE
  5
135
330
1F
100
AcDbEntity
  8
0
  6
Continuous
 62
     7
370
    25
100
AcDbLine
 10
9.870445119
 20
10.2111909603
 30
0.0
 11
18.928445119
 21
10.2111909603
 31
0.0
  0
LINE
  5
136
330
1F
100
AcDbEntity
  8
0
  6
Continuous
 62
     7
370
    25
100
AcDbLine
 10
18.928445119
 20
10.2199034826
 30
0.0
 11
18.928445119
 21
10.2111909603
 31
0.0
  0
ARC
  5
137
330
1F
100
AcDbEntity
  8
0
  6
Continuous
 62
     7
370
    25
100
AcDbCircle
 10
18.928445119
 20
10.4111909603
 30
0.0
 40
0.1999999999999993
100
AcDbArc
 50
270.0
 51
0.0
  0
ARC
  5
138
330
1F
100
AcDbEntity
  8
0
  6
Continuous
 62
     7
370
    25
100
AcDbCircle
 10
18.928445119
 20
17.9471909603
 30
0.0
 40
0.1999999999999993
100
AcDbArc
 50
0.0
 51
90.0
  0
LINE
  5
139
330
1F
100
AcDbEntity
  8
0
  6
Continuous
 62
     7
370
    25
100
AcDbLine
 10
18.928445119
 20
18.138478438
 30
0.0
 11
18.928445119
 21
18.1471909603
 31
0.0
  0
LINE
  5
13A
330
1F
100
AcDbEntity
  8
0
  6
Continuous
 62
     7
370
    25
100
AcDbLine
 10
18.928445119
 20
18.1471909603
 30
0.0
 11
9.870445119
 21
18.1471909603
 31
0.0
  0
CIRCLE
  5
13B
330
1F
100
AcDbEntity
  8
0
  6
Continuous
 62
     7
370
    25
100
AcDbCircle
 10
17.915445119
 20
17.2541909603
 30
0.0
 40
0.0850000000000009
  0
CIRCLE
  5
13C
330
1F
100
AcDbEntity
  8
0
  6
Continuous
 62
     7
370
    25
100
AcDbCircle
 10
10.934445119
 20
11.1041909603
 30
0.0
 40
0.0850000000000009
  0
CIRCLE
  5
13D
330
1F
100
AcDbEntity
  8
0
  6
Continuous
 62
     7
370
    25
100
AcDbCircle
 10
17.915445119
 20
11.1041909603
 30
0.0
 40
0.0849999999999991
  0
CIRCLE
  5
13E
330
1F
100
AcDbEntity
  8
0
  6
Continuous
 62
     7
370
    25
100
AcDbCircle
 10
10.934445119
 20
17.2541909603
 30
0.0
 40
0.0850000000000009
  0
CIRCLE
  5
13F
330
1F
100
AcDbEntity
  8
0
  6
Continuous
 62
     7
370
    25
100
AcDbCircle
 10
10.934445119
 20
17.2541909603
 30
0.0
 40
0.0831672181825382
  0
CIRCLE
  5
140
330
1F
100
AcDbEntity
  8
0
  6
Continuous
 62
     7
370
    25
100
AcDbCircle
 10
17.915445119
 20
17.2541909603
 30
0.0
 40
0.0831672181825347
  0
CIRCLE
  5
141
330
1F
100
AcDbEntity
  8
0
  6
Continuous
 62
     7
370
    25
100
AcDbCircle
 10
17.915445119
 20
11.1041909603
 30
0.0
 40
0.0831672181825365
  0
CIRCLE
  5
142
330
1F
100
AcDbEntity
  8
0
  6
Continuous
 62
     7
370
    25
100
AcDbCircle
 10
10.934445119
 20
11.1041909603
 30
0.0
 40
0.0831672181825365
  0
DIMENSION
  5
143
330
1F
100
AcDbEntity
  8
FORMAT
 62
     7
100
AcDbDimension
  2
_D
 10
8.670445119
 20
18.1471909603
 30
0.0
 11
8.670445119
 21
14.2611120766
 31
0.0
 70
   160
  1
<>
 71
     2
 42
-1.0
  3
SLDDIMSTYLE0
100
AcDbAlignedDimension
 13
9.870445119
 23
10.2111909603
 33
0.0
 14
9.870445119
 24
18.1471909603
 34
0.0
 50
90.0
100
AcDbRotatedDimension
  0
DIMENSION
  5
156
330
1F
100
AcDbEntity
  8
FORMAT
 62
     7
100
AcDbDimension
  2
_D_1
 10
9.670445119
 20
19.1471909603
 30
0.0
 11
14.50573754
 21
19.1471909603
 31
0.0
 70
   160
  1
<>
 71
     2
 42
-1.0
  3
SLDDIMSTYLE0
100
AcDbAlignedDimension
 13
19.128445119
 23
17.9471909603
 33
0.0
 14
9.670445119
 24
17.9471909603
 34
0.0
100
AcDbRotatedDimension
  0
LINE
  5
168
330
1F
100
AcDbEntity
  8
0
  6
Continuous
 62
     7
370
    25
100
AcDbLine
 10
22.8031687792
 20
17.7386909603
 30
0.0
 11
22.7231687792
 21
17.7386909603
 31
0.0
  0
LINE
  5
169
330
1F
100
AcDbEntity
  8
0
  6
Continuous
 62
     7
370
    25
100
AcDbLine
 10
22.8031687792
 20
10.6186909603
 30
0.0
 11
22.8031687792
 21
17.7386909603
 31
0.0
  0
LINE
  5
16A
330
1F
100
AcDbEntity
  8
0
  6
Continuous
 62
     7
370
    25
100
AcDbLine
 10
22.8031687792
 20
10.6186909603
 30
0.0
 11
22.7231687792
 21
10.6186909603
 31
0.0
  0
LINE
  5
16B
330
1F
100
AcDbEntity
  8
0
  6
Continuous
 62
     7
370
    25
100
AcDbLine
 10
23.2559203447
 20
11.5805046172
 30
0.0
 11
23.2559203447
 21
11.9008331255
 31
0.0
  0
LINE
  5
16C
330
1F
100
AcDbEntity
  8
0
  6
Continuous
 62
     7
370
    25
100
AcDbLine
 10
23.2538562513
 20
11.5803876642
 30
0.0
 11
23.2559203447
 21
11.5805046172
 31
0.0
  0
LINE
  5
16D
330
1F
100
AcDbEntity
  8
0
  6
Continuous
 62
     7
370
    25
100
AcDbLine
 10
23.2538562513
 20
10.8802646539
 30
0.0
 11
23.2538562513
 21
11.5803876642
 31
0.0
  0
LINE
  5
16E
330
1F
100
AcDbEntity
  8
0
  6
Continuous
 62
     7
370
    25
100
AcDbLine
 10
23.2548895577
 20
10.8802105006
 30
0.0
 11
23.2538562513
 21
10.8802646539
 31
0.0
  0
LINE
  5
16F
330
1F
100
AcDbEntity
  8
0
  6
Continuous
 62
     7
370
    25
100
AcDbLine
 10
23.2548895577
 20
10.8802105006
 30
0.0
 11
22.8031687792
 21
10.8406900534
 31
0.0
  0
LINE
  5
170
330
1F
100
AcDbEntity
  8
0
  6
Continuous
 62
     7
370
    25
100
AcDbLine
 10
23.2548895577
 20
17.47717142
 30
0.0
 11
22.8031687792
 21
17.5166918672
 31
0.0
  0
LINE
  5
171
330
1F
100
AcDbEntity
  8
0
  6
Continuous
 62
     7
370
    25
100
AcDbLine
 10
23.2538562513
 20
17.4771172667
 30
0.0
 11
23.2548895577
 21
17.47717142
 31
0.0
  0
LINE
  5
172
330
1F
100
AcDbEntity
  8
0
  6
Continuous
 62
     7
370
    25
100
AcDbLine
 10
23.2538562513
 20
16.7769942564
 30
0.0
 11
23.2538562513
 21
17.4771172667
 31
0.0
  0
LINE
  5
173
330
1F
100
AcDbEntity
  8
0
  6
Continuous
 62
     7
370
    25
100
AcDbLine
 10
23.2559203447
 20
16.7768773034
 30
0.0
 11
23.2538562513
 21
16.7769942564
 31
0.0
  0
LINE
  5
174
330
1F
100
AcDbEntity
  8
0
  6
Continuous
 62
     7
370
    25
100
AcDbLine
 10
23.2559203447
 20
16.4565487951
 30
0.0
 11
23.2559203447
 21
16.7768773034
 31
0.0
  0
LINE
  5
175
330
1F
100
AcDbEntity
  8
0
  6
Continuous
 62
     7
370
    25
100
AcDbLine
 10
23.2559203447
 20
16.4565487951
 30
0.0
 11
23.2559203447
 21
16.3108331255
 31
0.0
  0
LINE
  5
176
330
1F
100
AcDbEntity
  8
0
  6
Continuous
 62
     7
370
    25
100
AcDbLine
 10
23.2559203447
 20
12.0465487951
 30
0.0
 11
23.2559203447
 21
16.3108331255
 31
0.0
  0
LINE
  5
177
330
1F
100
AcDbEntity
  8
0
  6
Continuous
 62
     7
370
    25
100
AcDbLine
 10
23.2559203447
 20
12.0465487951
 30
0.0
 11
23.2559203447
 21
11.9008331255
 31
0.0
  0
LINE
  5
178
330
1F
100
AcDbEntity
  8
0
  6
Continuous
 62
     7
370
    25
100
AcDbLine
 10
25.5890137771
 20
17.2729620116
 30
0.0
 11
23.2559203447
 21
16.7768773034
 31
0.0
  0
LINE
  5
179
330
1F
100
AcDbEntity
  8
0
  6
Continuous
 62
     7
370
    25
100
AcDbLine
 10
23.2548895577
 20
17.47717142
 30
0.0
 11
25.5890137771
 21
17.2729620116
 31
0.0
  0
LINE
  5
17A
330
1F
100
AcDbEntity
  8
0
  6
Continuous
 62
     7
370
    25
100
AcDbLine
 10
23.2559203447
 20
11.5805046172
 30
0.0
 11
25.5890137771
 21
11.0844199091
 31
0.0
  0
LINE
  5
17B
330
1F
100
AcDbEntity
  8
0
  6
Continuous
 62
     7
370
    25
100
AcDbLine
 10
25.5890137771
 20
11.0844199091
 30
0.0
 11
23.2548895577
 21
10.8802105006
 31
0.0
  0
LINE
  5
17C
330
1F
100
AcDbEntity
  8
0
  6
Continuous
 62
     7
370
    25
100
AcDbLine
 10
23.9319654425
 20
16.3167328817
 30
0.0
 11
23.9319654425
 21
16.4506490389
 31
0.0
  0
LINE
  5
17D
330
1F
100
AcDbEntity
  8
0
  6
Continuous
 62
     7
370
    25
100
AcDbLine
 10
23.2559203447
 20
16.4565487951
 30
0.0
 11
23.9319654425
 21
16.4506490389
 31
0.0
  0
LINE
  5
17E
330
1F
100
AcDbEntity
  8
0
  6
Continuous
 62
     7
370
    25
100
AcDbLine
 10
23.2559203447
 20
16.3108331255
 30
0.0
 11
23.9319654425
 21
16.3167328817
 31
0.0
  0
LINE
  5
17F
330
1F
100
AcDbEntity
  8
0
  6
Continuous
 62
     7
370
    25
100
AcDbLine
 10
26.4231687792
 20
11.1573990154
 30
0.0
 11
26.4231687792
 21
17.1999829053
 31
0.0
  0
LINE
  5
180
330
1F
100
AcDbEntity
  8
0
  6
Continuous
 62
     7
370
    25
100
AcDbLine
 10
23.6831687792
 20
16.0536909603
 30
0.0
 11
23.6831687792
 21
12.3036909603
 31
0.0
  0
LINE
  5
181
330
1F
100
AcDbEntity
  8
0
  6
Continuous
 62
     7
370
    25
100
AcDbLine
 10
25.8751687792
 20
12.3036909603
 30
0.0
 11
23.6831687792
 21
12.3036909603
 31
0.0
  0
LINE
  5
182
330
1F
100
AcDbEntity
  8
0
  6
Continuous
 62
     7
370
    25
100
AcDbLine
 10
25.8751687792
 20
16.0536909603
 30
0.0
 11
25.8751687792
 21
12.3036909603
 31
0.0
  0
LINE
  5
183
330
1F
100
AcDbEntity
  8
0
  6
Continuous
 62
     7
370
    25
100
AcDbLine
 10
23.6831687792
 20
16.0536909603
 30
0.0
 11
25.8751687792
 21
16.0536909603
 31
0.0
  0
LINE
  5
184
330
1F
100
AcDbEntity
  8
0
  6
Continuous
 62
     7
370
    25
100
AcDbLine
 10
26.4231687792
 20
11.1573990154
 30
0.0
 11
25.5890137771
 21
11.0844199091
 31
0.0
  0
LINE
  5
185
330
1F
100
AcDbEntity
  8
0
  6
Continuous
 62
     7
370
    25
100
AcDbLine
 10
25.5890137771
 20
17.2729620116
 30
0.0
 11
26.4231687792
 21
17.1999829053
 31
0.0
  0
LINE
  5
186
330
1F
100
AcDbEntity
  8
0
  6
Continuous
 62
     7
370
    25
100
AcDbLine
 10
23.9319654425
 20
12.0406490389
 30
0.0
 11
23.9319654425
 21
11.9067328817
 31
0.0
  0
LINE
  5
187
330
1F
100
AcDbEntity
  8
0
  6
Continuous
 62
     7
370
    25
100
AcDbLine
 10
23.2559203447
 20
12.0465487951
 30
0.0
 11
23.9319654425
 21
12.0406490389
 31
0.0
  0
LINE
  5
188
330
1F
100
AcDbEntity
  8
0
  6
Continuous
 62
     7
370
    25
100
AcDbLine
 10
23.2559203447
 20
11.9008331255
 30
0.0
 11
23.9319654425
 21
11.9067328817
 31
0.0
  0
LINE
  5
189
330
1F
100
AcDbEntity
  8
0
  6
Continuous
 62
     7
370
    25
100
AcDbLine
 10
25.8751687792
 20
16.3336909603
 30
0.0
 11
25.8751687792
 21
16.4336909603
 31
0.0
  0
LINE
  5
18A
330
1F
100
AcDbEntity
  8
0
  6
Continuous
 62
     7
370
    25
100
AcDbLine
 10
23.9319654425
 20
16.4506490389
 30
0.0
 11
25.8751687792
 21
16.4336909603
 31
0.0
  0
LINE
  5
18B
330
1F
100
AcDbEntity
  8
0
  6
Continuous
 62
     7
370
    25
100
AcDbLine
 10
23.9319654425
 20
16.3167328817
 30
0.0
 11
25.8751687792
 21
16.3336909603
 31
0.0
  0
LINE
  5
18C
330
1F
100
AcDbEntity
  8
0
  6
Continuous
 62
     7
370
    25
100
AcDbLine
 10
25.8751687792
 20
12.0236909603
 30
0.0
 11
25.8751687792
 21
11.9236909603
 31
0.0
  0
LINE
  5
18D
330
1F
100
AcDbEntity
  8
0
  6
Continuous
 62
     7
370
    25
100
AcDbLine
 10
23.9319654425
 20
12.0406490389
 30
0.0
 11
25.8751687792
 21
12.0236909603
 31
0.0
  0
LINE
  5
18E
330
1F
100
AcDbEntity
  8
0
  6
Continuous
 62
     7
370
    25
100
AcDbLine
 10
23.9319654425
 20
11.9067328817
 30
0.0
 11
25.8751687792
 21
11.9236909603
 31
0.0
  0
LINE
  5
18F
330
1F
100
AcDbEntity
  8
0
  6
Continuous
 62
     7
370
    25
100
AcDbLine
 10
25.8751687792
 20
10.9588822521
 30
0.0
 11
25.8751687792
 21
11.1094552277
 31
0.0
  0
LINE
  5
190
330
1F
100
AcDbEntity
  8
0
  6
Continuous
 62
     7
370
    25
100
AcDbLine
 10
23.8353875714
 20
10.7804245204
 30
0.0
 11
25.8751687792
 21
10.9588822521
 31
0.0
  0
LINE
  5
191
330
1F
100
AcDbEntity
  8
0
  6
Continuous
 62
     7
370
    25
100
AcDbLine
 10
22.8031687792
 20
10.7624070743
 30
0.0
 11
23.8353875714
 21
10.7804245204
 31
0.0
  0
LINE
  5
192
330
1F
100
AcDbEntity
  8
0
  6
Continuous
 62
     7
370
    25
100
AcDbLine
 10
25.8751687792
 20
17.2479266929
 30
0.0
 11
25.8751687792
 21
17.3984996685
 31
0.0
  0
LINE
  5
193
330
1F
100
AcDbEntity
  8
0
  6
Continuous
 62
     7
370
    25
100
AcDbLine
 10
23.8353875714
 20
17.5769574003
 30
0.0
 11
22.8031687792
 21
17.5949748463
 31
0.0
  0
LINE
  5
194
330
1F
100
AcDbEntity
  8
0
  6
Continuous
 62
     7
370
    25
100
AcDbLine
 10
25.8751687792
 20
17.3984996685
 30
0.0
 11
23.8353875714
 21
17.5769574003
 31
0.0
  0
LINE
  5
195
330
1F
100
AcDbEntity
  8
0
  6
Continuous
 62
     7
370
    25
100
AcDbLine
 10
26.4431687792
 20
12.9911909603
 30
0.0
 11
26.4431687792
 21
15.3661909603
 31
0.0
  0
ARC
  5
196
330
1F
100
AcDbEntity
  8
0
  6
Continuous
 62
     7
370
    25
100
AcDbCircle
 10
26.4431687792
 20
15.3461909603
 30
0.0
 40
0.0200000000000031
100
AcDbArc
 50
0.0
 51
90.0
  0
LINE
  5
197
330
1F
100
AcDbEntity
  8
0
  6
Continuous
 62
     7
370
    25
100
AcDbLine
 10
26.4631687792
 20
15.3461909603
 30
0.0
 11
26.4631687792
 21
13.0111909603
 31
0.0
  0
ARC
  5
198
330
1F
100
AcDbEntity
  8
0
  6
Continuous
 62
     7
370
    25
100
AcDbCircle
 10
26.4431687792
 20
13.0111909603
 30
0.0
 40
0.0200000000000031
100
AcDbArc
 50
270.0
 51
0.0
  0
LINE
  5
199
330
1F
100
AcDbEntity
  8
0
  6
Continuous
 62
     7
370
    25
100
AcDbLine
 10
26.4431687792
 20
15.3661909603
 30
0.0
 11
26.4231687792
 21
15.3661909603
 31
0.0
  0
LINE
  5
19A
330
1F
100
AcDbEntity
  8
0
  6
Continuous
 62
     7
370
    25
100
AcDbLine
 10
26.4431687792
 20
12.9911909603
 30
0.0
 11
26.4231687792
 21
12.9911909603
 31
0.0
  0
LINE
  5
19B
330
1F
100
AcDbEntity
  8
0
  6
Continuous
 62
     7
370
    25
100
AcDbLine
 10
25.8751687792
 20
12.3561167035
 30
0.0
 11
23.6831687792
 21
12.3752927095
 31
0.0
  0
LINE
  5
19C
330
1F
100
AcDbEntity
  8
0
  6
Continuous
 62
     7
370
    25
100
AcDbLine
 10
25.7088039847
 20
12.6436909603
 30
0.0
 11
23.6831687792
 21
12.6436909603
 31
0.0
  0
ARC
  5
19D
330
1F
100
AcDbEntity
  8
0
  6
Continuous
 62
     7
370
    25
100
AcDbCircle
 10
25.708582493
 20
12.7636909603
 30
0.0
 40
0.1200002044104594
100
AcDbArc
 50
270.1057543541
 51
89.8942456459
  0
LINE
  5
19E
330
1F
100
AcDbEntity
  8
0
  6
Continuous
 62
     7
370
    25
100
AcDbLine
 10
23.6831687792
 20
12.8836909603
 30
0.0
 11
25.7088039847
 21
12.8836909603
 31
0.0
  0
LINE
  5
19F
330
1F
100
AcDbEntity
  8
0
  6
Continuous
 62
     7
370
    25
100
AcDbLine
 10
23.6831687792
 20
13.1520892111
 30
0.0
 11
25.8751687792
 21
13.1712652171
 31
0.0
  0
LINE
  5
1A0
330
1F
100
AcDbEntity
  8
0
  6
Continuous
 62
     7
370
    25
100
AcDbLine
 10
23.6831687792
 20
15.9820892111
 30
0.0
 11
25.8751687792
 21
16.0012652171
 31
0.0
  0
ARC
  5
1A1
330
1F
100
AcDbEntity
  8
0
  6
Continuous
 62
     7
370
    25
100
AcDbCircle
 10
25.708582493
 20
15.5936909603
 30
0.0
 40
0.1200002044104594
100
AcDbArc
 50
270.1057543541
 51
89.894245646
  0
LINE
  5
1A2
330
1F
100
AcDbEntity
  8
0
  6
Continuous
 62
     7
370
    25
100
AcDbLine
 10
25.7088039847
 20
15.7136909603
 30
0.0
 11
23.6831687792
 21
15.7136909603
 31
0.0
  0
LINE
  5
1A3
330
1F
100
AcDbEntity
  8
0
  6
Continuous
 62
     7
370
    25
100
AcDbLine
 10
23.6831687792
 20
15.4736909603
 30
0.0
 11
25.7088039847
 21
15.4736909603
 31
0.0
  0
LINE
  5
1A4
330
1F
100
AcDbEntity
  8
0
  6
Continuous
 62
     7
370
    25
100
AcDbLine
 10
25.8751687792
 20
15.1861167035
 30
0.0
 11
23.6831687792
 21
15.2052927095
 31
0.0
  0
LINE
  5
1A5
330
1F
100
AcDbEntity
  8
0
  6
Continuous
 62
     7
370
    25
100
AcDbLine
 10
22.5569239499
 20
10.2199034826
 30
0.0
 11
22.7231687792
 21
10.2111909603
 31
0.0
  0
LINE
  5
1A6
330
1F
100
AcDbEntity
  8
0
  6
Continuous
 62
     7
370
    25
100
AcDbLine
 10
22.5569239499
 20
10.4111909603
 30
0.0
 11
22.5569239499
 21
10.2199034826
 31
0.0
  0
LINE
  5
1A7
330
1F
100
AcDbEntity
  8
0
  6
Continuous
 62
     7
370
    25
100
AcDbLine
 10
22.5569239499
 20
10.4111909603
 30
0.0
 11
22.7231687792
 21
10.4111909603
 31
0.0
  0
LINE
  5
1A8
330
1F
100
AcDbEntity
  8
0
  6
Continuous
 62
     7
370
    25
100
AcDbLine
 10
22.7231687792
 20
10.2111909603
 30
0.0
 11
22.7231687792
 21
10.4111909603
 31
0.0
  0
LINE
  5
1A9
330
1F
100
AcDbEntity
  8
0
  6
Continuous
 62
     7
370
    25
100
AcDbLine
 10
22.5569239499
 20
17.9471909603
 30
0.0
 11
22.5569239499
 21
10.4111909603
 31
0.0
  0
LINE
  5
1AA
330
1F
100
AcDbEntity
  8
0
  6
Continuous
 62
     7
370
    25
100
AcDbLine
 10
22.5569239499
 20
17.9471909603
 30
0.0
 11
22.7231687792
 21
17.9471909603
 31
0.0
  0
LINE
  5
1AB
330
1F
100
AcDbEntity
  8
0
  6
Continuous
 62
     7
370
    25
100
AcDbLine
 10
22.7231687792
 20
10.4111909603
 30
0.0
 11
22.7231687792
 21
17.9471909603
 31
0.0
  0
LINE
  5
1AC
330
1F
100
AcDbEntity
  8
0
  6
Continuous
 62
     7
370
    25
100
AcDbLine
 10
22.5569239499
 20
18.138478438
 30
0.0
 11
22.5569239499
 21
17.9471909603
 31
0.0
  0
LINE
  5
1AD
330
1F
100
AcDbEntity
  8
0
  6
Continuous
 62
     7
370
    25
100
AcDbLine
 10
22.5569239499
 20
18.138478438
 30
0.0
 11
22.7231687792
 21
18.1471909603
 31
0.0
  0
LINE
  5
1AE
330
1F
100
AcDbEntity
  8
0
  6
Continuous
 62
     7
370
    25
100
AcDbLine
 10
22.7231687792
 20
17.9471909603
 30
0.0
 11
22.7231687792
 21
18.1471909603
 31
0.0
  0
LINE
  5
1AF
330
1F
100
AcDbEntity
  8
0
  6
Continuous
 62
     7
370
    25
100
AcDbLine
 10
22.4981687792
 20
10.4111909603
 30
0.0
 11
22.4981687792
 21
17.9471909603
 31
0.0
  0
LINE
  5
1B0
330
1F
100
AcDbEntity
  8
0
  6
Continuous
 62
     7
370
    25
100
AcDbLine
 10
22.4981687792
 20
17.9471909603
 30
0.0
 11
22.5569239499
 21
17.9471909603
 31
0.0
  0
LINE
  5
1B1
330
1F
100
AcDbEntity
  8
0
  6
Continuous
 62
     7
370
    25
100
AcDbLine
 10
22.4981687792
 20
10.4111909603
 30
0.0
 11
22.5569239499
 21
10.4111909603
 31
0.0
  0
LINE
  5
1B2
330
1F
100
AcDbEntity
  8
0
  6
Continuous
 62
     7
370
    25
100
AcDbLine
 10
22.4981687792
 20
10.2818185138
 30
0.0
 11
22.4981687792
 21
10.4111909603
 31
0.0
  0
ARC
  5
1B3
330
1F
100
AcDbEntity
  8
0
  6
Continuous
 62
     7
370
    25
100
AcDbCircle
 10
22.5601687792
 20
10.2818185138
 30
0.0
 40
0.0620000000000012
100
AcDbArc
 50
180.0
 51
267.0
  0
LINE
  5
1B4
330
1F
100
AcDbEntity
  8
0
  6
Continuous
 62
     7
370
    25
100
AcDbLine
 10
22.4981687792
 20
17.9471909603
 30
0.0
 11
22.4981687792
 21
18.0765634068
 31
0.0
  0
ARC
  5
1B5
330
1F
100
AcDbEntity
  8
0
  6
Continuous
 62
     7
370
    25
100
AcDbCircle
 10
22.5601687792
 20
18.0765634068
 30
0.0
 40
0.0620000000000012
100
AcDbArc
 50
93.0
 51
180.0
  0
DIMENSION
  5
1B6
330
1F
100
AcDbEntity
  8
FORMAT
 62
     7
100
AcDbDimension
  2
_D_2
 10
27.4631687792
 20
12.3036909603
 30
0.0
 11
27.4631687792
 21
14.3717989216
 31
0.0
 70
   160
  1
<>
 71
     2
 42
-1.0
  3
SLDDIMSTYLE0
100
AcDbAlignedDimension
 13
25.8751687792
 23
16.0536909603
 33
0.0
 14
25.8751687792
 24
12.3036909603
 34
0.0
 50
90.0
100
AcDbRotatedDimension
  0
DIMENSION
  5
1C8
330
1F
100
AcDbEntity
  8
FORMAT
 62
     7
100
AcDbDimension
  2
_D_3
 10
25.8751687792
 20
9.7111909603
 30
0.0
 11
24.8209691551
 21
9.7111909603
 31
0.0
 70
   160
  1
<>
 71
     2
 42
-1.0
  3
SLDDIMSTYLE0
100
AcDbAlignedDimension
 13
23.6831687792
 23
12.3036909603
 33
0.0
 14
25.8751687792
 24
12.3036909603
 34
0.0
100
AcDbRotatedDimension
  0
DIMENSION
  5
1DA
330
1F
100
AcDbEntity
  8
FORMAT
 62
     7
100
AcDbDimension
  2
_D_4
 10
22.7231687792
 20
19.1471909603
 30
0.0
 11
23.5363042111
 21
19.1471909603
 31
0.0
 70
   160
  1
<>
 71
     2
 42
-1.0
  3
SLDDIMSTYLE1
100
AcDbAlignedDimension
 13
22.4981687792
 23
18.0765634068
 33
0.0
 14
22.7231687792
 24
18.1471909603
 34
0.0
100
AcDbRotatedDimension
  0
DIMENSION
  5
1ED
330
1F
100
AcDbEntity
  8
FORMAT
 62
     7
100
AcDbDimension
  2
_D_5
 10
26.4631687792
 20
20.1471909603
 30
0.0
 11
24.4752351407
 21
20.1471909603
 31
0.0
 70
   160
  1
<>
 71
     2
 42
-1.0
  3
SLDDIMSTYLE0
100
AcDbAlignedDimension
 13
22.4981687792
 23
18.0765634068
 33
0.0
 14
26.4631687792
 24
15.3461909603
 34
0.0
100
AcDbRotatedDimension
  0
LINE
  5
1FF
330
1F
100
AcDbEntity
  8
0
  6
Continuous
 62
     7
370
    25
100
AcDbLine
 10
10.489945119
 20
22.5803968453
 30
0.0
 11
10.489945119
 21
22.5003968453
 31
0.0
  0
LINE
  5
200
330
1F
100
AcDbEntity
  8
0
  6
Continuous
 62
     7
370
    25
100
AcDbLine
 10
18.359945119
 20
22.5803968453
 30
0.0
 11
10.489945119
 21
22.5803968453
 31
0.0
  0
LINE
  5
201
330
1F
100
AcDbEntity
  8
0
  6
Continuous
 62
     7
370
    25
100
AcDbLine
 10
18.359945119
 20
22.5803968453
 30
0.0
 11
18.359945119
 21
22.5003968453
 31
0.0
  0
LINE
  5
202
330
1F
100
AcDbEntity
  8
0
  6
Continuous
 62
     7
370
    25
100
AcDbLine
 10
16.2331442181
 20
23.6126156376
 30
0.0
 11
16.36874602
 21
23.6126156376
 31
0.0
  0
LINE
  5
203
330
1F
100
AcDbEntity
  8
0
  6
Continuous
 62
     7
370
    25
100
AcDbLine
 10
16.36874602
 20
23.6126156376
 30
0.0
 11
16.3777540569
 21
22.5803968453
 31
0.0
  0
LINE
  5
204
330
1F
100
AcDbEntity
  8
0
  6
Continuous
 62
     7
370
    25
100
AcDbLine
 10
16.2331442181
 20
23.6126156376
 30
0.0
 11
16.2241361812
 21
22.5803968453
 31
0.0
  0
LINE
  5
205
330
1F
100
AcDbEntity
  8
0
  6
Continuous
 62
     7
370
    25
100
AcDbLine
 10
11.8231442181
 20
23.6126156376
 30
0.0
 11
11.95874602
 21
23.6126156376
 31
0.0
  0
LINE
  5
206
330
1F
100
AcDbEntity
  8
0
  6
Continuous
 62
     7
370
    25
100
AcDbLine
 10
11.95874602
 20
23.6126156376
 30
0.0
 11
11.9677540569
 21
22.5803968453
 31
0.0
  0
LINE
  5
207
330
1F
100
AcDbEntity
  8
0
  6
Continuous
 62
     7
370
    25
100
AcDbLine
 10
11.8231442181
 20
23.6126156376
 30
0.0
 11
11.8141361812
 21
22.5803968453
 31
0.0
  0
LINE
  5
208
330
1F
100
AcDbEntity
  8
0
  6
Continuous
 62
     7
370
    25
100
AcDbLine
 10
11.940945119
 20
25.6523968453
 30
0.0
 11
11.840945119
 21
25.6523968453
 31
0.0
  0
LINE
  5
209
330
1F
100
AcDbEntity
  8
0
  6
Continuous
 62
     7
370
    25
100
AcDbLine
 10
11.940945119
 20
25.6523968453
 30
0.0
 11
11.95874602
 21
23.6126156376
 31
0.0
  0
LINE
  5
20A
330
1F
100
AcDbEntity
  8
0
  6
Continuous
 62
     7
370
    25
100
AcDbLine
 10
11.840945119
 20
25.6523968453
 30
0.0
 11
11.8231442181
 21
23.6126156376
 31
0.0
  0
LINE
  5
20B
330
1F
100
AcDbEntity
  8
0
  6
Continuous
 62
     7
370
    25
100
AcDbLine
 10
16.250945119
 20
25.6523968453
 30
0.0
 11
16.350945119
 21
25.6523968453
 31
0.0
  0
LINE
  5
20C
330
1F
100
AcDbEntity
  8
0
  6
Continuous
 62
     7
370
    25
100
AcDbLine
 10
16.350945119
 20
25.6523968453
 30
0.0
 11
16.36874602
 21
23.6126156376
 31
0.0
  0
LINE
  5
20D
330
1F
100
AcDbEntity
  8
0
  6
Continuous
 62
     7
370
    25
100
AcDbLine
 10
16.250945119
 20
25.6523968453
 30
0.0
 11
16.2331442181
 21
23.6126156376
 31
0.0
  0
LINE
  5
20E
330
1F
100
AcDbEntity
  8
0
  6
Continuous
 62
     7
370
    25
100
AcDbLine
 10
10.7092263398
 20
23.0321176239
 30
0.0
 11
10.7013415242
 21
22.5803968453
 31
0.0
  0
LINE
  5
20F
330
1F
100
AcDbEntity
  8
0
  6
Continuous
 62
     7
370
    25
100
AcDbLine
 10
11.4094620513
 20
23.0321176239
 30
0.0
 11
10.7092263398
 21
23.0321176239
 31
0.0
  0
LINE
  5
210
330
1F
100
AcDbEntity
  8
0
  6
Continuous
 62
     7
370
    25
100
AcDbLine
 10
11.367093061
 20
26.2003968453
 30
0.0
 11
11.4094620513
 21
23.0321176239
 31
0.0
  0
LINE
  5
211
330
1F
100
AcDbEntity
  8
0
  6
Continuous
 62
     7
370
    25
100
AcDbLine
 10
11.367093061
 20
26.2003968453
 30
0.0
 11
17.2324520317
 21
26.2003968453
 31
0.0
  0
LINE
  5
212
330
1F
100
AcDbEntity
  8
0
  6
Continuous
 62
     7
370
    25
100
AcDbLine
 10
17.4716421296
 20
25.3662418433
 30
0.0
 11
17.2324520317
 21
26.2003968453
 31
0.0
  0
LINE
  5
213
330
1F
100
AcDbEntity
  8
0
  6
Continuous
 62
     7
370
    25
100
AcDbLine
 10
17.4404281868
 20
23.0321176239
 30
0.0
 11
17.4716421296
 21
25.3662418433
 31
0.0
  0
LINE
  5
214
330
1F
100
AcDbEntity
  8
0
  6
Continuous
 62
     7
370
    25
100
AcDbLine
 10
18.1406638983
 20
23.0321176239
 30
0.0
 11
17.4404281868
 21
23.0321176239
 31
0.0
  0
LINE
  5
215
330
1F
100
AcDbEntity
  8
0
  6
Continuous
 62
     7
370
    25
100
AcDbLine
 10
18.1406638983
 20
23.0321176239
 30
0.0
 11
18.1485487139
 21
22.5803968453
 31
0.0
  0
LINE
  5
216
330
1F
100
AcDbEntity
  8
0
  6
Continuous
 62
     7
370
    25
100
AcDbLine
 10
12.220945119
 20
23.1543968453
 30
0.0
 11
15.970945119
 21
23.1543968453
 31
0.0
  0
LINE
  5
217
330
1F
100
AcDbEntity
  8
0
  6
Continuous
 62
     7
370
    25
100
AcDbLine
 10
15.970945119
 20
25.4303968453
 30
0.0
 11
15.970945119
 21
23.1543968453
 31
0.0
  0
LINE
  5
218
330
1F
100
AcDbEntity
  8
0
  6
Continuous
 62
     7
370
    25
100
AcDbLine
 10
12.220945119
 20
25.4303968453
 30
0.0
 11
15.970945119
 21
25.4303968453
 31
0.0
  0
LINE
  5
219
330
1F
100
AcDbEntity
  8
0
  6
Continuous
 62
     7
370
    25
100
AcDbLine
 10
12.220945119
 20
23.1543968453
 30
0.0
 11
12.220945119
 21
25.4303968453
 31
0.0
  0
LINE
  5
21A
330
1F
100
AcDbEntity
  8
0
  6
Continuous
 62
     7
370
    25
100
AcDbLine
 10
17.4716421296
 20
25.3662418433
 30
0.0
 11
18.1406459059
 21
23.0331484109
 31
0.0
  0
LINE
  5
21B
330
1F
100
AcDbEntity
  8
0
  6
Continuous
 62
     7
370
    25
100
AcDbLine
 10
18.1406459059
 20
23.0331484109
 30
0.0
 11
18.1406638983
 21
23.0321176239
 31
0.0
  0
LINE
  5
21C
330
1F
100
AcDbEntity
  8
0
  6
Continuous
 62
     7
370
    25
100
AcDbLine
 10
11.367093061
 20
26.2003968453
 30
0.0
 11
10.7645288593
 21
26.2003968453
 31
0.0
  0
LINE
  5
21D
330
1F
100
AcDbEntity
  8
0
  6
Continuous
 62
     7
370
    25
100
AcDbLine
 10
10.7092263398
 20
23.0321176239
 30
0.0
 11
10.7645288593
 21
26.2003968453
 31
0.0
  0
LINE
  5
21E
330
1F
100
AcDbEntity
  8
0
  6
Continuous
 62
     7
370
    25
100
AcDbLine
 10
18.1288454948
 20
23.7091935087
 30
0.0
 11
17.5716409044
 21
25.6523968453
 31
0.0
  0
LINE
  5
21F
330
1F
100
AcDbEntity
  8
0
  6
Continuous
 62
     7
370
    25
100
AcDbLine
 10
18.1406459059
 20
23.0331484109
 30
0.0
 11
18.1288454948
 21
23.7091935087
 31
0.0
  0
LINE
  5
220
330
1F
100
AcDbEntity
  8
0
  6
Continuous
 62
     7
370
    25
100
AcDbLine
 10
17.5716409044
 20
25.6523968453
 30
0.0
 11
17.3895885031
 21
25.6523968453
 31
0.0
  0
LINE
  5
221
330
1F
100
AcDbEntity
  8
0
  6
Continuous
 62
     7
370
    25
100
AcDbLine
 10
10.7013415242
 20
26.2003968453
 30
0.0
 11
10.7013415242
 21
22.5803968453
 31
0.0
  0
LINE
  5
222
330
1F
100
AcDbEntity
  8
0
  6
Continuous
 62
     7
370
    25
100
AcDbLine
 10
10.7645288593
 20
26.2003968453
 30
0.0
 11
10.7013415242
 21
26.2003968453
 31
0.0
  0
LINE
  5
223
330
1F
100
AcDbEntity
  8
0
  6
Continuous
 62
     7
370
    25
100
AcDbLine
 10
12.1174520317
 20
26.2403968453
 30
0.0
 11
15.9174520317
 21
26.2403968453
 31
0.0
  0
LINE
  5
224
330
1F
100
AcDbEntity
  8
0
  6
Continuous
 62
     7
370
    25
100
AcDbLine
 10
15.9374520317
 20
26.2203968453
 30
0.0
 11
12.0974520317
 21
26.2203968453
 31
0.0
  0
ARC
  5
225
330
1F
100
AcDbEntity
  8
0
  6
Continuous
 62
     7
370
    25
100
AcDbCircle
 10
12.1174520317
 20
26.2203968453
 30
0.0
 40
0.0200000000000031
100
AcDbArc
 50
90.0
 51
180.0
  0
ARC
  5
226
330
1F
100
AcDbEntity
  8
0
  6
Continuous
 62
     7
370
    25
100
AcDbCircle
 10
15.9174520317
 20
26.2203968453
 30
0.0
 40
0.0200000000000031
100
AcDbArc
 50
0.0
 51
90.0
  0
LINE
  5
227
330
1F
100
AcDbEntity
  8
0
  6
Continuous
 62
     7
370
    25
100
AcDbLine
 10
12.0974520317
 20
26.2203968453
 30
0.0
 11
12.0974520317
 21
26.2003968453
 31
0.0
  0
LINE
  5
228
330
1F
100
AcDbEntity
  8
0
  6
Continuous
 62
     7
370
    25
100
AcDbLine
 10
15.9374520317
 20
26.2203968453
 30
0.0
 11
15.9374520317
 21
26.2003968453
 31
0.0
  0
LINE
  5
229
330
1F
100
AcDbEntity
  8
0
  6
Continuous
 62
     7
370
    25
100
AcDbLine
 10
19.1197325967
 20
22.3341520161
 30
0.0
 11
19.128445119
 21
22.5003968453
 31
0.0
  0
LINE
  5
22A
330
1F
100
AcDbEntity
  8
0
  6
Continuous
 62
     7
370
    25
100
AcDbLine
 10
18.928445119
 20
22.3341520161
 30
0.0
 11
19.1197325967
 21
22.3341520161
 31
0.0
  0
LINE
  5
22B
330
1F
100
AcDbEntity
  8
0
  6
Continuous
 62
     7
370
    25
100
AcDbLine
 10
18.928445119
 20
22.3341520161
 30
0.0
 11
18.928445119
 21
22.5003968453
 31
0.0
  0
LINE
  5
22C
330
1F
100
AcDbEntity
  8
0
  6
Continuous
 62
     7
370
    25
100
AcDbLine
 10
19.128445119
 20
22.5003968453
 30
0.0
 11
18.928445119
 21
22.5003968453
 31
0.0
  0
LINE
  5
22D
330
1F
100
AcDbEntity
  8
0
  6
Continuous
 62
     7
370
    25
100
AcDbLine
 10
9.870445119
 20
22.3341520161
 30
0.0
 11
18.928445119
 21
22.3341520161
 31
0.0
  0
LINE
  5
22E
330
1F
100
AcDbEntity
  8
0
  6
Continuous
 62
     7
370
    25
100
AcDbLine
 10
9.870445119
 20
22.3341520161
 30
0.0
 11
9.870445119
 21
22.5003968453
 31
0.0
  0
LINE
  5
22F
330
1F
100
AcDbEntity
  8
0
  6
Continuous
 62
     7
370
    25
100
AcDbLine
 10
18.928445119
 20
22.5003968453
 30
0.0
 11
9.870445119
 21
22.5003968453
 31
0.0
  0
LINE
  5
230
330
1F
100
AcDbEntity
  8
0
  6
Continuous
 62
     7
370
    25
100
AcDbLine
 10
9.6791576414
 20
22.3341520161
 30
0.0
 11
9.870445119
 21
22.3341520161
 31
0.0
  0
LINE
  5
231
330
1F
100
AcDbEntity
  8
0
  6
Continuous
 62
     7
370
    25
100
AcDbLine
 10
9.6791576414
 20
22.3341520161
 30
0.0
 11
9.670445119
 21
22.5003968453
 31
0.0
  0
LINE
  5
232
330
1F
100
AcDbEntity
  8
0
  6
Continuous
 62
     7
370
    25
100
AcDbLine
 10
9.870445119
 20
22.5003968453
 30
0.0
 11
9.670445119
 21
22.5003968453
 31
0.0
  0
LINE
  5
233
330
1F
100
AcDbEntity
  8
0
  6
Continuous
 62
     7
370
    25
100
AcDbLine
 10
9.870445119
 20
22.2753968453
 30
0.0
 11
9.7410726725
 21
22.2753968453
 31
0.0
  0
ARC
  5
234
330
1F
100
AcDbEntity
  8
0
  6
Continuous
 62
     7
370
    25
100
AcDbCircle
 10
9.7410726725
 20
22.3373968453
 30
0.0
 40
0.0620000000000007
100
AcDbArc
 50
183.0
 51
270.0
  0
LINE
  5
235
330
1F
100
AcDbEntity
  8
0
  6
Continuous
 62
     7
370
    25
100
AcDbLine
 10
9.870445119
 20
22.2753968453
 30
0.0
 11
9.870445119
 21
22.3341520161
 31
0.0
  0
LINE
  5
236
330
1F
100
AcDbEntity
  8
0
  6
Continuous
 62
     7
370
    25
100
AcDbLine
 10
19.0578175656
 20
22.2753968453
 30
0.0
 11
18.928445119
 21
22.2753968453
 31
0.0
  0
LINE
  5
237
330
1F
100
AcDbEntity
  8
0
  6
Continuous
 62
     7
370
    25
100
AcDbLine
 10
18.928445119
 20
22.2753968453
 30
0.0
 11
18.928445119
 21
22.3341520161
 31
0.0
  0
ARC
  5
238
330
1F
100
AcDbEntity
  8
0
  6
Continuous
 62
     7
370
    25
100
AcDbCircle
 10
19.0578175656
 20
22.3373968453
 30
0.0
 40
0.0619999999999989
100
AcDbArc
 50
270.0
 51
357.0
  0
LINE
  5
239
330
1F
100
AcDbEntity
  8
0
  6
Continuous
 62
     7
370
    25
100
AcDbLine
 10
18.928445119
 20
22.2753968453
 30
0.0
 11
9.870445119
 21
22.2753968453
 31
0.0
  0
SPLINE
  5
23A
330
1F
100
AcDbEntity
  8
0
  6
Continuous
 62
     7
370
    25
100
AcDbSpline
210
0.0
220
0.0
230
1.0
 70
     8
 71
     3
 72
    11
 73
     7
 74
     0
 42
0.00000001
 43
0.00000001
 40
0.0
 40
0.0
 40
0.0
 40
0.0
 40
0.19967747168946
 40
0.502628543573898
 40
0.7856584870931062
 40
1.0
 40
1.0
 40
1.0
 40
1.0
 10
46.93663292783518
 20
17.41742407180315
 30
0.0
 10
46.94427923334239
 20
17.41342364302242
 30
0.0
 10
46.96352652933573
 20
17.40335375544465
 30
0.0
 10
46.9956666231731
 20
17.39583027035478
 30
0.0
 10
47.0296406168624
 20
17.39631049764046
 30
0.0
 10
47.04858407223765
 20
17.40490595723575
 30
0.0
 10
47.05674772705209
 20
17.40861015817045
 30
0.0
  0
LINE
  5
23B
330
1F
100
AcDbEntity
  8
0
  6
Continuous
 62
     7
370
    25
100
AcDbLine
 10
47.057361301
 20
17.4078354933
 30
0.0
 11
47.1791056017
 21
17.4680638116
 31
0.0
  0
LINE
  5
23C
330
1F
100
AcDbEntity
  8
0
  6
Continuous
 62
     7
370
    25
100
AcDbLine
 10
40.5316597038
 20
21.1149364102
 30
0.0
 11
46.9366329278
 21
17.4174240718
 31
0.0
  0
SPLINE
  5
23D
330
1F
100
AcDbEntity
  8
0
  6
Continuous
 62
     7
370
    25
100
AcDbSpline
210
0.0
220
0.0
230
1.0
 70
     8
 71
     3
 72
    11
 73
     7
 74
     0
 42
0.00000001
 43
0.00000001
 40
0.0
 40
0.0
 40
0.0
 40
0.0
 40
0.2405664349047756
 40
0.5192075359703454
 40
0.804942302109109
 40
1.0
 40
1.0
 40
1.0
 40
1.0
 10
40.46166587976878
 20
27.58912459309762
 30
0.0
 10
40.45355990625183
 20
27.58312846171529
 30
0.0
 10
40.43606501949404
 20
27.57018718584026
 30
0.0
 10
40.41923726508262
 20
27.54043903495093
 30
0.0
 10
40.41036357601843
 20
27.50975450912367
 30
0.0
 10
40.40951949452662
 20
27.48896539147465
 30
0.0
 10
40.40917705032265
 20
27.48053123800266
 30
0.0
  0
LINE
  5
23E
330
1F
100
AcDbEntity
  8
0
  6
Continuous
 62
     7
370
    25
100
AcDbLine
 10
40.5742860183
 20
27.6652092661
 30
0.0
 11
40.4612475469
 21
27.589900375
 31
0.0
  0
LINE
  5
23F
330
1F
100
AcDbEntity
  8
0
  6
Continuous
 62
     7
370
    25
100
AcDbLine
 10
40.4091770503
 20
27.480531238
 30
0.0
 11
40.4091770503
 21
21.3270796796
 31
0.0
  0
SPLINE
  5
240
330
1F
100
AcDbEntity
  8
0
  6
Continuous
 62
     7
370
    25
100
AcDbSpline
210
0.0
220
0.0
230
1.0
 70
     8
 71
     3
 72
    13
 73
     9
 74
     0
 42
0.00000001
 43
0.00000001
 40
0.0
 40
0.0
 40
0.0
 40
0.0
 40
0.105756381866367
 40
0.290242488377841
 40
0.4746047145275279
 40
0.6594976772355599
 40
0.847154172470245
 40
1.0
 40
1.0
 40
1.0
 40
1.0
 10
40.40917705032265
 20
21.32707967963165
 30
0.0
 10
40.40952408599504
 20
21.31857409891416
 30
0.0
 10
40.41047650603187
 20
21.29523100728247
 30
0.0
 10
40.42015994061689
 20
21.25586726763019
 30
0.0
 10
40.4397206663833
 20
21.21108635812797
 30
0.0
 10
40.46712417461771
 20
21.17001570136814
 30
0.0
 10
40.49828440241404
 20
21.13684384235919
 30
0.0
 10
40.52131959096043
 20
21.12172362448638
 30
0.0
 10
40.53165970384744
 20
21.1149364102482
 30
0.0
  0
LINE
  5
241
330
1F
100
AcDbEntity
  8
0
  6
Continuous
 62
     7
370
    25
100
AcDbLine
 10
44.3525005891
 20
27.7835495165
 30
0.0
 11
42.2479680108
 21
26.7511943342
 31
0.0
  0
LINE
  5
242
330
1F
100
AcDbEntity
  8
0
  6
Continuous
 62
     7
370
    25
100
AcDbLine
 10
44.3525005891
 20
27.7835495165
 30
0.0
 11
48.4999356914
 21
25.3892861953
 31
0.0
  0
LINE
  5
243
330
1F
100
AcDbEntity
  8
0
  6
Continuous
 62
     7
370
    25
100
AcDbLine
 10
48.0792319731
 20
25.0107327908
 30
0.0
 11
48.4999356914
 21
25.3892861953
 31
0.0
  0
LINE
  5
244
330
1F
100
AcDbEntity
  8
0
  6
Continuous
 62
     7
370
    25
100
AcDbLine
 10
46.5153736512
 20
24.2876734955
 30
0.0
 11
48.0792319731
 21
25.0107327908
 31
0.0
  0
LINE
  5
245
330
1F
100
AcDbEntity
  8
0
  6
Continuous
 62
     7
370
    25
100
AcDbLine
 10
45.7587917906
 20
24.7244389068
 30
0.0
 11
47.4891216597
 21
25.564573129
 31
0.0
  0
LINE
  5
246
330
1F
100
AcDbEntity
  8
0
  6
Continuous
 62
     7
370
    25
100
AcDbLine
 10
42.6404508855
 20
26.5246187934
 30
0.0
 11
44.3707807546
 21
27.3647530155
 31
0.0
  0
LINE
  5
247
330
1F
100
AcDbEntity
  8
0
  6
Continuous
 62
     7
370
    25
100
AcDbLine
 10
47.0634433774
 20
25.6449286201
 30
0.0
 11
45.4748579147
 21
24.8883504444
 31
0.0
  0
LINE
  5
248
330
1F
100
AcDbEntity
  8
0
  6
Continuous
 62
     7
370
    25
100
AcDbLine
 10
44.4117929479
 20
27.1756938298
 30
0.0
 11
47.0634433774
 21
25.6449286201
 31
0.0
  0
LINE
  5
249
330
1F
100
AcDbEntity
  8
0
  6
Continuous
 62
     7
370
    25
100
AcDbLine
 10
42.8232074853
 20
26.4191156541
 30
0.0
 11
44.4117929479
 21
27.1756938298
 31
0.0
  0
LINE
  5
24A
330
1F
100
AcDbEntity
  8
0
  6
Continuous
 62
     7
370
    25
100
AcDbLine
 10
48.0792319731
 20
25.0107327908
 30
0.0
 11
47.2073201285
 21
23.8025218738
 31
0.0
  0
LINE
  5
24B
330
1F
100
AcDbEntity
  8
0
  6
Continuous
 62
     7
370
    25
100
AcDbLine
 10
48.2235534398
 20
24.4757379808
 30
0.0
 11
47.2243101701
 21
23.4491896345
 31
0.0
  0
LINE
  5
24C
330
1F
100
AcDbEntity
  8
0
  6
Continuous
 62
     7
370
    25
100
AcDbLine
 10
48.4999356914
 20
20.4552698399
 30
0.0
 11
48.4999356914
 21
25.3892861953
 31
0.0
  0
LINE
  5
24D
330
1F
100
AcDbEntity
  8
0
  6
Continuous
 62
     7
370
    25
100
AcDbLine
 10
48.4999356914
 20
20.4552698399
 30
0.0
 11
48.0792319731
 21
19.957535598
 31
0.0
  0
LINE
  5
24E
330
1F
100
AcDbEntity
  8
0
  6
Continuous
 62
     7
370
    25
100
AcDbLine
 10
47.2243101701
 20
19.3614788716
 30
0.0
 11
48.0792319731
 21
19.957535598
 31
0.0
  0
LINE
  5
24F
330
1F
100
AcDbEntity
  8
0
  6
Continuous
 62
     7
370
    25
100
AcDbLine
 10
48.2235534398
 20
20.8747930004
 30
0.0
 11
47.2243101701
 21
19.8482446541
 31
0.0
  0
LINE
  5
250
330
1F
100
AcDbEntity
  8
0
  6
Continuous
 62
     7
370
    25
100
AcDbLine
 10
48.2235534398
 20
21.1034244277
 30
0.0
 11
47.2243101701
 21
20.0627579268
 31
0.0
  0
LINE
  5
251
330
1F
100
AcDbEntity
  8
0
  6
Continuous
 62
     7
370
    25
100
AcDbLine
 10
48.2235534398
 20
24.1654524723
 30
0.0
 11
48.2235534398
 21
21.1034244277
 31
0.0
  0
LINE
  5
252
330
1F
100
AcDbEntity
  8
0
  6
Continuous
 62
     7
370
    25
100
AcDbLine
 10
47.2243101701
 20
23.1247859714
 30
0.0
 11
48.2235534398
 21
24.1654524723
 31
0.0
  0
LINE
  5
253
330
1F
100
AcDbEntity
  8
0
  6
Continuous
 62
     7
370
    25
100
AcDbLine
 10
47.3722348151
 20
23.2852457505
 30
0.0
 11
47.3722348151
 21
23.3945937582
 31
0.0
  0
LINE
  5
254
330
1F
100
AcDbEntity
  8
0
  6
Continuous
 62
     7
370
    25
100
AcDbLine
 10
47.2243101701
 20
23.1952993686
 30
0.0
 11
47.3722348151
 21
23.2852457505
 31
0.0
  0
LINE
  5
255
330
1F
100
AcDbEntity
  8
0
  6
Continuous
 62
     7
370
    25
100
AcDbLine
 10
47.2243101701
 20
23.3076817524
 30
0.0
 11
47.3722348151
 21
23.3945937582
 31
0.0
  0
LINE
  5
256
330
1F
100
AcDbEntity
  8
0
  6
Continuous
 62
     7
370
    25
100
AcDbLine
 10
47.3722348151
 20
23.3945937582
 30
0.0
 11
48.3522839273
 21
24.4014234522
 31
0.0
  0
LINE
  5
257
330
1F
100
AcDbEntity
  8
0
  6
Continuous
 62
     7
370
    25
100
AcDbLine
 10
48.3522839273
 20
24.4014234522
 30
0.0
 11
48.2235534398
 21
24.4757379808
 31
0.0
  0
LINE
  5
258
330
1F
100
AcDbEntity
  8
0
  6
Continuous
 62
     7
370
    25
100
AcDbLine
 10
45.9634807196
 20
25.0486799733
 30
0.0
 11
46.0593656733
 21
24.9933267678
 31
0.0
  0
LINE
  5
259
330
1F
100
AcDbEntity
  8
0
  6
Continuous
 62
     7
370
    25
100
AcDbLine
 10
46.0593656733
 20
24.9933267678
 30
0.0
 11
45.6727848141
 21
24.7740896775
 31
0.0
  0
LINE
  5
25A
330
1F
100
AcDbEntity
  8
0
  6
Continuous
 62
     7
370
    25
100
AcDbLine
 10
45.9634807196
 20
25.0486799733
 30
0.0
 11
45.5700931794
 21
24.8333722963
 31
0.0
  0
LINE
  5
25B
330
1F
100
AcDbEntity
  8
0
  6
Continuous
 62
     7
370
    25
100
AcDbLine
 10
47.4891216597
 20
25.564573129
 30
0.0
 11
47.4891216597
 21
25.6875221087
 31
0.0
  0
LINE
  5
25C
330
1F
100
AcDbEntity
  8
0
  6
Continuous
 62
     7
370
    25
100
AcDbLine
 10
47.4891216597
 20
25.6875221087
 30
0.0
 11
46.0593656733
 21
24.9933267678
 31
0.0
  0
LINE
  5
25D
330
1F
100
AcDbEntity
  8
0
  6
Continuous
 62
     7
370
    25
100
AcDbLine
 10
48.3522839273
 20
24.319769371
 30
0.0
 11
48.3522839273
 21
24.4014234522
 31
0.0
  0
LINE
  5
25E
330
1F
100
AcDbEntity
  8
0
  6
Continuous
 62
     7
370
    25
100
AcDbLine
 10
47.3722348151
 20
23.2852457505
 30
0.0
 11
48.3522839273
 21
24.319769371
 31
0.0
  0
LINE
  5
25F
330
1F
100
AcDbEntity
  8
0
  6
Continuous
 62
     7
370
    25
100
AcDbLine
 10
47.4184109816
 20
25.7283425143
 30
0.0
 11
47.4891216597
 21
25.6875221087
 31
0.0
  0
LINE
  5
260
330
1F
100
AcDbEntity
  8
0
  6
Continuous
 62
     7
370
    25
100
AcDbLine
 10
47.4184109816
 20
25.7283425143
 30
0.0
 11
45.9634807196
 21
25.0486799733
 31
0.0
  0
LINE
  5
261
330
1F
100
AcDbEntity
  8
0
  6
Continuous
 62
     7
370
    25
100
AcDbLine
 10
44.3494639364
 20
25.6196111907
 30
0.0
 11
44.1139973783
 21
25.7555431413
 31
0.0
  0
LINE
  5
262
330
1F
100
AcDbEntity
  8
0
  6
Continuous
 62
     7
370
    25
100
AcDbLine
 10
44.3494639364
 20
25.6196111907
 30
0.0
 11
44.3494639364
 21
25.5380265593
 31
0.0
  0
LINE
  5
263
330
1F
100
AcDbEntity
  8
0
  6
Continuous
 62
     7
370
    25
100
AcDbLine
 10
43.9251998677
 20
24.6620780263
 30
0.0
 11
43.9251998677
 21
24.9355246384
 31
0.0
  0
LINE
  5
264
330
1F
100
AcDbEntity
  8
0
  6
Continuous
 62
     7
370
    25
100
AcDbLine
 10
43.9251998677
 20
25.7829489929
 30
0.0
 11
43.9251998677
 21
26.1581022817
 31
0.0
  0
LINE
  5
265
330
1F
100
AcDbEntity
  8
0
  6
Continuous
 62
     7
370
    25
100
AcDbLine
 10
44.058771129
 20
26.2238709965
 30
0.0
 11
44.058771129
 21
26.8958733724
 31
0.0
  0
LINE
  5
266
330
1F
100
AcDbEntity
  8
0
  6
Continuous
 62
     7
370
    25
100
AcDbLine
 10
44.058771129
 20
26.8958733724
 30
0.0
 11
44.0305384116
 21
26.9121519266
 31
0.0
  0
LINE
  5
267
330
1F
100
AcDbEntity
  8
0
  6
Continuous
 62
     7
370
    25
100
AcDbLine
 10
47.8439400377
 20
20.8271494389
 30
0.0
 11
47.2243101701
 21
21.1848541475
 31
0.0
  0
LINE
  5
268
330
1F
100
AcDbEntity
  8
0
  6
Continuous
 62
     7
370
    25
100
AcDbLine
 10
46.1691595978
 20
21.7939796072
 30
0.0
 11
44.311891969
 21
22.8661573875
 31
0.0
  0
LINE
  5
269
330
1F
100
AcDbEntity
  8
0
  6
Continuous
 62
     7
370
    25
100
AcDbLine
 10
43.9251998677
 20
23.5359277518
 30
0.0
 11
44.311891969
 21
22.8661573875
 31
0.0
  0
LINE
  5
26A
330
1F
100
AcDbEntity
  8
0
  6
Continuous
 62
     7
370
    25
100
AcDbLine
 10
43.9251998677
 20
23.5359277518
 30
0.0
 11
43.9251998677
 21
23.8472917841
 31
0.0
  0
LINE
  5
26B
330
1F
100
AcDbEntity
  8
0
  6
Continuous
 62
     7
370
    25
100
AcDbLine
 10
44.058771129
 20
24.5850628748
 30
0.0
 11
44.058771129
 21
23.9130604988
 31
0.0
  0
LINE
  5
26C
330
1F
100
AcDbEntity
  8
0
  6
Continuous
 62
     7
370
    25
100
AcDbLine
 10
44.058771129
 20
24.5850628748
 30
0.0
 11
43.9251998677
 21
24.6620780263
 31
0.0
  0
LINE
  5
26D
330
1F
100
AcDbEntity
  8
0
  6
Continuous
 62
     7
370
    25
100
AcDbLine
 10
44.4117929479
 20
27.1756938298
 30
0.0
 11
44.4117929479
 21
27.0937278432
 31
0.0
  0
LINE
  5
26E
330
1F
100
AcDbEntity
  8
0
  6
Continuous
 62
     7
370
    25
100
AcDbLine
 10
44.4117929479
 20
27.0937278432
 30
0.0
 11
46.9856433302
 21
25.6078756448
 31
0.0
  0
LINE
  5
26F
330
1F
100
AcDbEntity
  8
0
  6
Continuous
 62
     7
370
    25
100
AcDbLine
 10
48.1499931612
 20
21.1458898726
 30
0.0
 11
48.2235534398
 21
21.1034244277
 31
0.0
  0
LINE
  5
270
330
1F
100
AcDbEntity
  8
0
  6
Continuous
 62
     7
370
    25
100
AcDbLine
 10
48.1499931612
 20
24.0888427817
 30
0.0
 11
48.1499931612
 21
21.1458898726
 31
0.0
  0
LINE
  5
271
330
1F
100
AcDbEntity
  8
0
  6
Continuous
 62
     7
370
    25
100
AcDbLine
 10
47.3722348151
 20
19.7936487778
 30
0.0
 11
47.3722348151
 21
19.6843007701
 31
0.0
  0
LINE
  5
272
330
1F
100
AcDbEntity
  8
0
  6
Continuous
 62
     7
370
    25
100
AcDbLine
 10
47.2243101701
 20
19.5943543882
 30
0.0
 11
47.3722348151
 21
19.6843007701
 31
0.0
  0
LINE
  5
273
330
1F
100
AcDbEntity
  8
0
  6
Continuous
 62
     7
370
    25
100
AcDbLine
 10
47.2243101701
 20
19.706736772
 30
0.0
 11
47.3722348151
 21
19.7936487778
 31
0.0
  0
LINE
  5
274
330
1F
100
AcDbEntity
  8
0
  6
Continuous
 62
     7
370
    25
100
AcDbLine
 10
47.3722348151
 20
19.7936487778
 30
0.0
 11
48.3522839273
 21
20.8004784718
 31
0.0
  0
LINE
  5
275
330
1F
100
AcDbEntity
  8
0
  6
Continuous
 62
     7
370
    25
100
AcDbLine
 10
48.3522839273
 20
20.8004784718
 30
0.0
 11
48.2235534398
 21
20.8747930004
 31
0.0
  0
LINE
  5
276
330
1F
100
AcDbEntity
  8
0
  6
Continuous
 62
     7
370
    25
100
AcDbLine
 10
44.3707807546
 20
27.3647530155
 30
0.0
 11
44.3707807546
 21
27.4877019953
 31
0.0
  0
LINE
  5
277
330
1F
100
AcDbEntity
  8
0
  6
Continuous
 62
     7
370
    25
100
AcDbLine
 10
42.9410247682
 20
26.7935066543
 30
0.0
 11
42.5544439091
 21
26.574269564
 31
0.0
  0
LINE
  5
278
330
1F
100
AcDbEntity
  8
0
  6
Continuous
 62
     7
370
    25
100
AcDbLine
 10
44.3707807546
 20
27.4877019953
 30
0.0
 11
42.9410247682
 21
26.7935066543
 31
0.0
  0
LINE
  5
279
330
1F
100
AcDbEntity
  8
0
  6
Continuous
 62
     7
370
    25
100
AcDbLine
 10
42.8451398146
 20
26.8488598598
 30
0.0
 11
42.4517522744
 21
26.6335521829
 31
0.0
  0
LINE
  5
27A
330
1F
100
AcDbEntity
  8
0
  6
Continuous
 62
     7
370
    25
100
AcDbLine
 10
42.8451398146
 20
26.8488598598
 30
0.0
 11
42.9410247682
 21
26.7935066543
 31
0.0
  0
LINE
  5
27B
330
1F
100
AcDbEntity
  8
0
  6
Continuous
 62
     7
370
    25
100
AcDbLine
 10
48.1499931612
 20
21.1458898726
 30
0.0
 11
47.2243101701
 21
20.1818330623
 31
0.0
  0
LINE
  5
27C
330
1F
100
AcDbEntity
  8
0
  6
Continuous
 62
     7
370
    25
100
AcDbLine
 10
48.3522839273
 20
20.8004784718
 30
0.0
 11
48.3522839273
 21
20.7188243906
 31
0.0
  0
LINE
  5
27D
330
1F
100
AcDbEntity
  8
0
  6
Continuous
 62
     7
370
    25
100
AcDbLine
 10
47.3722348151
 20
19.6843007701
 30
0.0
 11
48.3522839273
 21
20.7188243906
 31
0.0
  0
LINE
  5
27E
330
1F
100
AcDbEntity
  8
0
  6
Continuous
 62
     7
370
    25
100
AcDbLine
 10
42.9010075325
 20
26.3742026428
 30
0.0
 11
44.4117929479
 21
27.0937278432
 31
0.0
  0
LINE
  5
27F
330
1F
100
AcDbEntity
  8
0
  6
Continuous
 62
     7
370
    25
100
AcDbLine
 10
41.8912607573
 20
21.1830077562
 30
0.0
 11
44.311891969
 21
22.8661573875
 31
0.0
  0
LINE
  5
280
330
1F
100
AcDbEntity
  8
0
  6
Continuous
 62
     7
370
    25
100
AcDbLine
 10
44.4117929479
 20
22.2136288418
 30
0.0
 11
42.802417914
 21
21.1219633761
 31
0.0
  0
LINE
  5
281
330
1F
100
AcDbEntity
  8
0
  6
Continuous
 62
     7
370
    25
100
AcDbLine
 10
45.4540683434
 20
19.5911981664
 30
0.0
 11
42.802417914
 21
21.1219633761
 31
0.0
  0
LINE
  5
282
330
1F
100
AcDbEntity
  8
0
  6
Continuous
 62
     7
370
    25
100
AcDbLine
 10
45.4540683434
 20
19.5911981664
 30
0.0
 11
46.1691595978
 21
20.0762562858
 31
0.0
  0
LINE
  5
283
330
1F
100
AcDbEntity
  8
0
  6
Continuous
 62
     7
370
    25
100
AcDbLine
 10
46.1691595978
 20
21.1991226692
 30
0.0
 11
44.4117929479
 21
22.2136288418
 31
0.0
  0
LINE
  5
284
330
1F
100
AcDbEntity
  8
0
  6
Continuous
 62
     7
370
    25
100
AcDbLine
 10
44.3707807546
 20
27.4877019953
 30
0.0
 11
44.3000700765
 21
27.5285224009
 31
0.0
  0
LINE
  5
285
330
1F
100
AcDbEntity
  8
0
  6
Continuous
 62
     7
370
    25
100
AcDbLine
 10
44.3000700765
 20
27.5285224009
 30
0.0
 11
42.8451398146
 21
26.8488598598
 31
0.0
  0
LINE
  5
286
330
1F
100
AcDbEntity
  8
0
  6
Continuous
 62
     7
370
    25
100
AcDbLine
 10
42.1453149963
 20
25.9630303036
 30
0.0
 11
41.6284701371
 21
25.6697866011
 31
0.0
  0
LINE
  5
287
330
1F
100
AcDbEntity
  8
0
  6
Continuous
 62
     7
370
    25
100
AcDbLine
 10
41.6284701371
 20
25.6533324425
 30
0.0
 11
42.187067834
 21
25.9389269035
 31
0.0
  0
LINE
  5
288
330
1F
100
AcDbEntity
  8
0
  6
Continuous
 62
     7
370
    25
100
AcDbLine
 10
42.9655511825
 20
26.3369423868
 30
0.0
 11
44.058771129
 21
26.8958733724
 31
0.0
  0
LINE
  5
289
330
1F
100
AcDbEntity
  8
0
  6
Continuous
 62
     7
370
    25
100
AcDbLine
 10
44.058771129
 20
26.2238709965
 30
0.0
 11
43.5744826038
 21
25.9854137597
 31
0.0
  0
LINE
  5
28A
330
1F
100
AcDbEntity
  8
0
  6
Continuous
 62
     7
370
    25
100
AcDbLine
 10
42.7822561732
 20
25.5953319888
 30
0.0
 11
41.6284701371
 21
25.027223071
 31
0.0
  0
LWPOLYLINE
  5
28B
330
1F
100
AcDbEntity
  8
0
  6
Continuous
 62
     7
370
    25
100
AcDbPolyline
 90
       10
 70
   128
 43
0.0
 10
43.5939719053
 20
26.2286377656
 10
43.6249470107
 20
26.2500911703
 10
43.6521860613
 20
26.2807754025
 10
43.6724036255
 20
26.3169894909
 10
43.6831611668
 20
26.3543654821
 10
43.6831611668
 20
26.3883952799
 10
43.6724036255
 20
26.4149743884
 10
43.6521860613
 20
26.4308969749
 10
43.6249470107
 20
26.4342425404
 10
43.5939719053
 20
26.4246075605
  0
LINE
  5
28C
330
1F
100
AcDbEntity
  8
0
  6
Continuous
 62
     7
370
    25
100
AcDbLine
 10
43.5939719053
 20
26.4246075605
 30
0.0
 11
43.176551883
 21
26.2151342751
 31
0.0
  0
LINE
  5
28D
330
1F
100
AcDbEntity
  8
0
  6
Continuous
 62
     7
370
    25
100
AcDbLine
 10
42.3912571167
 20
25.8210509396
 30
0.0
 11
41.8128572959
 21
25.5307933951
 31
0.0
  0
LWPOLYLINE
  5
28E
330
1F
100
AcDbEntity
  8
0
  6
Continuous
 62
     7
370
    25
100
AcDbPolyline
 90
       10
 70
   128
 43
0.0
 10
41.8128572959
 20
25.5307933951
 10
41.7818821905
 20
25.5093399904
 10
41.7546431399
 20
25.4786557582
 10
41.7344255757
 20
25.4424416698
 10
41.7236680344
 20
25.4050656786
 10
41.7236680344
 20
25.3710358808
 10
41.7344255757
 20
25.3444567723
 10
41.7546431399
 20
25.3285341858
 10
41.7818821905
 20
25.3251886203
 10
41.8128572959
 20
25.3348236002
  0
LINE
  5
28F
330
1F
100
AcDbEntity
  8
0
  6
Continuous
 62
     7
370
    25
100
AcDbLine
 10
41.8128572959
 20
25.3348236002
 30
0.0
 11
42.5728592307
 21
25.7162142707
 31
0.0
  0
LINE
  5
290
330
1F
100
AcDbEntity
  8
0
  6
Continuous
 62
     7
370
    25
100
AcDbLine
 10
43.358153997
 20
26.1102976062
 30
0.0
 11
43.5939719053
 21
26.2286377656
 31
0.0
  0
LINE
  5
291
330
1F
100
AcDbEntity
  8
0
  6
Continuous
 62
     7
370
    25
100
AcDbLine
 10
41.8128572959
 20
25.3348236002
 30
0.0
 11
41.7446539799
 21
25.3801169822
 31
0.0
  0
LINE
  5
292
330
1F
100
AcDbEntity
  8
0
  6
Continuous
 62
     7
370
    25
100
AcDbLine
 10
42.4222347822
 20
25.8031679139
 30
0.0
 11
41.7229500217
 21
25.3994794144
 31
0.0
  0
LINE
  5
293
330
1F
100
AcDbEntity
  8
0
  6
Continuous
 62
     7
370
    25
100
AcDbLine
 10
43.9251998677
 20
24.6620780263
 30
0.0
 11
41.6284701371
 21
23.3589761035
 31
0.0
  0
LINE
  5
294
330
1F
100
AcDbEntity
  8
0
  6
Continuous
 62
     7
370
    25
100
AcDbLine
 10
41.7446539799
 20
25.3801169822
 30
0.0
 11
41.7234692759
 21
25.3722043238
 31
0.0
  0
LINE
  5
295
330
1F
100
AcDbEntity
  8
0
  6
Continuous
 62
     7
370
    25
100
AcDbLine
 10
43.5939719053
 20
26.2286377656
 30
0.0
 11
43.5257685892
 21
26.2739311476
 31
0.0
  0
LINE
  5
296
330
1F
100
AcDbEntity
  8
0
  6
Continuous
 62
     7
370
    25
100
AcDbLine
 10
44.4117929479
 20
22.2136288418
 30
0.0
 11
44.4117929479
 21
22.1316628553
 31
0.0
  0
LINE
  5
297
330
1F
100
AcDbEntity
  8
0
  6
Continuous
 62
     7
370
    25
100
AcDbLine
 10
46.1691595978
 20
21.1171566827
 30
0.0
 11
44.4117929479
 21
22.1316628553
 31
0.0
  0
LINE
  5
298
330
1F
100
AcDbEntity
  8
0
  6
Continuous
 62
     7
370
    25
100
AcDbLine
 10
41.6284701371
 20
23.3425219449
 30
0.0
 11
44.058771129
 21
24.5850628748
 31
0.0
  0
LINE
  5
299
330
1F
100
AcDbEntity
  8
0
  6
Continuous
 62
     7
370
    25
100
AcDbLine
 10
44.058771129
 20
23.9130604988
 30
0.0
 11
41.6284701371
 21
22.7164125733
 31
0.0
  0
LWPOLYLINE
  5
29A
330
1F
100
AcDbEntity
  8
0
  6
Continuous
 62
     7
370
    25
100
AcDbPolyline
 90
       10
 70
   128
 43
0.0
 10
41.8128572959
 20
23.0240131026
 10
41.7818821905
 20
23.0143781226
 10
41.7546431399
 20
23.0177236882
 10
41.7344255757
 20
23.0336462747
 10
41.7236680344
 20
23.0602253832
 10
41.7236680344
 20
23.0942551809
 10
41.7344255757
 20
23.1316311721
 10
41.7546431399
 20
23.1678452606
 10
41.7818821905
 20
23.1985294928
 10
41.8128572959
 20
23.2199828974
  0
LINE
  5
29B
330
1F
100
AcDbEntity
  8
0
  6
Continuous
 62
     7
370
    25
100
AcDbLine
 10
43.5939719053
 20
23.917827268
 30
0.0
 11
41.8128572959
 21
23.0240131026
 31
0.0
  0
LWPOLYLINE
  5
29C
330
1F
100
AcDbEntity
  8
0
  6
Continuous
 62
     7
370
    25
100
AcDbPolyline
 90
       10
 70
   128
 43
0.0
 10
43.5939719053
 20
24.1137970628
 10
43.6249470107
 20
24.1234320428
 10
43.6521860613
 20
24.1200864772
 10
43.6724036255
 20
24.1041638907
 10
43.6831611668
 20
24.0775847822
 10
43.6831611668
 20
24.0435549845
 10
43.6724036255
 20
24.0061789933
 10
43.6521860613
 20
23.9699649049
 10
43.6249470107
 20
23.9392806727
 10
43.5939719053
 20
23.917827268
  0
LINE
  5
29D
330
1F
100
AcDbEntity
  8
0
  6
Continuous
 62
     7
370
    25
100
AcDbLine
 10
41.8128572959
 20
23.2199828974
 30
0.0
 11
43.5939719053
 21
24.1137970628
 31
0.0
  0
ARC
  5
29E
330
1F
100
AcDbEntity
  8
0
  6
Continuous
 62
     7
370
    25
100
AcDbCircle
 10
43.448203229
 20
26.4221366299
 30
0.0
 40
0.1672759698782378
100
AcDbArc
 50
297.6259246625
 51
3.5589006637
  0
LINE
  5
29F
330
1F
100
AcDbEntity
  8
0
  6
Continuous
 62
     7
370
    25
100
AcDbLine
 10
41.8128572959
 20
23.0240131026
 30
0.0
 11
41.7446539799
 21
23.0693064846
 31
0.0
  0
LINE
  5
2A0
330
1F
100
AcDbEntity
  8
0
  6
Continuous
 62
     7
370
    25
100
AcDbLine
 10
41.7229500217
 20
23.0886689168
 30
0.0
 11
42.8652360389
 21
23.7480965982
 31
0.0
  0
LINE
  5
2A1
330
1F
100
AcDbEntity
  8
0
  6
Continuous
 62
     7
370
    25
100
AcDbLine
 10
43.5257685892
 20
23.96312065
 30
0.0
 11
41.8128572959
 21
23.0240131026
 31
0.0
  0
LINE
  5
2A2
330
1F
100
AcDbEntity
  8
0
  6
Continuous
 62
     7
370
    25
100
AcDbLine
 10
43.9251998677
 20
23.5359277518
 30
0.0
 11
41.4430005561
 21
21.9925272645
 31
0.0
  0
LINE
  5
2A3
330
1F
100
AcDbEntity
  8
0
  6
Continuous
 62
     7
370
    25
100
AcDbLine
 10
41.7446539799
 20
23.0693064846
 30
0.0
 11
41.7234692759
 21
23.0613938262
 31
0.0
  0
LINE
  5
2A4
330
1F
100
AcDbEntity
  8
0
  6
Continuous
 62
     7
370
    25
100
AcDbLine
 10
43.5939719053
 20
23.917827268
 30
0.0
 11
43.5257685892
 21
23.96312065
 31
0.0
  0
LINE
  5
2A5
330
1F
100
AcDbEntity
  8
0
  6
Continuous
 62
     7
370
    25
100
AcDbLine
 10
44.4117929479
 20
22.1316628553
 30
0.0
 11
42.802417914
 21
21.1219633761
 31
0.0
  0
LINE
  5
2A6
330
1F
100
AcDbEntity
  8
0
  6
Continuous
 62
     7
370
    25
100
AcDbLine
 10
44.4117929479
 20
22.1316628553
 30
0.0
 11
42.8676980339
 21
21.084277965
 31
0.0
  0
LINE
  5
2A7
330
1F
100
AcDbEntity
  8
0
  6
Continuous
 62
     7
370
    25
100
AcDbLine
 10
44.3459284025
 20
25.5909100451
 30
0.0
 11
44.3459284025
 21
25.5400675796
 31
0.0
  0
LINE
  5
2A8
330
1F
100
AcDbEntity
  8
0
  6
Continuous
 62
     7
370
    25
100
AcDbLine
 10
44.3423928686
 20
25.5888690248
 30
0.0
 11
44.3459284025
 21
25.5909100451
 31
0.0
  0
LINE
  5
2A9
330
1F
100
AcDbEntity
  8
0
  6
Continuous
 62
     7
370
    25
100
AcDbLine
 10
44.3423928686
 20
25.6155291501
 30
0.0
 11
44.3423928686
 21
25.5888690248
 31
0.0
  0
LINE
  5
2AA
330
1F
100
AcDbEntity
  8
0
  6
Continuous
 62
     7
370
    25
100
AcDbLine
 10
44.3423928686
 20
25.6155291501
 30
0.0
 11
44.3494639364
 21
25.6196111907
 31
0.0
  0
LINE
  5
2AB
330
1F
100
AcDbEntity
  8
0
  6
Continuous
 62
     7
370
    25
100
AcDbLine
 10
44.3423928686
 20
25.6155291501
 30
0.0
 11
44.2320842107
 21
25.6792089829
 31
0.0
  0
LINE
  5
2AC
330
1F
100
AcDbEntity
  8
0
  6
Continuous
 62
     7
370
    25
100
AcDbLine
 10
44.2977537562
 20
25.5678782109
 30
0.0
 11
44.3423928686
 21
25.5888690248
 31
0.0
  0
LINE
  5
2AD
330
1F
100
AcDbEntity
  8
0
  6
Continuous
 62
     7
370
    25
100
AcDbLine
 10
44.2514466647
 20
25.5946107259
 30
0.0
 11
44.2872385397
 21
25.6114412708
 31
0.0
  0
LINE
  5
2AE
330
1F
100
AcDbEntity
  8
0
  6
Continuous
 62
     7
370
    25
100
AcDbLine
 10
44.2320842107
 20
25.6432811871
 30
0.0
 11
44.2872385397
 21
25.6114412708
 31
0.0
  0
LINE
  5
2AF
330
1F
100
AcDbEntity
  8
0
  6
Continuous
 62
     7
370
    25
100
AcDbLine
 10
44.2320842107
 20
25.6432811871
 30
0.0
 11
44.2320842107
 21
25.6792089829
 31
0.0
  0
LINE
  5
2B0
330
1F
100
AcDbEntity
  8
0
  6
Continuous
 62
     7
370
    25
100
AcDbLine
 10
44.2320842107
 20
25.6792089829
 30
0.0
 11
44.2356197446
 21
25.6812500031
 31
0.0
  0
LINE
  5
2B1
330
1F
100
AcDbEntity
  8
0
  6
Continuous
 62
     7
370
    25
100
AcDbLine
 10
44.2356197446
 20
25.6812500031
 30
0.0
 11
44.1104618444
 21
25.753502121
 31
0.0
  0
LINE
  5
2B2
330
1F
100
AcDbEntity
  8
0
  6
Continuous
 62
     7
370
    25
100
AcDbLine
 10
44.1104618444
 20
25.753502121
 30
0.0
 11
44.1139973783
 21
25.7555431413
 31
0.0
  0
LINE
  5
2B3
330
1F
100
AcDbEntity
  8
0
  6
Continuous
 62
     7
370
    25
100
AcDbLine
 10
44.1104618444
 20
25.753502121
 30
0.0
 11
44.1104618444
 21
25.6759995302
 31
0.0
  0
LINE
  5
2B4
330
1F
100
AcDbEntity
  8
0
  6
Continuous
 62
     7
370
    25
100
AcDbLine
 10
44.2510853421
 20
25.594819313
 30
0.0
 11
44.286877217
 21
25.6116498579
 31
0.0
  0
ARC
  5
2B5
330
1F
100
AcDbEntity
  8
0
  6
Continuous
 62
     7
370
    25
100
AcDbCircle
 10
43.448203229
 20
24.1113261323
 30
0.0
 40
0.1672759698777933
100
AcDbArc
 50
297.6259246624
 51
3.5589006643
  0
ARC
  5
2B6
330
1F
100
AcDbEntity
  8
0
  6
Continuous
 62
     7
370
    25
100
AcDbCircle
 10
46.8166552594
 20
23.6430514639
 30
0.0
 40
0.1988201977869571
100
AcDbArc
 50
2.6054784857
 51
57.39452166
  0
ARC
  5
2B7
330
1F
100
AcDbEntity
  8
0
  6
Continuous
 62
     7
370
    25
100
AcDbCircle
 10
47.0196445039
 20
23.8059599729
 30
0.0
 40
0.0959639661193179
100
AcDbArc
 50
124.4666427829
 51
177.2657631001
  0
ARC
  5
2B8
330
1F
100
AcDbEntity
  8
0
  6
Continuous
 62
     7
370
    25
100
AcDbCircle
 10
46.8069290247
 20
23.6374361592
 30
0.0
 40
0.2939715153266216
100
AcDbArc
 50
2.6054784857
 51
57.39452166
  0
ARC
  5
2B9
330
1F
100
AcDbEntity
  8
0
  6
Continuous
 62
     7
370
    25
100
AcDbCircle
 10
47.059232744
 20
23.7374060294
 30
0.0
 40
0.0959772587698781
100
AcDbArc
 50
242.7383566722
 51
295.5295163489
  0
ARC
  5
2BA
330
1F
100
AcDbEntity
  8
0
  6
Continuous
 62
     7
370
    25
100
AcDbCircle
 10
46.9172669498
 20
23.7011328216
 30
0.0
 40
0.3073609615144264
100
AcDbArc
 50
2.6054784857
 51
57.39452166
  0
LINE
  5
2BB
330
1F
100
AcDbEntity
  8
0
  6
Continuous
 62
     7
370
    25
100
AcDbLine
 10
47.1005966404
 20
23.6507996655
 30
0.0
 11
47.2243101701
 21
23.7151049921
 31
0.0
  0
LINE
  5
2BC
330
1F
100
AcDbEntity
  8
0
  6
Continuous
 62
     7
370
    25
100
AcDbLine
 10
46.9653359678
 20
23.885078022
 30
0.0
 11
47.0828888139
 21
23.9600539657
 31
0.0
  0
LINE
  5
2BD
330
1F
100
AcDbEntity
  8
0
  6
Continuous
 62
     7
370
    25
100
AcDbLine
 10
47.0152699223
 20
17.4986379749
 30
0.0
 11
47.0152699223
 21
23.6520895333
 31
0.0
  0
ARC
  5
2BE
330
1F
100
AcDbEntity
  8
0
  6
Continuous
 62
     7
370
    25
100
AcDbCircle
 10
46.9595007768
 20
17.4895913224
 30
0.0
 40
0.0564981372912987
100
AcDbArc
 50
230.7967147643
 51
9.2140369905
  0
LINE
  5
2BF
330
1F
100
AcDbEntity
  8
0
  6
Continuous
 62
     7
370
    25
100
AcDbLine
 10
40.5188165641
 20
21.1433227882
 30
0.0
 11
46.9237897881
 21
17.4458104498
 31
0.0
  0
ARC
  5
2C0
330
1F
100
AcDbEntity
  8
0
  6
Continuous
 62
     7
370
    25
100
AcDbCircle
 10
40.6259510929
 20
21.3108090975
 30
0.0
 40
0.1988201977870141
100
AcDbArc
 50
182.6054784857
 51
237.39452166
  0
LINE
  5
2C1
330
1F
100
AcDbEntity
  8
0
  6
Continuous
 62
     7
370
    25
100
AcDbLine
 10
40.4273364299
 20
27.4552225865
 30
0.0
 11
40.4273364299
 21
21.3017710282
 31
0.0
  0
ARC
  5
2C2
330
1F
100
AcDbEntity
  8
0
  6
Continuous
 62
     7
370
    25
100
AcDbCircle
 10
40.4831055754
 20
27.4642692391
 30
0.0
 40
0.056498137291294
100
AcDbArc
 50
50.7967147643
 51
189.2140369905
  0
LINE
  5
2C3
330
1F
100
AcDbEntity
  8
0
  6
Continuous
 62
     7
370
    25
100
AcDbLine
 10
46.9237897881
 20
23.8105377732
 30
0.0
 11
40.5188165641
 21
27.5080501117
 31
0.0
  0
LWPOLYLINE
  5
2C4
330
1F
100
AcDbEntity
  8
0
  6
Continuous
 62
     7
370
    25
100
AcDbPolyline
 90
       22
 70
   128
 43
0.0
 10
41.2711781793
 20
26.265449745
 10
41.3060890959
 20
26.2513724352
 10
41.3378980243
 20
26.250698623
 10
41.3637786018
 20
26.2634881794
 10
41.3814312253
 20
26.2886046964
 10
41.3892873818
 20
26.323816461
 10
41.3866490174
 20
26.3659947536
 10
41.3737505623
 20
26.4113918477
 10
41.3517381008
 20
26.4559740123
 10
41.3225675368
 20
26.4957799264
 10
41.2888308028
 20
26.5272726599
 10
41.2535255558
 20
26.5476539452
 10
41.2197888218
 20
26.5551128156
 10
41.1906182578
 20
26.5489865179
 10
41.1686057963
 20
26.5298194003
 10
41.1557073412
 20
26.4993145455
 10
41.1530689768
 20
26.4601824436
 10
41.1609251333
 20
26.4159001537
 10
41.1785777569
 20
26.3704023515
 10
41.2044583343
 20
26.3277317164
 10
41.2362672627
 20
26.2916797216
 10
41.2711781793
 20
26.265449745
  0
LWPOLYLINE
  5
2C5
330
1F
100
AcDbEntity
  8
0
  6
Continuous
 62
     7
370
    25
100
AcDbPolyline
 90
       22
 70
   128
 43
0.0
 10
41.2711781793
 20
21.5172649239
 10
41.2362672627
 20
21.5313422337
 10
41.2044583343
 20
21.5320160459
 10
41.1785777569
 20
21.5192264895
 10
41.1609251333
 20
21.4941099726
 10
41.1530689768
 20
21.4588982079
 10
41.1557073412
 20
21.4167199153
 10
41.1686057963
 20
21.3713228212
 10
41.1906182578
 20
21.3267406566
 10
41.2197888218
 20
21.2869347425
 10
41.2535255558
 20
21.255442009
 10
41.2888308028
 20
21.2350607237
 10
41.3225675368
 20
21.2276018533
 10
41.3517381008
 20
21.2337281511
 10
41.3737505623
 20
21.2528952686
 10
41.3866490174
 20
21.2834001234
 10
41.3892873818
 20
21.3225322253
 10
41.3814312253
 20
21.3668145153
 10
41.3637786018
 20
21.4123123175
 10
41.3378980243
 20
21.4549829526
 10
41.3060890959
 20
21.4910349474
 10
41.2711781793
 20
21.5172649239
  0
LWPOLYLINE
  5
2C6
330
1F
100
AcDbEntity
  8
0
  6
Continuous
 62
     7
370
    25
100
AcDbPolyline
 90
       22
 70
   128
 43
0.0
 10
46.2074906188
 20
18.3940512376
 10
46.2424015354
 20
18.3799739278
 10
46.2742104638
 20
18.3793001156
 10
46.3000910412
 20
18.392089672
 10
46.3177436647
 20
18.417206189
 10
46.3255998213
 20
18.4524179536
 10
46.3229614569
 20
18.4945962462
 10
46.3100630018
 20
18.5399933403
 10
46.2880505403
 20
18.5845755049
 10
46.2588799762
 20
18.624381419
 10
46.2251432423
 20
18.6558741525
 10
46.1898379953
 20
18.6762554378
 10
46.1561012613
 20
18.6837143082
 10
46.1269306973
 20
18.6775880104
 10
46.1049182358
 20
18.6584208929
 10
46.0920197807
 20
18.6279160381
 10
46.0893814163
 20
18.5887839362
 10
46.0972375728
 20
18.5445016463
 10
46.1148901963
 20
18.4990038441
 10
46.1407707737
 20
18.456333209
 10
46.1725797022
 20
18.4202812142
 10
46.2074906188
 20
18.3940512376
  0
LWPOLYLINE
  5
2C7
330
1F
100
AcDbEntity
  8
0
  6
Continuous
 62
     7
370
    25
100
AcDbPolyline
 90
       22
 70
   128
 43
0.0
 10
46.2074906188
 20
23.6893184027
 10
46.1725797022
 20
23.7033957125
 10
46.1407707737
 20
23.7040695247
 10
46.1148901963
 20
23.6912799683
 10
46.0972375728
 20
23.6661634513
 10
46.0893814163
 20
23.6309516867
 10
46.0920197807
 20
23.5887733941
 10
46.1049182358
 20
23.5433763
 10
46.1269306973
 20
23.4987941354
 10
46.1561012613
 20
23.4589882213
 10
46.1898379953
 20
23.4274954878
 10
46.2251432423
 20
23.4071142025
 10
46.2588799762
 20
23.3996553321
 10
46.2880505403
 20
23.4057816299
 10
46.3100630018
 20
23.4249487474
 10
46.3229614569
 20
23.4554536022
 10
46.3255998213
 20
23.4945857041
 10
46.3177436647
 20
23.538867994
 10
46.3000910412
 20
23.5843657962
 10
46.2742104638
 20
23.6270364313
 10
46.2424015354
 20
23.6630884261
 10
46.2074906188
 20
23.6893184027
  0
LINE
  5
2C8
330
1F
100
AcDbEntity
  8
0
  6
Continuous
 62
     7
370
    25
100
AcDbLine
 10
41.9888915622
 20
26.0277336697
 30
0.0
 11
41.8121148669
 21
26.1297846837
 31
0.0
  0
LWPOLYLINE
  5
2C9
330
1F
100
AcDbEntity
  8
0
  6
Continuous
 62
     7
370
    25
100
AcDbPolyline
 90
       12
 70
   128
 43
0.0
 10
41.8121148669
 20
26.1297846837
 10
41.7354544016
 20
26.1677084185
 10
41.6603545223
 20
26.192197316
 10
41.588344046
 20
26.2027528526
 10
41.5208888982
 20
26.1991601483
 10
41.4593622714
 20
26.1814923399
 10
41.4050166702
 20
26.1501090933
 10
41.3589584142
 20
26.1056492808
 10
41.3221251169
 20
26.0490179759
 10
41.2952665978
 20
25.9813680287
 10
41.2789296191
 20
25.904076597
 10
41.2734467544
 20
25.8187171116
  0
LINE
  5
2CA
330
1F
100
AcDbEntity
  8
0
  6
Continuous
 62
     7
370
    25
100
AcDbLine
 10
41.2734467544
 20
25.8187171116
 30
0.0
 11
41.2734467544
 21
21.9613783163
 31
0.0
  0
ARC
  5
2CB
330
1F
100
AcDbEntity
  8
0
  6
Continuous
 62
     7
370
    25
100
AcDbCircle
 10
42.4384281588
 20
22.0119802871
 30
0.0
 40
1.166079856626098
100
AcDbArc
 50
182.487128189
 51
237.5128719567
  0
LINE
  5
2CC
330
1F
100
AcDbEntity
  8
0
  6
Continuous
 62
     7
370
    25
100
AcDbLine
 10
41.8121148669
 20
21.0283777797
 30
0.0
 11
41.9888915622
 21
20.9263267657
 31
0.0
  0
LINE
  5
2CD
330
1F
100
AcDbEntity
  8
0
  6
Continuous
 62
     7
370
    25
100
AcDbLine
 10
41.9888915622
 20
20.9007244146
 30
0.0
 11
41.9888915622
 21
20.9263267657
 31
0.0
  0
LINE
  5
2CE
330
1F
100
AcDbEntity
  8
0
  6
Continuous
 62
     7
370
    25
100
AcDbLine
 10
41.9888915622
 20
20.9007244146
 30
0.0
 11
45.45371479
 21
18.9005245406
 31
0.0
  0
LINE
  5
2CF
330
1F
100
AcDbEntity
  8
0
  6
Continuous
 62
     7
370
    25
100
AcDbLine
 10
45.45371479
 20
18.9005245406
 30
0.0
 11
45.45371479
 21
18.9261268918
 31
0.0
  0
LINE
  5
2D0
330
1F
100
AcDbEntity
  8
0
  6
Continuous
 62
     7
370
    25
100
AcDbLine
 10
45.45371479
 20
18.9261268918
 30
0.0
 11
45.6304914853
 21
18.8240758778
 31
0.0
  0
LWPOLYLINE
  5
2D1
330
1F
100
AcDbEntity
  8
0
  6
Continuous
 62
     7
370
    25
100
AcDbPolyline
 90
       12
 70
   128
 43
0.0
 10
45.6304914853
 20
18.8240758778
 10
45.7071519506
 20
18.7861521429
 10
45.78225183
 20
18.7616632455
 10
45.8542623063
 20
18.7511077088
 10
45.921717454
 20
18.7547004132
 10
45.9832440808
 20
18.7723682215
 10
46.0375896821
 20
18.8037514682
 10
46.083647938
 20
18.8482112807
 10
46.1204812353
 20
18.9048425856
 10
46.1473397544
 20
18.9724925328
 10
46.1636767331
 20
19.0497839644
 10
46.1691595978
 20
19.1351434499
  0
LINE
  5
2D2
330
1F
100
AcDbEntity
  8
0
  6
Continuous
 62
     7
370
    25
100
AcDbLine
 10
46.1691595978
 20
19.1351434499
 30
0.0
 11
46.1691595978
 21
22.9924822452
 31
0.0
  0
ARC
  5
2D3
330
1F
100
AcDbEntity
  8
0
  6
Continuous
 62
     7
370
    25
100
AcDbCircle
 10
45.0041781934
 20
22.9418802744
 30
0.0
 40
1.166079856626144
100
AcDbArc
 50
2.487128189
 51
57.5128719567
  0
LINE
  5
2D4
330
1F
100
AcDbEntity
  8
0
  6
Continuous
 62
     7
370
    25
100
AcDbLine
 10
45.6304914853
 20
23.9254827818
 30
0.0
 11
45.45371479
 21
24.0275337957
 31
0.0
  0
LINE
  5
2D5
330
1F
100
AcDbEntity
  8
0
  6
Continuous
 62
     7
370
    25
100
AcDbLine
 10
45.45371479
 20
24.0531361469
 30
0.0
 11
45.45371479
 21
24.0275337957
 31
0.0
  0
LINE
  5
2D6
330
1F
100
AcDbEntity
  8
0
  6
Continuous
 62
     7
370
    25
100
AcDbLine
 10
45.45371479
 20
24.0531361469
 30
0.0
 11
41.9888915622
 21
26.0533360208
 31
0.0
  0
LINE
  5
2D7
330
1F
100
AcDbEntity
  8
0
  6
Continuous
 62
     7
370
    25
100
AcDbLine
 10
41.9888915622
 20
26.0533360208
 30
0.0
 11
41.9888915622
 21
26.0277336697
 31
0.0
  0
LINE
  5
2D8
330
1F
100
AcDbEntity
  8
0
  6
Continuous
 62
     7
370
    25
100
AcDbLine
 10
47.1005966404
 20
23.6507996655
 30
0.0
 11
47.1005966404
 21
17.4973481071
 31
0.0
  0
ARC
  5
2D9
330
1F
100
AcDbEntity
  8
0
  6
Continuous
 62
     7
370
    25
100
AcDbCircle
 10
47.059232744
 20
17.5839544711
 30
0.0
 40
0.0959772587698398
100
AcDbArc
 50
242.7383566722
 51
295.529516349
  0
ARC
  5
2DA
330
1F
100
AcDbEntity
  8
0
  6
Continuous
 62
     7
370
    25
100
AcDbCircle
 10
40.6146712799
 20
27.5034723113
 30
0.0
 40
0.0959639661192722
100
AcDbArc
 50
124.4666427828
 51
177.2657631002
  0
LINE
  5
2DB
330
1F
100
AcDbEntity
  8
0
  6
Continuous
 62
     7
370
    25
100
AcDbLine
 10
40.5603627438
 20
27.5825903605
 30
0.0
 11
46.9653359678
 21
23.885078022
 31
0.0
  0
LINE
  5
2DC
330
1F
100
AcDbEntity
  8
0
  6
Continuous
 62
     7
370
    25
100
AcDbLine
 10
47.1005966404
 20
17.4973481071
 30
0.0
 11
47.2243101701
 21
17.5616534337
 31
0.0
  0
LINE
  5
2DD
330
1F
100
AcDbEntity
  8
0
  6
Continuous
 62
     7
370
    25
100
AcDbLine
 10
47.2243101701
 20
17.5616534337
 30
0.0
 11
47.2243101701
 21
23.7151049921
 31
0.0
  0
LINE
  5
2DE
330
1F
100
AcDbEntity
  8
0
  6
Continuous
 62
     7
370
    25
100
AcDbLine
 10
40.5603627438
 20
27.5825903605
 30
0.0
 11
40.6779155899
 21
27.6575663041
 31
0.0
  0
LINE
  5
2DF
330
1F
100
AcDbEntity
  8
0
  6
Continuous
 62
     7
370
    25
100
AcDbLine
 10
47.0828888139
 20
23.9600539657
 30
0.0
 11
40.6779155899
 21
27.6575663041
 31
0.0
  0
ARC
  5
2E0
330
1F
100
AcDbEntity
  8
0
  6
Continuous
 62
     7
370
    25
100
AcDbCircle
 10
46.4068007703
 20
23.6676071181
 30
0.0
 40
0.2299805630314981
100
AcDbArc
 50
171.4884562007
 51
248.5061672666
  0
LWPOLYLINE
  5
2E1
330
1F
100
AcDbEntity
  8
0
  6
Continuous
 62
     7
370
    25
100
AcDbPolyline
 90
        9
 70
   128
 43
0.0
 10
46.2397643635
 20
23.6655116028
 10
46.2368145065
 20
23.6601489845
 10
46.2322393561
 20
23.6362296482
 10
46.2368145065
 20
23.6070279556
 10
46.2498434325
 20
23.5769895998
 10
46.2693425983
 20
23.5506876482
 10
46.2923434325
 20
23.5321263344
 10
46.3153442668
 20
23.5241314502
 10
46.3214543217
 20
23.5240051122
  0
LINE
  5
2E2
330
1F
100
AcDbEntity
  8
0
  6
Continuous
 62
     7
370
    25
100
AcDbLine
 10
42.0122888474
 20
26.0398246647
 30
0.0
 11
41.9888915622
 21
26.0533360208
 31
0.0
  0
LINE
  5
2E3
330
1F
100
AcDbEntity
  8
0
  6
Continuous
 62
     7
370
    25
100
AcDbLine
 10
42.0122888474
 20
26.0398246647
 30
0.0
 11
45.45371479
 21
24.053131756
 31
0.0
  0
LINE
  5
2E4
330
1F
100
AcDbEntity
  8
0
  6
Continuous
 62
     7
370
    25
100
AcDbLine
 10
45.6304914853
 20
18.8240758778
 30
0.0
 11
45.7895905111
 21
18.9255502358
 31
0.0
  0
ARC
  5
2E5
330
1F
100
AcDbEntity
  8
0
  6
Continuous
 62
     7
370
    25
100
AcDbCircle
 10
46.0216753354
 20
19.2681589636
 30
0.0
 40
0.4138165126034855
100
AcDbArc
 50
235.8860955175
 51
279.9598468181
  0
ARC
  5
2E6
330
1F
100
AcDbEntity
  8
0
  6
Continuous
 62
     7
370
    25
100
AcDbCircle
 10
47.1278608276
 20
17.550527368
 30
0.0
 40
0.0970889541221183
100
AcDbArc
 50
301.8577803584
 51
6.580359113
  0
LINE
  5
2E7
330
1F
100
AcDbEntity
  8
0
  6
Continuous
 62
     7
370
    25
100
AcDbLine
 10
46.2923434325
 20
18.4447460571
 30
0.0
 11
46.3225356447
 21
18.4318940974
 31
0.0
  0
ARC
  5
2E8
330
1F
100
AcDbEntity
  8
0
  6
Continuous
 62
     7
370
    25
100
AcDbCircle
 10
46.4135392736
 20
18.6477053723
 30
0.0
 40
0.2363914455881196
100
AcDbArc
 50
172.1674933826
 51
239.1567362668
  0
LINE
  5
2E9
330
1F
100
AcDbEntity
  8
0
  6
Continuous
 62
     7
370
    25
100
AcDbLine
 10
41.9888915622
 20
26.0277336697
 30
0.0
 11
42.0122888474
 21
26.0398246647
 31
0.0
  0
LWPOLYLINE
  5
2EA
330
1F
100
AcDbEntity
  8
0
  6
Continuous
 62
     7
370
    25
100
AcDbPolyline
 90
        3
 70
   128
 43
0.0
 10
46.2923434325
 20
18.5104003413
 10
46.3153442668
 20
18.5024054571
 10
46.3214543217
 20
18.5022791191
  0
LWPOLYLINE
  5
2EB
330
1F
100
AcDbEntity
  8
0
  6
Continuous
 62
     7
370
    25
100
AcDbPolyline
 90
        7
 70
   128
 43
0.0
 10
46.2397643635
 20
18.6437856097
 10
46.2368145065
 20
18.6384229914
 10
46.2322393561
 20
18.6145036551
 10
46.2368145065
 20
18.5853019625
 10
46.2498434325
 20
18.5552636067
 10
46.2693425983
 20
18.5289616551
 10
46.2923434325
 20
18.5104003413
  0
LINE
  5
2EC
330
1F
100
AcDbEntity
  8
0
  6
Continuous
 62
     7
370
    25
100
AcDbLine
 10
41.2734467544
 20
25.8187171116
 30
0.0
 11
41.4408838068
 21
25.9057495839
 31
0.0
  0
ARC
  5
2ED
330
1F
100
AcDbEntity
  8
0
  6
Continuous
 62
     7
370
    25
100
AcDbCircle
 10
41.8643666784
 20
25.9320170323
 30
0.0
 40
0.4242967374456147
100
AcDbArc
 50
140.6052561832
 51
183.5493484205
  0
LINE
  5
2EE
330
1F
100
AcDbEntity
  8
0
  6
Continuous
 62
     7
370
    25
100
AcDbLine
 10
41.3560309931
 20
26.3161445645
 30
0.0
 11
41.3862232052
 21
26.3032926048
 31
0.0
  0
ARC
  5
2EF
330
1F
100
AcDbEntity
  8
0
  6
Continuous
 62
     7
370
    25
100
AcDbCircle
 10
41.4772268341
 20
26.5191038798
 30
0.0
 40
0.2363914455835109
100
AcDbArc
 50
172.1674933793
 51
239.1567362673
  0
LWPOLYLINE
  5
2F0
330
1F
100
AcDbEntity
  8
0
  6
Continuous
 62
     7
370
    25
100
AcDbPolyline
 90
        3
 70
   128
 43
0.0
 10
41.3560309931
 20
26.3817988487
 10
41.3790318273
 20
26.3738039645
 10
41.3851418823
 20
26.3736776265
  0
LWPOLYLINE
  5
2F1
330
1F
100
AcDbEntity
  8
0
  6
Continuous
 62
     7
370
    25
100
AcDbPolyline
 90
        7
 70
   128
 43
0.0
 10
41.3034519241
 20
26.5151841171
 10
41.300502067
 20
26.5098214988
 10
41.2959269166
 20
26.4859021625
 10
41.300502067
 20
26.4567004699
 10
41.3135309931
 20
26.4266621141
 10
41.3330301588
 20
26.4003601625
 10
41.3560309931
 20
26.3817988487
  0
LINE
  5
2F2
330
1F
100
AcDbEntity
  8
0
  6
Continuous
 62
     7
370
    25
100
AcDbLine
 10
41.8121148669
 20
21.0283777797
 30
0.0
 11
41.9712138927
 21
21.1298521377
 31
0.0
  0
LINE
  5
2F3
330
1F
100
AcDbEntity
  8
0
  6
Continuous
 62
     7
370
    25
100
AcDbLine
 10
41.9712138927
 20
21.1298521377
 30
0.0
 11
45.7895905111
 21
18.9255502358
 31
0.0
  0
LINE
  5
2F4
330
1F
100
AcDbEntity
  8
0
  6
Continuous
 62
     7
370
    25
100
AcDbLine
 10
45.45371479
 20
18.9261268918
 30
0.0
 11
45.4771120752
 21
18.9410498272
 31
0.0
  0
LINE
  5
2F5
330
1F
100
AcDbEntity
  8
0
  6
Continuous
 62
     7
370
    25
100
AcDbLine
 10
45.4771120752
 20
18.9410498272
 30
0.0
 11
42.0122888474
 21
20.9412497012
 31
0.0
  0
LINE
  5
2F6
330
1F
100
AcDbEntity
  8
0
  6
Continuous
 62
     7
370
    25
100
AcDbLine
 10
41.9888915622
 20
20.9263267657
 30
0.0
 11
42.0122888474
 21
20.9412497012
 31
0.0
  0
ARC
  5
2F7
330
1F
100
AcDbEntity
  8
0
  6
Continuous
 62
     7
370
    25
100
AcDbCircle
 10
40.6202930312
 20
27.5826412176
 30
0.0
 40
0.0945205155300992
100
AcDbArc
 50
52.4372327537
 51
119.1266029167
  0
LINE
  5
2F8
330
1F
100
AcDbEntity
  8
0
  6
Continuous
 62
     7
370
    25
100
AcDbLine
 10
45.9771768414
 20
19.0338408938
 30
0.0
 11
45.7895905111
 21
18.9255502358
 31
0.0
  0
LINE
  5
2F9
330
1F
100
AcDbEntity
  8
0
  6
Continuous
 62
     7
370
    25
100
AcDbLine
 10
45.9771768414
 20
19.0338408938
 30
0.0
 11
45.9771768414
 21
18.97570268
 31
0.0
  0
LINE
  5
2FA
330
1F
100
AcDbEntity
  8
0
  6
Continuous
 62
     7
370
    25
100
AcDbLine
 10
45.9556424319
 20
18.9366212897
 30
0.0
 11
45.9771768414
 21
18.97570268
 31
0.0
  0
LINE
  5
2FB
330
1F
100
AcDbEntity
  8
0
  6
Continuous
 62
     7
370
    25
100
AcDbLine
 10
45.9556424319
 20
18.9366212897
 30
0.0
 11
45.8725044911
 21
18.8852159808
 31
0.0
  0
LINE
  5
2FC
330
1F
100
AcDbEntity
  8
0
  6
Continuous
 62
     7
370
    25
100
AcDbLine
 10
42.1654652242
 20
21.2342951725
 30
0.0
 11
41.9712138927
 21
21.1298521377
 31
0.0
  0
LINE
  5
2FD
330
1F
100
AcDbEntity
  8
0
  6
Continuous
 62
     7
370
    25
100
AcDbLine
 10
42.1654652242
 20
21.2342951725
 30
0.0
 11
45.9771768414
 21
19.0338408938
 31
0.0
  0
LINE
  5
2FE
330
1F
100
AcDbEntity
  8
0
  6
Continuous
 62
     7
370
    25
100
AcDbLine
 10
41.9888915622
 20
20.9007244146
 30
0.0
 11
42.0122888474
 21
20.9412497012
 31
0.0
  0
LINE
  5
2FF
330
1F
100
AcDbEntity
  8
0
  6
Continuous
 62
     7
370
    25
100
AcDbLine
 10
41.4408838068
 20
25.9041165023
 30
0.0
 11
41.4408838068
 21
22.0500438702
 31
0.0
  0
LINE
  5
300
330
1F
100
AcDbEntity
  8
0
  6
Continuous
 62
     7
370
    25
100
AcDbLine
 10
41.4408838068
 20
22.0500438702
 30
0.0
 11
41.4408838068
 21
22.0484107885
 31
0.0
  0
LINE
  5
301
330
1F
100
AcDbEntity
  8
0
  6
Continuous
 62
     7
370
    25
100
AcDbLine
 10
41.2734467544
 20
21.9613783163
 30
0.0
 11
41.4408838068
 21
22.0484107885
 31
0.0
  0
LINE
  5
302
330
1F
100
AcDbEntity
  8
0
  6
Continuous
 62
     7
370
    25
100
AcDbLine
 10
41.4408838068
 20
25.9057495839
 30
0.0
 11
41.4408838068
 21
25.9041165023
 31
0.0
  0
LINE
  5
303
330
1F
100
AcDbEntity
  8
0
  6
Continuous
 62
     7
370
    25
100
AcDbLine
 10
41.6284701371
 20
26.0124071603
 30
0.0
 11
41.4408838068
 21
25.9041165023
 31
0.0
  0
LINE
  5
304
330
1F
100
AcDbEntity
  8
0
  6
Continuous
 62
     7
370
    25
100
AcDbLine
 10
41.6284701371
 20
26.0124071603
 30
0.0
 11
41.6284701371
 21
22.1660310256
 31
0.0
  0
LINE
  5
305
330
1F
100
AcDbEntity
  8
0
  6
Continuous
 62
     7
370
    25
100
AcDbLine
 10
41.6284701371
 20
22.1660310256
 30
0.0
 11
41.4408838068
 21
22.0500438702
 31
0.0
  0
LINE
  5
306
330
1F
100
AcDbEntity
  8
0
  6
Continuous
 62
     7
370
    25
100
AcDbLine
 10
41.5796665187
 20
26.0405808895
 30
0.0
 11
41.5350538586
 21
26.0414722019
 31
0.0
  0
LINE
  5
307
330
1F
100
AcDbEntity
  8
0
  6
Continuous
 62
     7
370
    25
100
AcDbLine
 10
41.5796665187
 20
26.0405808895
 30
0.0
 11
41.6284701371
 21
26.0124071603
 31
0.0
  0
LINE
  5
308
330
1F
100
AcDbEntity
  8
0
  6
Continuous
 62
     7
370
    25
100
AcDbLine
 10
41.5350538586
 20
26.0414722019
 30
0.0
 11
41.4468715517
 21
25.9940592567
 31
0.0
  0
ARC
  5
309
330
1F
100
AcDbEntity
  8
0
  6
Continuous
 62
     7
370
    25
100
AcDbCircle
 10
42.587832501
 20
22.098229493
 30
0.0
 40
1.148030143514627
100
AcDbArc
 50
182.487128189
 51
237.5128719567
  0
ARC
  5
30A
330
1F
100
AcDbEntity
  8
0
  6
Continuous
 62
     7
370
    25
100
AcDbCircle
 10
41.4704883308
 20
21.4955536393
 30
0.0
 40
0.2299805630309293
100
AcDbArc
 50
171.4884562005
 51
248.5061672669
  0
LWPOLYLINE
  5
30B
330
1F
100
AcDbEntity
  8
0
  6
Continuous
 62
     7
370
    25
100
AcDbPolyline
 90
        9
 70
   128
 43
0.0
 10
41.3034519241
 20
21.493458124
 10
41.300502067
 20
21.4880955057
 10
41.2959269166
 20
21.4641761694
 10
41.300502067
 20
21.4349744768
 10
41.3135309931
 20
21.404936121
 10
41.3330301588
 20
21.3786341694
 10
41.3560309931
 20
21.3600728556
 10
41.3790318273
 20
21.3520779714
 10
41.3851418823
 20
21.3519516334
  0
LINE
  5
30C
330
1F
100
AcDbEntity
  8
0
  6
Continuous
 62
     8
370
    25
100
AcDbLine
 10
48.2235534398
 20
21.1034244277
 30
0.0
 11
47.2243101701
 21
20.1636705797
 31
0.0
  0
LINE
  5
30D
330
1F
100
AcDbEntity
  8
0
  6
Continuous
 62
     8
370
    25
100
AcDbLine
 10
44.4117929479
 20
27.1756938298
 30
0.0
 11
42.8964613078
 21
26.3768271224
 31
0.0
  0
LINE
  5
30E
330
1F
100
AcDbEntity
  8
0
  6
Continuous
 62
     8
370
    25
100
AcDbLine
 10
43.5257685892
 20
26.2739311476
 30
0.0
 11
43.2944170742
 21
26.1470921486
 31
0.0
  0
LINE
  5
30F
330
1F
100
AcDbEntity
  8
0
  6
Continuous
 62
     8
370
    25
100
AcDbLine
 10
42.5415123802
 20
25.7343104223
 30
0.0
 11
41.8128572959
 21
25.3348236002
 31
0.0
  0
ARC
  5
310
330
1F
100
AcDbEntity
  8
0
  6
Continuous
 62
     8
370
    25
100
AcDbCircle
 10
47.0110379799
 20
17.4854254285
 30
0.0
 40
0.0903487904537382
100
AcDbArc
 50
300.6995752978
 51
7.5830292891
  0
ARC
  5
311
330
1F
100
AcDbEntity
  8
0
  6
Continuous
 62
     8
370
    25
100
AcDbCircle
 10
46.9543547824
 20
17.4425392454
 30
0.0
 40
0.0307395454352225
100
AcDbArc
 50
173.8911987859
 51
234.7644849878
  0
ARC
  5
312
330
1F
100
AcDbEntity
  8
0
  6
Continuous
 62
     8
370
    25
100
AcDbCircle
 10
40.5493758636
 20
21.1400504794
 30
0.0
 40
0.0307340004979678
100
AcDbArc
 50
173.8880217791
 51
234.7997978275
  0
ARC
  5
313
330
1F
100
AcDbEntity
  8
0
  6
Continuous
 62
     8
370
    25
100
AcDbCircle
 10
40.4397808016
 20
27.4833224463
 30
0.0
 40
0.0307321412248203
100
AcDbArc
 50
185.2392284962
 51
246.1132475711
  0
ARC
  5
314
330
1F
100
AcDbEntity
  8
0
  6
Continuous
 62
     8
370
    25
100
AcDbCircle
 10
40.5050477902
 20
27.5080630469
 30
0.0
 40
0.0928119849915319
100
AcDbArc
 50
53.4168079828
 51
118.2161186778
  0
ARC
  5
315
330
1F
100
AcDbEntity
  8
0
  6
Continuous
 62
     8
370
    25
100
AcDbCircle
 10
40.4397769744
 20
21.3298664809
 30
0.0
 40
0.0307265620216399
100
AcDbArc
 50
185.2036955941
 51
246.1164453635
  0
LINE
  5
316
330
1F
100
AcDbEntity
  8
0
  6
Continuous
 62
     7
370
    25
100
AcDbLine
 10
5.7072443762
 20
10.6186909603
 30
0.0
 11
5.7872443762
 21
10.6186909603
 31
0.0
  0
LINE
  5
317
330
1F
100
AcDbEntity
  8
0
  6
Continuous
 62
     7
370
    25
100
AcDbLine
 10
5.7072443762
 20
17.7386909603
 30
0.0
 11
5.7872443762
 21
17.7386909603
 31
0.0
  0
LINE
  5
318
330
1F
100
AcDbEntity
  8
0
  6
Continuous
 62
     7
370
    25
100
AcDbLine
 10
5.7072443762
 20
17.7386909603
 30
0.0
 11
5.7072443762
 21
10.6186909603
 31
0.0
  0
LINE
  5
319
330
1F
100
AcDbEntity
  8
0
  6
Continuous
 62
     7
370
    25
100
AcDbLine
 10
5.2555235977
 20
10.8802105006
 30
0.0
 11
5.7072443762
 21
10.8406900534
 31
0.0
  0
LINE
  5
31A
330
1F
100
AcDbEntity
  8
0
  6
Continuous
 62
     7
370
    25
100
AcDbLine
 10
5.2565569041
 20
10.8802646539
 30
0.0
 11
5.2555235977
 21
10.8802105006
 31
0.0
  0
LINE
  5
31B
330
1F
100
AcDbEntity
  8
0
  6
Continuous
 62
     7
370
    25
100
AcDbLine
 10
5.2565569041
 20
11.5803876642
 30
0.0
 11
5.2565569041
 21
10.8802646539
 31
0.0
  0
LINE
  5
31C
330
1F
100
AcDbEntity
  8
0
  6
Continuous
 62
     7
370
    25
100
AcDbLine
 10
2.0872443762
 20
11.7599632171
 30
0.0
 11
5.2565569041
 21
11.5803876642
 31
0.0
  0
LINE
  5
31D
330
1F
100
AcDbEntity
  8
0
  6
Continuous
 62
     7
370
    25
100
AcDbLine
 10
2.0872443762
 20
11.7599632171
 30
0.0
 11
2.0872443762
 21
12.5011909603
 31
0.0
  0
LINE
  5
31E
330
1F
100
AcDbEntity
  8
0
  6
Continuous
 62
     7
370
    25
100
AcDbLine
 10
2.0872443762
 20
15.8561909603
 30
0.0
 11
2.0872443762
 21
16.5974187035
 31
0.0
  0
LINE
  5
31F
330
1F
100
AcDbEntity
  8
0
  6
Continuous
 62
     7
370
    25
100
AcDbLine
 10
5.2565569041
 20
16.7769942564
 30
0.0
 11
2.0872443762
 21
16.5974187035
 31
0.0
  0
LINE
  5
320
330
1F
100
AcDbEntity
  8
0
  6
Continuous
 62
     7
370
    25
100
AcDbLine
 10
5.2565569041
 20
17.4771172667
 30
0.0
 11
5.2565569041
 21
16.7769942564
 31
0.0
  0
LINE
  5
321
330
1F
100
AcDbEntity
  8
0
  6
Continuous
 62
     7
370
    25
100
AcDbLine
 10
5.2555235977
 20
17.47717142
 30
0.0
 11
5.2565569041
 21
17.4771172667
 31
0.0
  0
LINE
  5
322
330
1F
100
AcDbEntity
  8
0
  6
Continuous
 62
     7
370
    25
100
AcDbLine
 10
5.2555235977
 20
17.47717142
 30
0.0
 11
5.7072443762
 21
17.5166918672
 31
0.0
  0
LINE
  5
323
330
1F
100
AcDbEntity
  8
0
  6
Continuous
 62
     7
370
    25
100
AcDbLine
 10
2.0872443762
 20
13.0261909603
 30
0.0
 11
2.0872443762
 21
15.3311909603
 31
0.0
  0
LINE
  5
324
330
1F
100
AcDbEntity
  8
0
  6
Continuous
 62
     7
370
    25
100
AcDbLine
 10
2.0872443762
 20
15.7136909603
 30
0.0
 11
2.0872443762
 21
15.8561909603
 31
0.0
  0
LINE
  5
325
330
1F
100
AcDbEntity
  8
0
  6
Continuous
 62
     7
370
    25
100
AcDbLine
 10
2.0872443762
 20
15.8561909603
 30
0.0
 11
5.7072443762
 21
15.9193782954
 31
0.0
  0
LINE
  5
326
330
1F
100
AcDbEntity
  8
0
  6
Continuous
 62
     7
370
    25
100
AcDbLine
 10
5.7072443762
 20
15.7136909603
 30
0.0
 11
2.0872443762
 21
15.7136909603
 31
0.0
  0
LINE
  5
327
330
1F
100
AcDbEntity
  8
0
  6
Continuous
 62
     7
370
    25
100
AcDbLine
 10
2.0872443762
 20
15.3311909603
 30
0.0
 11
2.0872443762
 21
15.4736909603
 31
0.0
  0
LINE
  5
328
330
1F
100
AcDbEntity
  8
0
  6
Continuous
 62
     7
370
    25
100
AcDbLine
 10
2.0872443762
 20
15.4736909603
 30
0.0
 11
5.7072443762
 21
15.4736909603
 31
0.0
  0
LINE
  5
329
330
1F
100
AcDbEntity
  8
0
  6
Continuous
 62
     7
370
    25
100
AcDbLine
 10
5.7072443762
 20
15.2680036253
 30
0.0
 11
2.0872443762
 21
15.3311909603
 31
0.0
  0
LINE
  5
32A
330
1F
100
AcDbEntity
  8
0
  6
Continuous
 62
     7
370
    25
100
AcDbLine
 10
5.7072443762
 20
12.4380036253
 30
0.0
 11
2.0872443762
 21
12.5011909603
 31
0.0
  0
LINE
  5
32B
330
1F
100
AcDbEntity
  8
0
  6
Continuous
 62
     7
370
    25
100
AcDbLine
 10
2.0872443762
 20
12.5011909603
 30
0.0
 11
2.0872443762
 21
12.6436909603
 31
0.0
  0
LINE
  5
32C
330
1F
100
AcDbEntity
  8
0
  6
Continuous
 62
     7
370
    25
100
AcDbLine
 10
5.7072443762
 20
12.6436909603
 30
0.0
 11
2.0872443762
 21
12.6436909603
 31
0.0
  0
ARC
  5
32D
330
1F
100
AcDbEntity
  8
0
  6
Continuous
 62
     7
370
    25
100
AcDbCircle
 10
5.1483870164
 20
15.5936909603
 30
0.0
 40
0.120000204410463
100
AcDbArc
 50
270.1057543541
 51
89.8942456459
  0
ARC
  5
32E
330
1F
100
AcDbEntity
  8
0
  6
Continuous
 62
     7
370
    25
100
AcDbCircle
 10
5.1483870164
 20
12.7636909603
 30
0.0
 40
0.1200002044104594
100
AcDbArc
 50
270.1057543541
 51
89.894245646
  0
LINE
  5
32F
330
1F
100
AcDbEntity
  8
0
  6
Continuous
 62
     7
370
    25
100
AcDbLine
 10
2.0872443762
 20
12.8836909603
 30
0.0
 11
2.0872443762
 21
13.0261909603
 31
0.0
  0
LINE
  5
330
330
1F
100
AcDbEntity
  8
0
  6
Continuous
 62
     7
370
    25
100
AcDbLine
 10
2.0872443762
 20
12.8836909603
 30
0.0
 11
5.7072443762
 21
12.8836909603
 31
0.0
  0
LINE
  5
331
330
1F
100
AcDbEntity
  8
0
  6
Continuous
 62
     7
370
    25
100
AcDbLine
 10
2.0872443762
 20
13.0261909603
 30
0.0
 11
5.7072443762
 21
13.0893782954
 31
0.0
  0
LINE
  5
332
330
1F
100
AcDbEntity
  8
0
  6
Continuous
 62
     7
370
    25
100
AcDbLine
 10
2.0872443762
 20
11.7599632171
 30
0.0
 11
2.0872443762
 21
11.1573990154
 31
0.0
  0
LINE
  5
333
330
1F
100
AcDbEntity
  8
0
  6
Continuous
 62
     7
370
    25
100
AcDbLine
 10
5.2555235977
 20
10.8802105006
 30
0.0
 11
2.0872443762
 21
11.1573990154
 31
0.0
  0
LINE
  5
334
330
1F
100
AcDbEntity
  8
0
  6
Continuous
 62
     7
370
    25
100
AcDbLine
 10
2.0872443762
 20
17.1999829053
 30
0.0
 11
2.0872443762
 21
16.5974187035
 31
0.0
  0
LINE
  5
335
330
1F
100
AcDbEntity
  8
0
  6
Continuous
 62
     7
370
    25
100
AcDbLine
 10
2.0872443762
 20
17.1999829053
 30
0.0
 11
5.2555235977
 21
17.47717142
 31
0.0
  0
ARC
  5
336
330
1F
100
AcDbEntity
  8
0
  6
Continuous
 62
     7
370
    25
100
AcDbCircle
 10
2.7945788411
 20
15.5936909603
 30
0.0
 40
0.1200002044104594
100
AcDbArc
 50
90.1057543541
 51
269.8942456459
  0
ARC
  5
337
330
1F
100
AcDbEntity
  8
0
  6
Continuous
 62
     7
370
    25
100
AcDbCircle
 10
2.8018306624
 20
15.5936909603
 30
0.0
 40
0.1200002044104594
100
AcDbArc
 50
90.105754354
 51
269.894245646
  0
ARC
  5
338
330
1F
100
AcDbEntity
  8
0
  6
Continuous
 62
     7
370
    25
100
AcDbCircle
 10
2.7945788411
 20
12.7636909603
 30
0.0
 40
0.1200002044104594
100
AcDbArc
 50
90.1057543541
 51
269.894245646
  0
ARC
  5
339
330
1F
100
AcDbEntity
  8
0
  6
Continuous
 62
     7
370
    25
100
AcDbCircle
 10
2.8018306624
 20
12.7636909603
 30
0.0
 40
0.1200002044104594
100
AcDbArc
 50
90.1057543541
 51
269.894245646
  0
LINE
  5
33A
330
1F
100
AcDbEntity
  8
0
  6
Continuous
 62
     7
370
    25
100
AcDbLine
 10
2.0872443762
 20
12.8836909603
 30
0.0
 11
2.0872443762
 21
12.6436909603
 31
0.0
  0
LINE
  5
33B
330
1F
100
AcDbEntity
  8
0
  6
Continuous
 62
     7
370
    25
100
AcDbLine
 10
2.0872443762
 20
15.4736909603
 30
0.0
 11
2.0872443762
 21
15.7136909603
 31
0.0
  0
LINE
  5
33C
330
1F
100
AcDbEntity
  8
0
  6
Continuous
 62
     7
370
    25
100
AcDbLine
 10
2.6352443762
 20
17.2479266929
 30
0.0
 11
2.6352443762
 21
17.3984996685
 31
0.0
  0
LINE
  5
33D
330
1F
100
AcDbEntity
  8
0
  6
Continuous
 62
     7
370
    25
100
AcDbLine
 10
2.6352443762
 20
17.3984996685
 30
0.0
 11
4.675025584
 21
17.5769574003
 31
0.0
  0
LINE
  5
33E
330
1F
100
AcDbEntity
  8
0
  6
Continuous
 62
     7
370
    25
100
AcDbLine
 10
4.675025584
 20
17.5769574003
 30
0.0
 11
5.7072443762
 21
17.5949748463
 31
0.0
  0
LINE
  5
33F
330
1F
100
AcDbEntity
  8
0
  6
Continuous
 62
     7
370
    25
100
AcDbLine
 10
4.675025584
 20
10.7804245204
 30
0.0
 11
2.6352443762
 21
10.9588822521
 31
0.0
  0
LINE
  5
340
330
1F
100
AcDbEntity
  8
0
  6
Continuous
 62
     7
370
    25
100
AcDbLine
 10
2.6352443762
 20
10.9588822521
 30
0.0
 11
2.6352443762
 21
11.1094552277
 31
0.0
  0
LINE
  5
341
330
1F
100
AcDbEntity
  8
0
  6
Continuous
 62
     7
370
    25
100
AcDbLine
 10
5.7072443762
 20
10.7624070743
 30
0.0
 11
4.675025584
 21
10.7804245204
 31
0.0
  0
LINE
  5
342
330
1F
100
AcDbEntity
  8
0
  6
Continuous
 62
     7
370
    25
100
AcDbLine
 10
2.0672443762
 20
12.9911909603
 30
0.0
 11
2.0872443762
 21
12.9911909603
 31
0.0
  0
LINE
  5
343
330
1F
100
AcDbEntity
  8
0
  6
Continuous
 62
     7
370
    25
100
AcDbLine
 10
2.0672443762
 20
15.3661909603
 30
0.0
 11
2.0672443762
 21
12.9911909603
 31
0.0
  0
LINE
  5
344
330
1F
100
AcDbEntity
  8
0
  6
Continuous
 62
     7
370
    25
100
AcDbLine
 10
2.0672443762
 20
15.3661909603
 30
0.0
 11
2.0872443762
 21
15.3661909603
 31
0.0
  0
LINE
  5
345
330
1F
100
AcDbEntity
  8
0
  6
Continuous
 62
     7
370
    25
100
AcDbLine
 10
2.0472443762
 20
13.0111909603
 30
0.0
 11
2.0472443762
 21
15.3461909603
 31
0.0
  0
ARC
  5
346
330
1F
100
AcDbEntity
  8
0
  6
Continuous
 62
     7
370
    25
100
AcDbCircle
 10
2.0672443762
 20
15.3461909603
 30
0.0
 40
0.0199999999999996
100
AcDbArc
 50
90.0
 51
180.0
  0
ARC
  5
347
330
1F
100
AcDbEntity
  8
0
  6
Continuous
 62
     7
370
    25
100
AcDbCircle
 10
2.0672443762
 20
13.0111909603
 30
0.0
 40
0.0200000000000014
100
AcDbArc
 50
180.0
 51
270.0
  0
LINE
  5
348
330
1F
100
AcDbEntity
  8
0
  6
Continuous
 62
     7
370
    25
100
AcDbLine
 10
4.8272443762
 20
15.7136909603
 30
0.0
 11
4.8272443762
 21
15.4736909603
 31
0.0
  0
LINE
  5
349
330
1F
100
AcDbEntity
  8
0
  6
Continuous
 62
     7
370
    25
100
AcDbLine
 10
4.8272443762
 20
12.8836909603
 30
0.0
 11
4.8272443762
 21
12.6436909603
 31
0.0
  0
LINE
  5
34A
330
1F
100
AcDbEntity
  8
0
  6
Continuous
 62
     7
370
    25
100
AcDbLine
 10
5.9534892055
 20
17.9471909603
 30
0.0
 11
5.7872443762
 21
17.9471909603
 31
0.0
  0
LINE
  5
34B
330
1F
100
AcDbEntity
  8
0
  6
Continuous
 62
     7
370
    25
100
AcDbLine
 10
5.9534892055
 20
10.4111909603
 30
0.0
 11
5.9534892055
 21
17.9471909603
 31
0.0
  0
LINE
  5
34C
330
1F
100
AcDbEntity
  8
0
  6
Continuous
 62
     7
370
    25
100
AcDbLine
 10
5.9534892055
 20
10.4111909603
 30
0.0
 11
5.7872443762
 21
10.4111909603
 31
0.0
  0
LINE
  5
34D
330
1F
100
AcDbEntity
  8
0
  6
Continuous
 62
     7
370
    25
100
AcDbLine
 10
5.7872443762
 20
17.9471909603
 30
0.0
 11
5.7872443762
 21
10.4111909603
 31
0.0
  0
LINE
  5
34E
330
1F
100
AcDbEntity
  8
0
  6
Continuous
 62
     7
370
    25
100
AcDbLine
 10
5.9534892055
 20
18.138478438
 30
0.0
 11
5.7872443762
 21
18.1471909603
 31
0.0
  0
LINE
  5
34F
330
1F
100
AcDbEntity
  8
0
  6
Continuous
 62
     7
370
    25
100
AcDbLine
 10
5.9534892055
 20
17.9471909603
 30
0.0
 11
5.9534892055
 21
18.138478438
 31
0.0
  0
LINE
  5
350
330
1F
100
AcDbEntity
  8
0
  6
Continuous
 62
     7
370
    25
100
AcDbLine
 10
5.7872443762
 20
18.1471909603
 30
0.0
 11
5.7872443762
 21
17.9471909603
 31
0.0
  0
LINE
  5
351
330
1F
100
AcDbEntity
  8
0
  6
Continuous
 62
     7
370
    25
100
AcDbLine
 10
5.9534892055
 20
10.2199034826
 30
0.0
 11
5.9534892055
 21
10.4111909603
 31
0.0
  0
LINE
  5
352
330
1F
100
AcDbEntity
  8
0
  6
Continuous
 62
     7
370
    25
100
AcDbLine
 10
5.9534892055
 20
10.2199034826
 30
0.0
 11
5.7872443762
 21
10.2111909603
 31
0.0
  0
LINE
  5
353
330
1F
100
AcDbEntity
  8
0
  6
Continuous
 62
     7
370
    25
100
AcDbLine
 10
5.7872443762
 20
10.4111909603
 30
0.0
 11
5.7872443762
 21
10.2111909603
 31
0.0
  0
LINE
  5
354
330
1F
100
AcDbEntity
  8
0
  6
Continuous
 62
     7
370
    25
100
AcDbLine
 10
5.9534892055
 20
17.9471909603
 30
0.0
 11
6.0122443762
 21
17.9471909603
 31
0.0
  0
LINE
  5
355
330
1F
100
AcDbEntity
  8
0
  6
Continuous
 62
     7
370
    25
100
AcDbLine
 10
6.0122443762
 20
17.9471909603
 30
0.0
 11
6.0122443762
 21
10.4111909603
 31
0.0
  0
LINE
  5
356
330
1F
100
AcDbEntity
  8
0
  6
Continuous
 62
     7
370
    25
100
AcDbLine
 10
5.9534892055
 20
10.4111909603
 30
0.0
 11
6.0122443762
 21
10.4111909603
 31
0.0
  0
LINE
  5
357
330
1F
100
AcDbEntity
  8
0
  6
Continuous
 62
     7
370
    25
100
AcDbLine
 10
6.0122443762
 20
18.0765634068
 30
0.0
 11
6.0122443762
 21
17.9471909603
 31
0.0
  0
ARC
  5
358
330
1F
100
AcDbEntity
  8
0
  6
Continuous
 62
     7
370
    25
100
AcDbCircle
 10
5.9502443762
 20
18.0765634068
 30
0.0
 40
0.0620000000000012
100
AcDbArc
 50
0.0
 51
87.0
  0
LINE
  5
359
330
1F
100
AcDbEntity
  8
0
  6
Continuous
 62
     7
370
    25
100
AcDbLine
 10
6.0122443762
 20
10.4111909603
 30
0.0
 11
6.0122443762
 21
10.2818185138
 31
0.0
  0
ARC
  5
35A
330
1F
100
AcDbEntity
  8
0
  6
Continuous
 62
     7
370
    25
100
AcDbCircle
 10
5.9502443762
 20
10.2818185138
 30
0.0
 40
0.0620000000000012
100
AcDbArc
 50
273.0
 51
0.0
  0
LINE
  5
35B
330
1F
100
AcDbEntity
  8
0
  6
Continuous
 62
     7
370
    25
100
AcDbLine
 10
18.359945119
 20
6.4546390613
 30
0.0
 11
18.359945119
 21
6.5346390613
 31
0.0
  0
LINE
  5
35C
330
1F
100
AcDbEntity
  8
0
  6
Continuous
 62
     7
370
    25
100
AcDbLine
 10
10.489945119
 20
6.4546390613
 30
0.0
 11
18.359945119
 21
6.4546390613
 31
0.0
  0
LINE
  5
35D
330
1F
100
AcDbEntity
  8
0
  6
Continuous
 62
     7
370
    25
100
AcDbLine
 10
10.489945119
 20
6.4546390613
 30
0.0
 11
10.489945119
 21
6.5346390613
 31
0.0
  0
LINE
  5
35E
330
1F
100
AcDbEntity
  8
0
  6
Continuous
 62
     7
370
    25
100
AcDbLine
 10
11.9677540569
 20
6.4546390613
 30
0.0
 11
11.95874602
 21
5.4224202691
 31
0.0
  0
LINE
  5
35F
330
1F
100
AcDbEntity
  8
0
  6
Continuous
 62
     7
370
    25
100
AcDbLine
 10
11.8231442181
 20
5.4224202691
 30
0.0
 11
11.95874602
 21
5.4224202691
 31
0.0
  0
LINE
  5
360
330
1F
100
AcDbEntity
  8
0
  6
Continuous
 62
     7
370
    25
100
AcDbLine
 10
11.8141361812
 20
6.4546390613
 30
0.0
 11
11.8231442181
 21
5.4224202691
 31
0.0
  0
LINE
  5
361
330
1F
100
AcDbEntity
  8
0
  6
Continuous
 62
     7
370
    25
100
AcDbLine
 10
16.3777540569
 20
6.4546390613
 30
0.0
 11
16.36874602
 21
5.4224202691
 31
0.0
  0
LINE
  5
362
330
1F
100
AcDbEntity
  8
0
  6
Continuous
 62
     7
370
    25
100
AcDbLine
 10
16.2331442181
 20
5.4224202691
 30
0.0
 11
16.36874602
 21
5.4224202691
 31
0.0
  0
LINE
  5
363
330
1F
100
AcDbEntity
  8
0
  6
Continuous
 62
     7
370
    25
100
AcDbLine
 10
16.2241361812
 20
6.4546390613
 30
0.0
 11
16.2331442181
 21
5.4224202691
 31
0.0
  0
LINE
  5
364
330
1F
100
AcDbEntity
  8
0
  6
Continuous
 62
     7
370
    25
100
AcDbLine
 10
16.250945119
 20
3.3826390613
 30
0.0
 11
16.350945119
 21
3.3826390613
 31
0.0
  0
LINE
  5
365
330
1F
100
AcDbEntity
  8
0
  6
Continuous
 62
     7
370
    25
100
AcDbLine
 10
16.36874602
 20
5.4224202691
 30
0.0
 11
16.350945119
 21
3.3826390613
 31
0.0
  0
LINE
  5
366
330
1F
100
AcDbEntity
  8
0
  6
Continuous
 62
     7
370
    25
100
AcDbLine
 10
16.2331442181
 20
5.4224202691
 30
0.0
 11
16.250945119
 21
3.3826390613
 31
0.0
  0
LINE
  5
367
330
1F
100
AcDbEntity
  8
0
  6
Continuous
 62
     7
370
    25
100
AcDbLine
 10
11.940945119
 20
3.3826390613
 30
0.0
 11
11.840945119
 21
3.3826390613
 31
0.0
  0
LINE
  5
368
330
1F
100
AcDbEntity
  8
0
  6
Continuous
 62
     7
370
    25
100
AcDbLine
 10
11.95874602
 20
5.4224202691
 30
0.0
 11
11.940945119
 21
3.3826390613
 31
0.0
  0
LINE
  5
369
330
1F
100
AcDbEntity
  8
0
  6
Continuous
 62
     7
370
    25
100
AcDbLine
 10
11.8231442181
 20
5.4224202691
 30
0.0
 11
11.840945119
 21
3.3826390613
 31
0.0
  0
LINE
  5
36A
330
1F
100
AcDbEntity
  8
0
  6
Continuous
 62
     7
370
    25
100
AcDbLine
 10
17.4404281868
 20
6.0029182828
 30
0.0
 11
18.1406638983
 21
6.0029182828
 31
0.0
  0
LINE
  5
36B
330
1F
100
AcDbEntity
  8
0
  6
Continuous
 62
     7
370
    25
100
AcDbLine
 10
17.4716421296
 20
3.6687940633
 30
0.0
 11
17.4404281868
 21
6.0029182828
 31
0.0
  0
LINE
  5
36C
330
1F
100
AcDbEntity
  8
0
  6
Continuous
 62
     7
370
    25
100
AcDbLine
 10
17.2324520317
 20
2.8346390613
 30
0.0
 11
17.4716421296
 21
3.6687940633
 31
0.0
  0
LINE
  5
36D
330
1F
100
AcDbEntity
  8
0
  6
Continuous
 62
     7
370
    25
100
AcDbLine
 10
17.2324520317
 20
2.8346390613
 30
0.0
 11
11.367093061
 21
2.8346390613
 31
0.0
  0
LINE
  5
36E
330
1F
100
AcDbEntity
  8
0
  6
Continuous
 62
     7
370
    25
100
AcDbLine
 10
11.4094620513
 20
6.0029182828
 30
0.0
 11
11.367093061
 21
2.8346390613
 31
0.0
  0
LINE
  5
36F
330
1F
100
AcDbEntity
  8
0
  6
Continuous
 62
     7
370
    25
100
AcDbLine
 10
10.7092263398
 20
6.0029182828
 30
0.0
 11
11.4094620513
 21
6.0029182828
 31
0.0
  0
LINE
  5
370
330
1F
100
AcDbEntity
  8
0
  6
Continuous
 62
     7
370
    25
100
AcDbLine
 10
10.7092263398
 20
6.0029182828
 30
0.0
 11
10.7013415242
 21
6.4546390613
 31
0.0
  0
LINE
  5
371
330
1F
100
AcDbEntity
  8
0
  6
Continuous
 62
     7
370
    25
100
AcDbLine
 10
15.970945119
 20
5.8806390613
 30
0.0
 11
12.220945119
 21
5.8806390613
 31
0.0
  0
LINE
  5
372
330
1F
100
AcDbEntity
  8
0
  6
Continuous
 62
     7
370
    25
100
AcDbLine
 10
12.220945119
 20
3.6046390613
 30
0.0
 11
12.220945119
 21
5.8806390613
 31
0.0
  0
LINE
  5
373
330
1F
100
AcDbEntity
  8
0
  6
Continuous
 62
     7
370
    25
100
AcDbLine
 10
15.970945119
 20
3.6046390613
 30
0.0
 11
12.220945119
 21
3.6046390613
 31
0.0
  0
LINE
  5
374
330
1F
100
AcDbEntity
  8
0
  6
Continuous
 62
     7
370
    25
100
AcDbLine
 10
15.970945119
 20
5.8806390613
 30
0.0
 11
15.970945119
 21
3.6046390613
 31
0.0
  0
LINE
  5
375
330
1F
100
AcDbEntity
  8
0
  6
Continuous
 62
     7
370
    25
100
AcDbLine
 10
18.1406638983
 20
6.0029182828
 30
0.0
 11
18.1485487139
 21
6.4546390613
 31
0.0
  0
LINE
  5
376
330
1F
100
AcDbEntity
  8
0
  6
Continuous
 62
     7
370
    25
100
AcDbLine
 10
18.1406459059
 20
6.0018874957
 30
0.0
 11
17.4716421296
 21
3.6687940633
 31
0.0
  0
LINE
  5
377
330
1F
100
AcDbEntity
  8
0
  6
Continuous
 62
     7
370
    25
100
AcDbLine
 10
18.1406638983
 20
6.0029182828
 30
0.0
 11
18.1406459059
 21
6.0018874957
 31
0.0
  0
LINE
  5
378
330
1F
100
AcDbEntity
  8
0
  6
Continuous
 62
     7
370
    25
100
AcDbLine
 10
10.7645288593
 20
2.8346390613
 30
0.0
 11
11.367093061
 21
2.8346390613
 31
0.0
  0
LINE
  5
379
330
1F
100
AcDbEntity
  8
0
  6
Continuous
 62
     7
370
    25
100
AcDbLine
 10
10.7645288593
 20
2.8346390613
 30
0.0
 11
10.7092263398
 21
6.0029182828
 31
0.0
  0
LINE
  5
37A
330
1F
100
AcDbEntity
  8
0
  6
Continuous
 62
     7
370
    25
100
AcDbLine
 10
18.1288454948
 20
5.325842398
 30
0.0
 11
17.5716409044
 21
3.3826390613
 31
0.0
  0
LINE
  5
37B
330
1F
100
AcDbEntity
  8
0
  6
Continuous
 62
     7
370
    25
100
AcDbLine
 10
17.5716409044
 20
3.3826390613
 30
0.0
 11
17.3895885031
 21
3.3826390613
 31
0.0
  0
LINE
  5
37C
330
1F
100
AcDbEntity
  8
0
  6
Continuous
 62
     7
370
    25
100
AcDbLine
 10
18.1406459059
 20
6.0018874957
 30
0.0
 11
18.1288454948
 21
5.325842398
 31
0.0
  0
LINE
  5
37D
330
1F
100
AcDbEntity
  8
0
  6
Continuous
 62
     7
370
    25
100
AcDbLine
 10
10.7013415242
 20
6.4546390613
 30
0.0
 11
10.7013415242
 21
2.8346390613
 31
0.0
  0
LINE
  5
37E
330
1F
100
AcDbEntity
  8
0
  6
Continuous
 62
     7
370
    25
100
AcDbLine
 10
10.7645288593
 20
2.8346390613
 30
0.0
 11
10.7013415242
 21
2.8346390613
 31
0.0
  0
LINE
  5
37F
330
1F
100
AcDbEntity
  8
0
  6
Continuous
 62
     7
370
    25
100
AcDbLine
 10
12.0974520317
 20
2.8146390613
 30
0.0
 11
15.9374520317
 21
2.8146390613
 31
0.0
  0
LINE
  5
380
330
1F
100
AcDbEntity
  8
0
  6
Continuous
 62
     7
370
    25
100
AcDbLine
 10
12.0974520317
 20
2.8146390613
 30
0.0
 11
12.0974520317
 21
2.8346390613
 31
0.0
  0
LINE
  5
381
330
1F
100
AcDbEntity
  8
0
  6
Continuous
 62
     7
370
    25
100
AcDbLine
 10
15.9374520317
 20
2.8146390613
 30
0.0
 11
15.9374520317
 21
2.8346390613
 31
0.0
  0
LINE
  5
382
330
1F
100
AcDbEntity
  8
0
  6
Continuous
 62
     7
370
    25
100
AcDbLine
 10
15.9174520317
 20
2.7946390613
 30
0.0
 11
12.1174520317
 21
2.7946390613
 31
0.0
  0
ARC
  5
383
330
1F
100
AcDbEntity
  8
0
  6
Continuous
 62
     7
370
    25
100
AcDbCircle
 10
15.9174520317
 20
2.8146390613
 30
0.0
 40
0.02
100
AcDbArc
 50
270.0
 51
0.0
  0
ARC
  5
384
330
1F
100
AcDbEntity
  8
0
  6
Continuous
 62
     7
370
    25
100
AcDbCircle
 10
12.1174520317
 20
2.8146390613
 30
0.0
 40
0.0200000000000014
100
AcDbArc
 50
180.0
 51
270.0
  0
LINE
  5
385
330
1F
100
AcDbEntity
  8
0
  6
Continuous
 62
     7
370
    25
100
AcDbLine
 10
18.928445119
 20
6.7008838906
 30
0.0
 11
18.928445119
 21
6.5346390613
 31
0.0
  0
LINE
  5
386
330
1F
100
AcDbEntity
  8
0
  6
Continuous
 62
     7
370
    25
100
AcDbLine
 10
19.1197325967
 20
6.7008838906
 30
0.0
 11
18.928445119
 21
6.7008838906
 31
0.0
  0
LINE
  5
387
330
1F
100
AcDbEntity
  8
0
  6
Continuous
 62
     7
370
    25
100
AcDbLine
 10
19.1197325967
 20
6.7008838906
 30
0.0
 11
19.128445119
 21
6.5346390613
 31
0.0
  0
LINE
  5
388
330
1F
100
AcDbEntity
  8
0
  6
Continuous
 62
     7
370
    25
100
AcDbLine
 10
18.928445119
 20
6.5346390613
 30
0.0
 11
19.128445119
 21
6.5346390613
 31
0.0
  0
LINE
  5
389
330
1F
100
AcDbEntity
  8
0
  6
Continuous
 62
     7
370
    25
100
AcDbLine
 10
9.6791576414
 20
6.7008838906
 30
0.0
 11
9.670445119
 21
6.5346390613
 31
0.0
  0
LINE
  5
38A
330
1F
100
AcDbEntity
  8
0
  6
Continuous
 62
     7
370
    25
100
AcDbLine
 10
9.870445119
 20
6.7008838906
 30
0.0
 11
9.6791576414
 21
6.7008838906
 31
0.0
  0
LINE
  5
38B
330
1F
100
AcDbEntity
  8
0
  6
Continuous
 62
     7
370
    25
100
AcDbLine
 10
9.870445119
 20
6.7008838906
 30
0.0
 11
9.870445119
 21
6.5346390613
 31
0.0
  0
LINE
  5
38C
330
1F
100
AcDbEntity
  8
0
  6
Continuous
 62
     7
370
    25
100
AcDbLine
 10
9.670445119
 20
6.5346390613
 30
0.0
 11
9.870445119
 21
6.5346390613
 31
0.0
  0
LINE
  5
38D
330
1F
100
AcDbEntity
  8
0
  6
Continuous
 62
     7
370
    25
100
AcDbLine
 10
18.928445119
 20
6.7008838906
 30
0.0
 11
9.870445119
 21
6.7008838906
 31
0.0
  0
LINE
  5
38E
330
1F
100
AcDbEntity
  8
0
  6
Continuous
 62
     7
370
    25
100
AcDbLine
 10
9.870445119
 20
6.5346390613
 30
0.0
 11
18.928445119
 21
6.5346390613
 31
0.0
  0
ARC
  5
38F
330
1F
100
AcDbEntity
  8
0
  6
Continuous
 62
     7
370
    25
100
AcDbCircle
 10
9.7410726725
 20
6.6976390613
 30
0.0
 40
0.0620000000000012
100
AcDbArc
 50
90.0
 51
177.0
  0
LINE
  5
390
330
1F
100
AcDbEntity
  8
0
  6
Continuous
 62
     7
370
    25
100
AcDbLine
 10
9.7410726725
 20
6.7596390613
 30
0.0
 11
9.870445119
 21
6.7596390613
 31
0.0
  0
LINE
  5
391
330
1F
100
AcDbEntity
  8
0
  6
Continuous
 62
     7
370
    25
100
AcDbLine
 10
9.870445119
 20
6.7008838906
 30
0.0
 11
9.870445119
 21
6.7596390613
 31
0.0
  0
LINE
  5
392
330
1F
100
AcDbEntity
  8
0
  6
Continuous
 62
     7
370
    25
100
AcDbLine
 10
18.928445119
 20
6.7596390613
 30
0.0
 11
19.0578175656
 21
6.7596390613
 31
0.0
  0
ARC
  5
393
330
1F
100
AcDbEntity
  8
0
  6
Continuous
 62
     7
370
    25
100
AcDbCircle
 10
19.0578175656
 20
6.6976390613
 30
0.0
 40
0.0620000000000027
100
AcDbArc
 50
3.0
 51
90.0
  0
LINE
  5
394
330
1F
100
AcDbEntity
  8
0
  6
Continuous
 62
     7
370
    25
100
AcDbLine
 10
18.928445119
 20
6.7008838906
 30
0.0
 11
18.928445119
 21
6.7596390613
 31
0.0
  0
LINE
  5
395
330
1F
100
AcDbEntity
  8
0
  6
Continuous
 62
     7
370
    25
100
AcDbLine
 10
9.870445119
 20
6.7596390613
 30
0.0
 11
18.928445119
 21
6.7596390613
 31
0.0
  0
LINE
  5
396
330
1F
100
AcDbEntity
  8
0
  6
Continuous
 62
     7
370
    25
100
AcDbLine
 10
32.7943702007
 20
15.3361909603
 30
0.0
 11
36.5543702007
 21
15.3361909603
 31
0.0
  0
LINE
  5
397
330
1F
100
AcDbEntity
  8
0
  6
Continuous
 62
     7
370
    25
100
AcDbLine
 10
36.5543702007
 20
15.3361909603
 30
0.0
 11
36.5343702007
 21
15.3161909603
 31
0.0
  0
LINE
  5
398
330
1F
100
AcDbEntity
  8
0
  6
Continuous
 62
     7
370
    25
100
AcDbLine
 10
36.5343702007
 20
15.3161909603
 30
0.0
 11
32.7943702007
 21
15.3161909603
 31
0.0
  0
LINE
  5
399
330
1F
100
AcDbEntity
  8
0
  6
Continuous
 62
     7
370
    25
100
AcDbLine
 10
36.5543702007
 20
15.3361909603
 30
0.0
 11
36.5543702007
 21
13.0211909603
 31
0.0
  0
LINE
  5
39A
330
1F
100
AcDbEntity
  8
0
  6
Continuous
 62
     7
370
    25
100
AcDbLine
 10
36.5543702007
 20
13.0211909603
 30
0.0
 11
36.5343702007
 21
13.0411909603
 31
0.0
  0
LINE
  5
39B
330
1F
100
AcDbEntity
  8
0
  6
Continuous
 62
     7
370
    25
100
AcDbLine
 10
36.5343702007
 20
13.0411909603
 30
0.0
 11
36.5343702007
 21
15.3161909603
 31
0.0
  0
LINE
  5
39C
330
1F
100
AcDbEntity
  8
0
  6
Continuous
 62
     7
370
    25
100
AcDbLine
 10
32.7943702007
 20
13.0411909603
 30
0.0
 11
36.5343702007
 21
13.0411909603
 31
0.0
  0
LINE
  5
39D
330
1F
100
AcDbEntity
  8
0
  6
Continuous
 62
     7
370
    25
100
AcDbLine
 10
36.5543702007
 20
13.0211909603
 30
0.0
 11
32.7943702007
 21
13.0211909603
 31
0.0
  0
LINE
  5
39E
330
1F
100
AcDbEntity
  8
0
  6
Continuous
 62
     7
370
    25
100
AcDbLine
 10
32.7643702007
 20
13.0111909603
 30
0.0
 11
36.5643702007
 21
13.0111909603
 31
0.0
  0
LINE
  5
39F
330
1F
100
AcDbEntity
  8
0
  6
Continuous
 62
     7
370
    25
100
AcDbLine
 10
36.5643702007
 20
13.0111909603
 30
0.0
 11
36.5843702007
 21
12.9911909603
 31
0.0
  0
LINE
  5
3A0
330
1F
100
AcDbEntity
  8
0
  6
Continuous
 62
     7
370
    25
100
AcDbLine
 10
36.5843702007
 20
12.9911909603
 30
0.0
 11
32.7443702007
 21
12.9911909603
 31
0.0
  0
LINE
  5
3A1
330
1F
100
AcDbEntity
  8
0
  6
Continuous
 62
     7
370
    25
100
AcDbLine
 10
32.7443702007
 20
12.9911909603
 30
0.0
 11
32.7643702007
 21
13.0111909603
 31
0.0
  0
LINE
  5
3A2
330
1F
100
AcDbEntity
  8
0
  6
Continuous
 62
     7
370
    25
100
AcDbLine
 10
36.5643702007
 20
13.0111909603
 30
0.0
 11
36.5643702007
 21
15.3461909603
 31
0.0
  0
LINE
  5
3A3
330
1F
100
AcDbEntity
  8
0
  6
Continuous
 62
     7
370
    25
100
AcDbLine
 10
36.5643702007
 20
15.3461909603
 30
0.0
 11
36.5843702007
 21
15.3661909603
 31
0.0
  0
LINE
  5
3A4
330
1F
100
AcDbEntity
  8
0
  6
Continuous
 62
     7
370
    25
100
AcDbLine
 10
36.5843702007
 20
15.3661909603
 30
0.0
 11
36.5843702007
 21
12.9911909603
 31
0.0
  0
LINE
  5
3A5
330
1F
100
AcDbEntity
  8
0
  6
Continuous
 62
     7
370
    25
100
AcDbLine
 10
32.7443702007
 20
12.9911909603
 30
0.0
 11
32.7443702007
 21
15.3661909603
 31
0.0
  0
LINE
  5
3A6
330
1F
100
AcDbEntity
  8
0
  6
Continuous
 62
     7
370
    25
100
AcDbLine
 10
32.7443702007
 20
15.3661909603
 30
0.0
 11
32.7643702007
 21
15.3461909603
 31
0.0
  0
LINE
  5
3A7
330
1F
100
AcDbEntity
  8
0
  6
Continuous
 62
     7
370
    25
100
AcDbLine
 10
32.7643702007
 20
15.3461909603
 30
0.0
 11
32.7643702007
 21
13.0111909603
 31
0.0
  0
LINE
  5
3A8
330
1F
100
AcDbEntity
  8
0
  6
Continuous
 62
     7
370
    25
100
AcDbLine
 10
36.5643702007
 20
15.3461909603
 30
0.0
 11
32.7643702007
 21
15.3461909603
 31
0.0
  0
LINE
  5
3A9
330
1F
100
AcDbEntity
  8
0
  6
Continuous
 62
     7
370
    25
100
AcDbLine
 10
32.7443702007
 20
15.3661909603
 30
0.0
 11
36.5843702007
 21
15.3661909603
 31
0.0
  0
LINE
  5
3AA
330
1F
100
AcDbEntity
  8
0
  6
Continuous
 62
     7
370
    25
100
AcDbLine
 10
32.7943702007
 20
15.3361909603
 30
0.0
 11
32.7943702007
 21
13.0211909603
 31
0.0
  0
LINE
  5
3AB
330
1F
100
AcDbEntity
  8
0
  6
Continuous
 62
     7
370
    25
100
AcDbLine
 10
32.8143702007
 20
15.3161909603
 30
0.0
 11
32.8143702007
 21
13.0411909603
 31
0.0
  0
CIRCLE
  5
3AC
330
1F
100
AcDbEntity
  8
0
  6
Continuous
 62
     7
370
    25
100
AcDbCircle
 10
34.2568771134
 20
14.1786909603
 30
0.0
 40
0.4799999999999986
  0
CIRCLE
  5
3AD
330
1F
100
AcDbEntity
  8
0
  6
Continuous
 62
     7
370
    25
100
AcDbCircle
 10
34.2568771134
 20
14.1786909603
 30
0.0
 40
0.4999999999999982
  0
LINE
  5
3AE
330
1F
100
AcDbEntity
  8
0
  6
Continuous
 62
     7
370
    25
100
AcDbLine
 10
37.9804807082
 20
12.5011909603
 30
0.0
 11
37.9804807082
 21
12.6436909603
 31
0.0
  0
LINE
  5
3AF
330
1F
100
AcDbEntity
  8
0
  6
Continuous
 62
     7
370
    25
100
AcDbLine
 10
37.9172933732
 20
12.5011909603
 30
0.0
 11
37.9804807082
 21
12.5011909603
 31
0.0
  0
LINE
  5
3B0
330
1F
100
AcDbEntity
  8
0
  6
Continuous
 62
     7
370
    25
100
AcDbLine
 10
37.9172933732
 20
11.7599632171
 30
0.0
 11
37.9172933732
 21
12.5011909603
 31
0.0
  0
LINE
  5
3B1
330
1F
100
AcDbEntity
  8
0
  6
Continuous
 62
     7
370
    25
100
AcDbLine
 10
37.9172933732
 20
11.7599632171
 30
0.0
 11
37.3147291715
 21
11.1573990154
 31
0.0
  0
LINE
  5
3B2
330
1F
100
AcDbEntity
  8
0
  6
Continuous
 62
     7
370
    25
100
AcDbLine
 10
31.4493702007
 20
11.1573990154
 30
0.0
 11
37.3147291715
 21
11.1573990154
 31
0.0
  0
LINE
  5
3B3
330
1F
100
AcDbEntity
  8
0
  6
Continuous
 62
     7
370
    25
100
AcDbLine
 10
31.4493702007
 20
11.1573990154
 30
0.0
 11
31.4493702007
 21
17.1999829053
 31
0.0
  0
LINE
  5
3B4
330
1F
100
AcDbEntity
  8
0
  6
Continuous
 62
     7
370
    25
100
AcDbLine
 10
37.3147291715
 20
17.1999829053
 30
0.0
 11
31.4493702007
 21
17.1999829053
 31
0.0
  0
LINE
  5
3B5
330
1F
100
AcDbEntity
  8
0
  6
Continuous
 62
     7
370
    25
100
AcDbLine
 10
37.3147291715
 20
17.1999829053
 30
0.0
 11
37.9172933732
 21
16.5974187035
 31
0.0
  0
LINE
  5
3B6
330
1F
100
AcDbEntity
  8
0
  6
Continuous
 62
     7
370
    25
100
AcDbLine
 10
37.9172933732
 20
15.8561909603
 30
0.0
 11
37.9172933732
 21
16.5974187035
 31
0.0
  0
LINE
  5
3B7
330
1F
100
AcDbEntity
  8
0
  6
Continuous
 62
     7
370
    25
100
AcDbLine
 10
37.9172933732
 20
15.8561909603
 30
0.0
 11
37.9804807082
 21
15.8561909603
 31
0.0
  0
LINE
  5
3B8
330
1F
100
AcDbEntity
  8
0
  6
Continuous
 62
     7
370
    25
100
AcDbLine
 10
37.9804807082
 20
15.7136909603
 30
0.0
 11
37.9804807082
 21
15.8561909603
 31
0.0
  0
LINE
  5
3B9
330
1F
100
AcDbEntity
  8
0
  6
Continuous
 62
     7
370
    25
100
AcDbLine
 10
37.9804807082
 20
15.7136909603
 30
0.0
 11
37.727345649
 21
15.7136909603
 31
0.0
  0
LINE
  5
3BA
330
1F
100
AcDbEntity
  8
0
  6
Continuous
 62
     7
370
    25
100
AcDbLine
 10
37.727345649
 20
15.4736909603
 30
0.0
 11
37.727345649
 21
15.7136909603
 31
0.0
  0
LINE
  5
3BB
330
1F
100
AcDbEntity
  8
0
  6
Continuous
 62
     7
370
    25
100
AcDbLine
 10
37.727345649
 20
15.4736909603
 30
0.0
 11
37.9804807082
 21
15.4736909603
 31
0.0
  0
LINE
  5
3BC
330
1F
100
AcDbEntity
  8
0
  6
Continuous
 62
     7
370
    25
100
AcDbLine
 10
37.9804807082
 20
15.3311909603
 30
0.0
 11
37.9804807082
 21
15.4736909603
 31
0.0
  0
LINE
  5
3BD
330
1F
100
AcDbEntity
  8
0
  6
Continuous
 62
     7
370
    25
100
AcDbLine
 10
37.9172933732
 20
15.3311909603
 30
0.0
 11
37.9804807082
 21
15.3311909603
 31
0.0
  0
LINE
  5
3BE
330
1F
100
AcDbEntity
  8
0
  6
Continuous
 62
     7
370
    25
100
AcDbLine
 10
37.9172933732
 20
13.0261909603
 30
0.0
 11
37.9172933732
 21
15.3311909603
 31
0.0
  0
LINE
  5
3BF
330
1F
100
AcDbEntity
  8
0
  6
Continuous
 62
     7
370
    25
100
AcDbLine
 10
37.9172933732
 20
13.0261909603
 30
0.0
 11
37.9804807082
 21
13.0261909603
 31
0.0
  0
LINE
  5
3C0
330
1F
100
AcDbEntity
  8
0
  6
Continuous
 62
     7
370
    25
100
AcDbLine
 10
37.9804807082
 20
12.8836909603
 30
0.0
 11
37.9804807082
 21
13.0261909603
 31
0.0
  0
LINE
  5
3C1
330
1F
100
AcDbEntity
  8
0
  6
Continuous
 62
     7
370
    25
100
AcDbLine
 10
37.9804807082
 20
12.8836909603
 30
0.0
 11
37.727345649
 21
12.8836909603
 31
0.0
  0
LINE
  5
3C2
330
1F
100
AcDbEntity
  8
0
  6
Continuous
 62
     7
370
    25
100
AcDbLine
 10
37.727345649
 20
12.8836909603
 30
0.0
 11
37.727345649
 21
12.6436909603
 31
0.0
  0
LINE
  5
3C3
330
1F
100
AcDbEntity
  8
0
  6
Continuous
 62
     7
370
    25
100
AcDbLine
 10
37.727345649
 20
12.6436909603
 30
0.0
 11
37.9804807082
 21
12.6436909603
 31
0.0
  0
ARC
  5
3C4
330
1F
100
AcDbEntity
  8
0
  6
Continuous
 62
     7
370
    25
100
AcDbCircle
 10
38.4245697804
 20
15.5936909603
 30
0.0
 40
0.6587991389621308
100
AcDbArc
 50
169.5050069387
 51
190.4949930613
  0
LINE
  5
3C5
330
1F
100
AcDbEntity
  8
0
  6
Continuous
 62
     7
370
    25
100
AcDbLine
 10
37.9804807082
 20
15.2680036253
 30
0.0
 11
37.9804807082
 21
15.3311909603
 31
0.0
  0
LINE
  5
3C6
330
1F
100
AcDbEntity
  8
0
  6
Continuous
 62
     7
370
    25
100
AcDbLine
 10
37.9804807082
 20
15.2680036253
 30
0.0
 11
37.9172933732
 21
15.3311909603
 31
0.0
  0
LINE
  5
3C7
330
1F
100
AcDbEntity
  8
0
  6
Continuous
 62
     7
370
    25
100
AcDbLine
 10
37.9804807082
 20
15.2680036253
 30
0.0
 11
37.9804807082
 21
13.0893782954
 31
0.0
  0
LINE
  5
3C8
330
1F
100
AcDbEntity
  8
0
  6
Continuous
 62
     7
370
    25
100
AcDbLine
 10
37.9172933732
 20
13.0261909603
 30
0.0
 11
37.9804807082
 21
13.0893782954
 31
0.0
  0
LINE
  5
3C9
330
1F
100
AcDbEntity
  8
0
  6
Continuous
 62
     7
370
    25
100
AcDbLine
 10
37.9804807082
 20
13.0261909603
 30
0.0
 11
37.9804807082
 21
13.0893782954
 31
0.0
  0
LINE
  5
3CA
330
1F
100
AcDbEntity
  8
0
  6
Continuous
 62
     7
370
    25
100
AcDbLine
 10
36.7408771134
 20
17.2479266929
 30
0.0
 11
36.8408771134
 21
17.2479266929
 31
0.0
  0
LINE
  5
3CB
330
1F
100
AcDbEntity
  8
0
  6
Continuous
 62
     7
370
    25
100
AcDbLine
 10
36.8676860513
 20
17.5166918672
 30
0.0
 11
36.8408771134
 21
17.2479266929
 31
0.0
  0
LINE
  5
3CC
330
1F
100
AcDbEntity
  8
0
  6
Continuous
 62
     7
370
    25
100
AcDbLine
 10
36.8676860513
 20
17.5166918672
 30
0.0
 11
37.9804807082
 21
17.5166918672
 31
0.0
  0
LINE
  5
3CD
330
1F
100
AcDbEntity
  8
0
  6
Continuous
 62
     7
370
    25
100
AcDbLine
 10
37.9725958927
 20
17.47717142
 30
0.0
 11
37.9804807082
 21
17.5166918672
 31
0.0
  0
LINE
  5
3CE
330
1F
100
AcDbEntity
  8
0
  6
Continuous
 62
     7
370
    25
100
AcDbLine
 10
37.2723601812
 20
17.47717142
 30
0.0
 11
37.9725958927
 21
17.47717142
 31
0.0
  0
LINE
  5
3CF
330
1F
100
AcDbEntity
  8
0
  6
Continuous
 62
     7
370
    25
100
AcDbLine
 10
37.3147291715
 20
17.1999829053
 30
0.0
 11
37.2723601812
 21
17.47717142
 31
0.0
  0
LINE
  5
3D0
330
1F
100
AcDbEntity
  8
0
  6
Continuous
 62
     7
370
    25
100
AcDbLine
 10
31.2101801029
 20
17.2729620116
 30
0.0
 11
31.4493702007
 21
17.1999829053
 31
0.0
  0
LINE
  5
3D1
330
1F
100
AcDbEntity
  8
0
  6
Continuous
 62
     7
370
    25
100
AcDbLine
 10
31.2413940456
 20
17.47717142
 30
0.0
 11
31.2101801029
 21
17.2729620116
 31
0.0
  0
LINE
  5
3D2
330
1F
100
AcDbEntity
  8
0
  6
Continuous
 62
     7
370
    25
100
AcDbLine
 10
30.5411583341
 20
17.47717142
 30
0.0
 11
31.2413940456
 21
17.47717142
 31
0.0
  0
LINE
  5
3D3
330
1F
100
AcDbEntity
  8
0
  6
Continuous
 62
     7
370
    25
100
AcDbLine
 10
30.5411583341
 20
17.47717142
 30
0.0
 11
30.5332735186
 21
17.5166918672
 31
0.0
  0
LINE
  5
3D4
330
1F
100
AcDbEntity
  8
0
  6
Continuous
 62
     7
370
    25
100
AcDbLine
 10
30.5332735186
 20
17.5166918672
 30
0.0
 11
32.3040681756
 21
17.5166918672
 31
0.0
  0
LINE
  5
3D5
330
1F
100
AcDbEntity
  8
0
  6
Continuous
 62
     7
370
    25
100
AcDbLine
 10
32.3040681756
 20
17.5166918672
 30
0.0
 11
32.3308771134
 21
17.2479266929
 31
0.0
  0
LINE
  5
3D6
330
1F
100
AcDbEntity
  8
0
  6
Continuous
 62
     7
370
    25
100
AcDbLine
 10
32.4308771134
 20
17.2479266929
 30
0.0
 11
32.3308771134
 21
17.2479266929
 31
0.0
  0
LINE
  5
3D7
330
1F
100
AcDbEntity
  8
0
  6
Continuous
 62
     7
370
    25
100
AcDbLine
 10
32.4576860513
 20
17.5166918672
 30
0.0
 11
32.4308771134
 21
17.2479266929
 31
0.0
  0
LINE
  5
3D8
330
1F
100
AcDbEntity
  8
0
  6
Continuous
 62
     7
370
    25
100
AcDbLine
 10
32.4576860513
 20
17.5166918672
 30
0.0
 11
36.7140681756
 21
17.5166918672
 31
0.0
  0
LINE
  5
3D9
330
1F
100
AcDbEntity
  8
0
  6
Continuous
 62
     7
370
    25
100
AcDbLine
 10
36.7140681756
 20
17.5166918672
 30
0.0
 11
36.7408771134
 21
17.2479266929
 31
0.0
  0
LINE
  5
3DA
330
1F
100
AcDbEntity
  8
0
  6
Continuous
 62
     7
370
    25
100
AcDbLine
 10
36.4608771134
 20
17.4664733744
 30
0.0
 11
32.7108771134
 21
17.4664733744
 31
0.0
  0
LINE
  5
3DB
330
1F
100
AcDbEntity
  8
0
  6
Continuous
 62
     7
370
    25
100
AcDbLine
 10
32.7108771134
 20
17.2673491762
 30
0.0
 11
32.7108771134
 21
17.4664733744
 31
0.0
  0
LINE
  5
3DC
330
1F
100
AcDbEntity
  8
0
  6
Continuous
 62
     7
370
    25
100
AcDbLine
 10
36.4608771134
 20
17.2673491762
 30
0.0
 11
32.7108771134
 21
17.2673491762
 31
0.0
  0
LINE
  5
3DD
330
1F
100
AcDbEntity
  8
0
  6
Continuous
 62
     7
370
    25
100
AcDbLine
 10
36.4608771134
 20
17.4664733744
 30
0.0
 11
36.4608771134
 21
17.2673491762
 31
0.0
  0
LINE
  5
3DE
330
1F
100
AcDbEntity
  8
0
  6
Continuous
 62
     7
370
    25
100
AcDbLine
 10
37.9804807082
 20
12.4380036253
 30
0.0
 11
37.9172933732
 21
12.5011909603
 31
0.0
  0
LINE
  5
3DF
330
1F
100
AcDbEntity
  8
0
  6
Continuous
 62
     7
370
    25
100
AcDbLine
 10
37.9804807082
 20
12.4380036253
 30
0.0
 11
37.9804807082
 21
12.5011909603
 31
0.0
  0
ARC
  5
3E0
330
1F
100
AcDbEntity
  8
0
  6
Continuous
 62
     7
370
    25
100
AcDbCircle
 10
38.4245697804
 20
12.7636909603
 30
0.0
 40
0.6587991389621239
100
AcDbArc
 50
169.5050069387
 51
190.4949930613
  0
LINE
  5
3E1
330
1F
100
AcDbEntity
  8
0
  6
Continuous
 62
     7
370
    25
100
AcDbLine
 10
37.9172933732
 20
15.8561909603
 30
0.0
 11
37.9804807082
 21
15.9193782954
 31
0.0
  0
LINE
  5
3E2
330
1F
100
AcDbEntity
  8
0
  6
Continuous
 62
     7
370
    25
100
AcDbLine
 10
37.9804807082
 20
15.8561909603
 30
0.0
 11
37.9804807082
 21
15.9193782954
 31
0.0
  0
LINE
  5
3E3
330
1F
100
AcDbEntity
  8
0
  6
Continuous
 62
     7
370
    25
100
AcDbLine
 10
37.9172933732
 20
11.7599632171
 30
0.0
 11
37.9726139291
 21
11.5803876642
 31
0.0
  0
LINE
  5
3E4
330
1F
100
AcDbEntity
  8
0
  6
Continuous
 62
     7
370
    25
100
AcDbLine
 10
37.9726139291
 20
11.5803876642
 30
0.0
 11
37.9725779003
 21
11.5803006828
 31
0.0
  0
LINE
  5
3E5
330
1F
100
AcDbEntity
  8
0
  6
Continuous
 62
     7
370
    25
100
AcDbLine
 10
37.2725779003
 20
10.8803006828
 30
0.0
 11
37.9725779003
 21
11.5803006828
 31
0.0
  0
LINE
  5
3E6
330
1F
100
AcDbEntity
  8
0
  6
Continuous
 62
     7
370
    25
100
AcDbLine
 10
37.2723601812
 20
10.8802105006
 30
0.0
 11
37.2725779003
 21
10.8803006828
 31
0.0
  0
LINE
  5
3E7
330
1F
100
AcDbEntity
  8
0
  6
Continuous
 62
     7
370
    25
100
AcDbLine
 10
37.2723601812
 20
10.8802105006
 30
0.0
 11
37.3147291715
 21
11.1573990154
 31
0.0
  0
LINE
  5
3E8
330
1F
100
AcDbEntity
  8
0
  6
Continuous
 62
     7
370
    25
100
AcDbLine
 10
37.9726139291
 20
16.7769942564
 30
0.0
 11
37.9172933732
 21
16.5974187035
 31
0.0
  0
LINE
  5
3E9
330
1F
100
AcDbEntity
  8
0
  6
Continuous
 62
     7
370
    25
100
AcDbLine
 10
37.9726139291
 20
17.4771172667
 30
0.0
 11
37.9726139291
 21
16.7769942564
 31
0.0
  0
LINE
  5
3EA
330
1F
100
AcDbEntity
  8
0
  6
Continuous
 62
     7
370
    25
100
AcDbLine
 10
37.9725958927
 20
17.47717142
 30
0.0
 11
37.9726139291
 21
17.4771172667
 31
0.0
  0
LINE
  5
3EB
330
1F
100
AcDbEntity
  8
0
  6
Continuous
 62
     7
370
    25
100
AcDbLine
 10
37.9804807082
 20
17.5166918672
 30
0.0
 11
37.9804807082
 21
15.9193782954
 31
0.0
  0
LINE
  5
3EC
330
1F
100
AcDbEntity
  8
0
  6
Continuous
 62
     7
370
    25
100
AcDbLine
 10
36.7140681756
 20
10.8406900534
 30
0.0
 11
32.4576860513
 21
10.8406900534
 31
0.0
  0
LINE
  5
3ED
330
1F
100
AcDbEntity
  8
0
  6
Continuous
 62
     7
370
    25
100
AcDbLine
 10
32.4308771134
 20
11.1094552277
 30
0.0
 11
32.4576860513
 21
10.8406900534
 31
0.0
  0
LINE
  5
3EE
330
1F
100
AcDbEntity
  8
0
  6
Continuous
 62
     7
370
    25
100
AcDbLine
 10
32.4308771134
 20
11.1094552277
 30
0.0
 11
32.3308771134
 21
11.1094552277
 31
0.0
  0
LINE
  5
3EF
330
1F
100
AcDbEntity
  8
0
  6
Continuous
 62
     7
370
    25
100
AcDbLine
 10
32.3308771134
 20
11.1094552277
 30
0.0
 11
32.3040681756
 21
10.8406900534
 31
0.0
  0
LINE
  5
3F0
330
1F
100
AcDbEntity
  8
0
  6
Continuous
 62
     7
370
    25
100
AcDbLine
 10
32.3040681756
 20
10.8406900534
 30
0.0
 11
30.5332735186
 21
10.8406900534
 31
0.0
  0
LINE
  5
3F1
330
1F
100
AcDbEntity
  8
0
  6
Continuous
 62
     7
370
    25
100
AcDbLine
 10
30.5411583341
 20
10.8802105006
 30
0.0
 11
30.5332735186
 21
10.8406900534
 31
0.0
  0
LINE
  5
3F2
330
1F
100
AcDbEntity
  8
0
  6
Continuous
 62
     7
370
    25
100
AcDbLine
 10
31.2413940456
 20
10.8802105006
 30
0.0
 11
30.5411583341
 21
10.8802105006
 31
0.0
  0
LINE
  5
3F3
330
1F
100
AcDbEntity
  8
0
  6
Continuous
 62
     7
370
    25
100
AcDbLine
 10
31.2101801029
 20
11.0844199091
 30
0.0
 11
31.2413940456
 21
10.8802105006
 31
0.0
  0
LINE
  5
3F4
330
1F
100
AcDbEntity
  8
0
  6
Continuous
 62
     7
370
    25
100
AcDbLine
 10
31.4493702007
 20
11.1573990154
 30
0.0
 11
31.2101801029
 21
11.0844199091
 31
0.0
  0
LINE
  5
3F5
330
1F
100
AcDbEntity
  8
0
  6
Continuous
 62
     7
370
    25
100
AcDbLine
 10
37.9725958927
 20
10.8802105006
 30
0.0
 11
37.2723601812
 21
10.8802105006
 31
0.0
  0
LINE
  5
3F6
330
1F
100
AcDbEntity
  8
0
  6
Continuous
 62
     7
370
    25
100
AcDbLine
 10
37.9725958927
 20
10.8802105006
 30
0.0
 11
37.9804807082
 21
10.8406900534
 31
0.0
  0
LINE
  5
3F7
330
1F
100
AcDbEntity
  8
0
  6
Continuous
 62
     7
370
    25
100
AcDbLine
 10
37.9804807082
 20
10.8406900534
 30
0.0
 11
36.8676860513
 21
10.8406900534
 31
0.0
  0
LINE
  5
3F8
330
1F
100
AcDbEntity
  8
0
  6
Continuous
 62
     7
370
    25
100
AcDbLine
 10
36.8408771134
 20
11.1094552277
 30
0.0
 11
36.8676860513
 21
10.8406900534
 31
0.0
  0
LINE
  5
3F9
330
1F
100
AcDbEntity
  8
0
  6
Continuous
 62
     7
370
    25
100
AcDbLine
 10
36.7408771134
 20
11.1094552277
 30
0.0
 11
36.8408771134
 21
11.1094552277
 31
0.0
  0
LINE
  5
3FA
330
1F
100
AcDbEntity
  8
0
  6
Continuous
 62
     7
370
    25
100
AcDbLine
 10
36.7408771134
 20
11.1094552277
 30
0.0
 11
36.7140681756
 21
10.8406900534
 31
0.0
  0
LINE
  5
3FB
330
1F
100
AcDbEntity
  8
0
  6
Continuous
 62
     7
370
    25
100
AcDbLine
 10
32.7108771134
 20
10.8909085463
 30
0.0
 11
36.4608771134
 21
10.8909085463
 31
0.0
  0
LINE
  5
3FC
330
1F
100
AcDbEntity
  8
0
  6
Continuous
 62
     7
370
    25
100
AcDbLine
 10
36.4608771134
 20
11.0900327444
 30
0.0
 11
36.4608771134
 21
10.8909085463
 31
0.0
  0
LINE
  5
3FD
330
1F
100
AcDbEntity
  8
0
  6
Continuous
 62
     7
370
    25
100
AcDbLine
 10
32.7108771134
 20
11.0900327444
 30
0.0
 11
36.4608771134
 21
11.0900327444
 31
0.0
  0
LINE
  5
3FE
330
1F
100
AcDbEntity
  8
0
  6
Continuous
 62
     7
370
    25
100
AcDbLine
 10
32.7108771134
 20
10.8909085463
 30
0.0
 11
32.7108771134
 21
11.0900327444
 31
0.0
  0
LINE
  5
3FF
330
1F
100
AcDbEntity
  8
0
  6
Continuous
 62
     7
370
    25
100
AcDbLine
 10
30.5411763266
 20
12.0465487951
 30
0.0
 11
30.5411763266
 21
16.3108331255
 31
0.0
  0
LINE
  5
400
330
1F
100
AcDbEntity
  8
0
  6
Continuous
 62
     7
370
    25
100
AcDbLine
 10
31.2922337293
 20
16.3336909603
 30
0.0
 11
30.5411763266
 21
16.3108331255
 31
0.0
  0
LINE
  5
401
330
1F
100
AcDbEntity
  8
0
  6
Continuous
 62
     7
370
    25
100
AcDbLine
 10
31.2922337293
 20
16.3336909603
 30
0.0
 11
31.2922337293
 21
16.4336909603
 31
0.0
  0
LINE
  5
402
330
1F
100
AcDbEntity
  8
0
  6
Continuous
 62
     7
370
    25
100
AcDbLine
 10
31.2922337293
 20
16.4336909603
 30
0.0
 11
30.5411763266
 21
16.4565487951
 31
0.0
  0
LINE
  5
403
330
1F
100
AcDbEntity
  8
0
  6
Continuous
 62
     7
370
    25
100
AcDbLine
 10
30.5411763266
 20
16.4565487951
 30
0.0
 11
30.5411763266
 21
16.7768773034
 31
0.0
  0
LINE
  5
404
330
1F
100
AcDbEntity
  8
0
  6
Continuous
 62
     7
370
    25
100
AcDbLine
 10
31.2101801029
 20
17.2729620116
 30
0.0
 11
30.5411763266
 21
16.7768773034
 31
0.0
  0
LINE
  5
405
330
1F
100
AcDbEntity
  8
0
  6
Continuous
 62
     7
370
    25
100
AcDbLine
 10
30.5411763266
 20
11.5805046172
 30
0.0
 11
31.2101801029
 21
11.0844199091
 31
0.0
  0
LINE
  5
406
330
1F
100
AcDbEntity
  8
0
  6
Continuous
 62
     7
370
    25
100
AcDbLine
 10
30.5411763266
 20
11.5805046172
 30
0.0
 11
30.5411763266
 21
11.9008331255
 31
0.0
  0
LINE
  5
407
330
1F
100
AcDbEntity
  8
0
  6
Continuous
 62
     7
370
    25
100
AcDbLine
 10
31.2922337293
 20
11.9236909603
 30
0.0
 11
30.5411763266
 21
11.9008331255
 31
0.0
  0
LINE
  5
408
330
1F
100
AcDbEntity
  8
0
  6
Continuous
 62
     7
370
    25
100
AcDbLine
 10
31.2922337293
 20
12.0236909603
 30
0.0
 11
31.2922337293
 21
11.9236909603
 31
0.0
  0
LINE
  5
409
330
1F
100
AcDbEntity
  8
0
  6
Continuous
 62
     7
370
    25
100
AcDbLine
 10
31.2922337293
 20
12.0236909603
 30
0.0
 11
30.5411763266
 21
12.0465487951
 31
0.0
  0
LINE
  5
40A
330
1F
100
AcDbEntity
  8
0
  6
Continuous
 62
     7
370
    25
100
AcDbLine
 10
30.6636878438
 20
16.0536909603
 30
0.0
 11
30.6636878438
 21
12.3036909603
 31
0.0
  0
LINE
  5
40B
330
1F
100
AcDbEntity
  8
0
  6
Continuous
 62
     7
370
    25
100
AcDbLine
 10
31.2922337293
 20
12.3036909603
 30
0.0
 11
30.6636878438
 21
12.3036909603
 31
0.0
  0
LINE
  5
40C
330
1F
100
AcDbEntity
  8
0
  6
Continuous
 62
     7
370
    25
100
AcDbLine
 10
31.2922337293
 20
16.0536909603
 30
0.0
 11
31.2922337293
 21
12.3036909603
 31
0.0
  0
LINE
  5
40D
330
1F
100
AcDbEntity
  8
0
  6
Continuous
 62
     7
370
    25
100
AcDbLine
 10
30.6636878438
 20
16.0536909603
 30
0.0
 11
31.2922337293
 21
16.0536909603
 31
0.0
  0
LINE
  5
40E
330
1F
100
AcDbEntity
  8
0
  6
Continuous
 62
     7
370
    25
100
AcDbLine
 10
37.9804807082
 20
12.4380036253
 30
0.0
 11
37.9804807082
 21
10.8406900534
 31
0.0
  0
LINE
  5
40F
330
1F
100
AcDbEntity
  8
0
  6
Continuous
 62
     7
370
    25
100
AcDbLine
 10
37.9726139291
 20
10.8802646539
 30
0.0
 11
37.9725958927
 21
10.8802105006
 31
0.0
  0
LINE
  5
410
330
1F
100
AcDbEntity
  8
0
  6
Continuous
 62
     7
370
    25
100
AcDbLine
 10
37.9726139291
 20
11.5803876642
 30
0.0
 11
37.9726139291
 21
10.8802646539
 31
0.0
  0
LINE
  5
411
330
1F
100
AcDbEntity
  8
0
  6
Continuous
 62
     7
370
    25
100
AcDbLine
 10
37.2723601812
 20
17.47717142
 30
0.0
 11
37.2725779003
 21
17.4770812379
 31
0.0
  0
LINE
  5
412
330
1F
100
AcDbEntity
  8
0
  6
Continuous
 62
     7
370
    25
100
AcDbLine
 10
37.9725779003
 20
16.7770812379
 30
0.0
 11
37.2725779003
 21
17.4770812379
 31
0.0
  0
LINE
  5
413
330
1F
100
AcDbEntity
  8
0
  6
Continuous
 62
     7
370
    25
100
AcDbLine
 10
37.9726139291
 20
16.7769942564
 30
0.0
 11
37.9725779003
 21
16.7770812379
 31
0.0
  0
LINE
  5
414
330
1F
100
AcDbEntity
  8
0
  6
Continuous
 62
     7
370
    25
100
AcDbLine
 10
31.1101813281
 20
16.3336909603
 30
0.0
 11
31.2922337293
 21
16.3336909603
 31
0.0
  0
LINE
  5
415
330
1F
100
AcDbEntity
  8
0
  6
Continuous
 62
     7
370
    25
100
AcDbLine
 10
31.1101813281
 20
16.3336909603
 30
0.0
 11
31.1101813281
 21
16.4336909603
 31
0.0
  0
LINE
  5
416
330
1F
100
AcDbEntity
  8
0
  6
Continuous
 62
     7
370
    25
100
AcDbLine
 10
31.1101813281
 20
16.4336909603
 30
0.0
 11
31.2922337293
 21
16.4336909603
 31
0.0
  0
LINE
  5
417
330
1F
100
AcDbEntity
  8
0
  6
Continuous
 62
     7
370
    25
100
AcDbLine
 10
30.5411763266
 20
16.3108331255
 30
0.0
 11
30.5529767377
 21
16.3167328817
 31
0.0
  0
LINE
  5
418
330
1F
100
AcDbEntity
  8
0
  6
Continuous
 62
     7
370
    25
100
AcDbLine
 10
30.5529767377
 20
16.3167328817
 30
0.0
 11
31.1101813281
 21
16.3336909603
 31
0.0
  0
LINE
  5
419
330
1F
100
AcDbEntity
  8
0
  6
Continuous
 62
     7
370
    25
100
AcDbLine
 10
30.5411763266
 20
11.9008331255
 30
0.0
 11
30.5529767377
 21
11.9067328817
 31
0.0
  0
LINE
  5
41A
330
1F
100
AcDbEntity
  8
0
  6
Continuous
 62
     7
370
    25
100
AcDbLine
 10
30.5529767377
 20
11.9067328817
 30
0.0
 11
31.1101813281
 21
11.9236909603
 31
0.0
  0
LINE
  5
41B
330
1F
100
AcDbEntity
  8
0
  6
Continuous
 62
     7
370
    25
100
AcDbLine
 10
31.1101813281
 20
11.9236909603
 30
0.0
 11
31.2922337293
 21
11.9236909603
 31
0.0
  0
LINE
  5
41C
330
1F
100
AcDbEntity
  8
0
  6
Continuous
 62
     7
370
    25
100
AcDbLine
 10
30.5529767377
 20
12.0406490389
 30
0.0
 11
31.1101813281
 21
12.0236909603
 31
0.0
  0
LINE
  5
41D
330
1F
100
AcDbEntity
  8
0
  6
Continuous
 62
     7
370
    25
100
AcDbLine
 10
31.1101813281
 20
12.0236909603
 30
0.0
 11
31.1101813281
 21
11.9236909603
 31
0.0
  0
LINE
  5
41E
330
1F
100
AcDbEntity
  8
0
  6
Continuous
 62
     7
370
    25
100
AcDbLine
 10
30.5529767377
 20
12.0406490389
 30
0.0
 11
30.5529767377
 21
11.9067328817
 31
0.0
  0
LINE
  5
41F
330
1F
100
AcDbEntity
  8
0
  6
Continuous
 62
     7
370
    25
100
AcDbLine
 10
31.1101813281
 20
12.0236909603
 30
0.0
 11
31.2922337293
 21
12.0236909603
 31
0.0
  0
LINE
  5
420
330
1F
100
AcDbEntity
  8
0
  6
Continuous
 62
     7
370
    25
100
AcDbLine
 10
30.5529767377
 20
16.3167328817
 30
0.0
 11
30.5529767377
 21
16.4506490389
 31
0.0
  0
LINE
  5
421
330
1F
100
AcDbEntity
  8
0
  6
Continuous
 62
     7
370
    25
100
AcDbLine
 10
30.5529767377
 20
16.4506490389
 30
0.0
 11
31.1101813281
 21
16.4336909603
 31
0.0
  0
LINE
  5
422
330
1F
100
AcDbEntity
  8
0
  6
Continuous
 62
     7
370
    25
100
AcDbLine
 10
30.5411763266
 20
12.0465487951
 30
0.0
 11
30.5529767377
 21
12.0406490389
 31
0.0
  0
LINE
  5
423
330
1F
100
AcDbEntity
  8
0
  6
Continuous
 62
     7
370
    25
100
AcDbLine
 10
30.5411763266
 20
16.4565487951
 30
0.0
 11
30.5529767377
 21
16.4506490389
 31
0.0
  0
LINE
  5
424
330
1F
100
AcDbEntity
  8
0
  6
Continuous
 62
     7
370
    25
100
AcDbLine
 10
32.4308771134
 20
17.3984996685
 30
0.0
 11
32.4486780144
 21
17.5769574003
 31
0.0
  0
LINE
  5
425
330
1F
100
AcDbEntity
  8
0
  6
Continuous
 62
     7
370
    25
100
AcDbLine
 10
32.4308771134
 20
17.3984996685
 30
0.0
 11
32.3308771134
 21
17.3984996685
 31
0.0
  0
LINE
  5
426
330
1F
100
AcDbEntity
  8
0
  6
Continuous
 62
     7
370
    25
100
AcDbLine
 10
32.3308771134
 20
17.3984996685
 30
0.0
 11
32.3130762125
 21
17.5769574003
 31
0.0
  0
LINE
  5
427
330
1F
100
AcDbEntity
  8
0
  6
Continuous
 62
     7
370
    25
100
AcDbLine
 10
32.4486780144
 20
17.5769574003
 30
0.0
 11
32.3130762125
 21
17.5769574003
 31
0.0
  0
LINE
  5
428
330
1F
100
AcDbEntity
  8
0
  6
Continuous
 62
     7
370
    25
100
AcDbLine
 10
32.4308771134
 20
17.2479266929
 30
0.0
 11
32.4308771134
 21
17.3984996685
 31
0.0
  0
LINE
  5
429
330
1F
100
AcDbEntity
  8
0
  6
Continuous
 62
     7
370
    25
100
AcDbLine
 10
32.3308771134
 20
17.2479266929
 30
0.0
 11
32.3308771134
 21
17.3984996685
 31
0.0
  0
LINE
  5
42A
330
1F
100
AcDbEntity
  8
0
  6
Continuous
 62
     7
370
    25
100
AcDbLine
 10
32.3130762125
 20
10.7804245204
 30
0.0
 11
32.3308771134
 21
10.9588822521
 31
0.0
  0
LINE
  5
42B
330
1F
100
AcDbEntity
  8
0
  6
Continuous
 62
     7
370
    25
100
AcDbLine
 10
32.4308771134
 20
10.9588822521
 30
0.0
 11
32.3308771134
 21
10.9588822521
 31
0.0
  0
LINE
  5
42C
330
1F
100
AcDbEntity
  8
0
  6
Continuous
 62
     7
370
    25
100
AcDbLine
 10
32.4486780144
 20
10.7804245204
 30
0.0
 11
32.4308771134
 21
10.9588822521
 31
0.0
  0
LINE
  5
42D
330
1F
100
AcDbEntity
  8
0
  6
Continuous
 62
     7
370
    25
100
AcDbLine
 10
32.4486780144
 20
10.7804245204
 30
0.0
 11
32.3130762125
 21
10.7804245204
 31
0.0
  0
LINE
  5
42E
330
1F
100
AcDbEntity
  8
0
  6
Continuous
 62
     7
370
    25
100
AcDbLine
 10
32.4308771134
 20
10.9588822521
 30
0.0
 11
32.4308771134
 21
11.1094552277
 31
0.0
  0
LINE
  5
42F
330
1F
100
AcDbEntity
  8
0
  6
Continuous
 62
     7
370
    25
100
AcDbLine
 10
32.4576860513
 20
10.8406900534
 30
0.0
 11
32.4576860513
 21
10.7624070743
 31
0.0
  0
LINE
  5
430
330
1F
100
AcDbEntity
  8
0
  6
Continuous
 62
     7
370
    25
100
AcDbLine
 10
32.4576860513
 20
10.7624070743
 30
0.0
 11
32.4486780144
 21
10.7804245204
 31
0.0
  0
LINE
  5
431
330
1F
100
AcDbEntity
  8
0
  6
Continuous
 62
     7
370
    25
100
AcDbLine
 10
32.3308771134
 20
10.9588822521
 30
0.0
 11
32.3308771134
 21
11.1094552277
 31
0.0
  0
LINE
  5
432
330
1F
100
AcDbEntity
  8
0
  6
Continuous
 62
     7
370
    25
100
AcDbLine
 10
32.4576860513
 20
17.5949748463
 30
0.0
 11
32.4576860513
 21
17.5166918672
 31
0.0
  0
LINE
  5
433
330
1F
100
AcDbEntity
  8
0
  6
Continuous
 62
     7
370
    25
100
AcDbLine
 10
32.4486780144
 20
17.5769574003
 30
0.0
 11
32.4576860513
 21
17.5949748463
 31
0.0
  0
LINE
  5
434
330
1F
100
AcDbEntity
  8
0
  6
Continuous
 62
     7
370
    25
100
AcDbLine
 10
32.3040681756
 20
10.7624070743
 30
0.0
 11
32.3130762125
 21
10.7804245204
 31
0.0
  0
LINE
  5
435
330
1F
100
AcDbEntity
  8
0
  6
Continuous
 62
     7
370
    25
100
AcDbLine
 10
32.3040681756
 20
10.8406900534
 30
0.0
 11
32.3040681756
 21
10.7624070743
 31
0.0
  0
LINE
  5
436
330
1F
100
AcDbEntity
  8
0
  6
Continuous
 62
     7
370
    25
100
AcDbLine
 10
32.3040681756
 20
17.5949748463
 30
0.0
 11
32.3040681756
 21
17.5166918672
 31
0.0
  0
LINE
  5
437
330
1F
100
AcDbEntity
  8
0
  6
Continuous
 62
     7
370
    25
100
AcDbLine
 10
32.3130762125
 20
17.5769574003
 30
0.0
 11
32.3040681756
 21
17.5949748463
 31
0.0
  0
LINE
  5
438
330
1F
100
AcDbEntity
  8
0
  6
Continuous
 62
     7
370
    25
100
AcDbLine
 10
36.7408771134
 20
10.9588822521
 30
0.0
 11
36.8408771134
 21
10.9588822521
 31
0.0
  0
LINE
  5
439
330
1F
100
AcDbEntity
  8
0
  6
Continuous
 62
     7
370
    25
100
AcDbLine
 10
36.8586780144
 20
10.7804245204
 30
0.0
 11
36.8408771134
 21
10.9588822521
 31
0.0
  0
LINE
  5
43A
330
1F
100
AcDbEntity
  8
0
  6
Continuous
 62
     7
370
    25
100
AcDbLine
 10
36.8586780144
 20
10.7804245204
 30
0.0
 11
36.7230762125
 21
10.7804245204
 31
0.0
  0
LINE
  5
43B
330
1F
100
AcDbEntity
  8
0
  6
Continuous
 62
     7
370
    25
100
AcDbLine
 10
36.7230762125
 20
10.7804245204
 30
0.0
 11
36.7408771134
 21
10.9588822521
 31
0.0
  0
LINE
  5
43C
330
1F
100
AcDbEntity
  8
0
  6
Continuous
 62
     7
370
    25
100
AcDbLine
 10
36.7408771134
 20
10.9588822521
 30
0.0
 11
36.7408771134
 21
11.1094552277
 31
0.0
  0
LINE
  5
43D
330
1F
100
AcDbEntity
  8
0
  6
Continuous
 62
     7
370
    25
100
AcDbLine
 10
36.7140681756
 20
10.7624070743
 30
0.0
 11
36.7230762125
 21
10.7804245204
 31
0.0
  0
LINE
  5
43E
330
1F
100
AcDbEntity
  8
0
  6
Continuous
 62
     7
370
    25
100
AcDbLine
 10
36.7140681756
 20
10.8406900534
 30
0.0
 11
36.7140681756
 21
10.7624070743
 31
0.0
  0
LINE
  5
43F
330
1F
100
AcDbEntity
  8
0
  6
Continuous
 62
     7
370
    25
100
AcDbLine
 10
36.8408771134
 20
10.9588822521
 30
0.0
 11
36.8408771134
 21
11.1094552277
 31
0.0
  0
LINE
  5
440
330
1F
100
AcDbEntity
  8
0
  6
Continuous
 62
     7
370
    25
100
AcDbLine
 10
36.8676860513
 20
10.8406900534
 30
0.0
 11
36.8676860513
 21
10.7624070743
 31
0.0
  0
LINE
  5
441
330
1F
100
AcDbEntity
  8
0
  6
Continuous
 62
     7
370
    25
100
AcDbLine
 10
36.8676860513
 20
10.7624070743
 30
0.0
 11
36.8586780144
 21
10.7804245204
 31
0.0
  0
LINE
  5
442
330
1F
100
AcDbEntity
  8
0
  6
Continuous
 62
     7
370
    25
100
AcDbLine
 10
36.8676860513
 20
17.5949748463
 30
0.0
 11
36.8676860513
 21
17.5166918672
 31
0.0
  0
LINE
  5
443
330
1F
100
AcDbEntity
  8
0
  6
Continuous
 62
     7
370
    25
100
AcDbLine
 10
36.8408771134
 20
17.2479266929
 30
0.0
 11
36.8408771134
 21
17.3984996685
 31
0.0
  0
LINE
  5
444
330
1F
100
AcDbEntity
  8
0
  6
Continuous
 62
     7
370
    25
100
AcDbLine
 10
36.8408771134
 20
17.3984996685
 30
0.0
 11
36.8586780144
 21
17.5769574003
 31
0.0
  0
LINE
  5
445
330
1F
100
AcDbEntity
  8
0
  6
Continuous
 62
     7
370
    25
100
AcDbLine
 10
36.8586780144
 20
17.5769574003
 30
0.0
 11
36.8676860513
 21
17.5949748463
 31
0.0
  0
LINE
  5
446
330
1F
100
AcDbEntity
  8
0
  6
Continuous
 62
     7
370
    25
100
AcDbLine
 10
36.7408771134
 20
17.2479266929
 30
0.0
 11
36.7408771134
 21
17.3984996685
 31
0.0
  0
LINE
  5
447
330
1F
100
AcDbEntity
  8
0
  6
Continuous
 62
     7
370
    25
100
AcDbLine
 10
36.7140681756
 20
17.5949748463
 30
0.0
 11
36.7140681756
 21
17.5166918672
 31
0.0
  0
LINE
  5
448
330
1F
100
AcDbEntity
  8
0
  6
Continuous
 62
     7
370
    25
100
AcDbLine
 10
36.7230762125
 20
17.5769574003
 30
0.0
 11
36.7140681756
 21
17.5949748463
 31
0.0
  0
LINE
  5
449
330
1F
100
AcDbEntity
  8
0
  6
Continuous
 62
     7
370
    25
100
AcDbLine
 10
36.7408771134
 20
17.3984996685
 30
0.0
 11
36.7230762125
 21
17.5769574003
 31
0.0
  0
LINE
  5
44A
330
1F
100
AcDbEntity
  8
0
  6
Continuous
 62
     7
370
    25
100
AcDbLine
 10
36.7408771134
 20
17.3984996685
 30
0.0
 11
36.8408771134
 21
17.3984996685
 31
0.0
  0
LINE
  5
44B
330
1F
100
AcDbEntity
  8
0
  6
Continuous
 62
     7
370
    25
100
AcDbLine
 10
36.8586780144
 20
17.5769574003
 30
0.0
 11
36.7230762125
 21
17.5769574003
 31
0.0
  0
LINE
  5
44C
330
1F
100
AcDbEntity
  8
0
  6
Continuous
 62
     7
370
    25
100
AcDbLine
 10
30.5411763266
 20
16.7768773034
 30
0.0
 11
30.5411402977
 21
16.7769942564
 31
0.0
  0
LINE
  5
44D
330
1F
100
AcDbEntity
  8
0
  6
Continuous
 62
     7
370
    25
100
AcDbLine
 10
30.5411402977
 20
16.7769942564
 30
0.0
 11
30.5411763266
 21
16.7770812379
 31
0.0
  0
LINE
  5
44E
330
1F
100
AcDbEntity
  8
0
  6
Continuous
 62
     7
370
    25
100
AcDbLine
 10
31.2411763266
 20
17.4770812379
 30
0.0
 11
30.5411763266
 21
16.7770812379
 31
0.0
  0
LINE
  5
44F
330
1F
100
AcDbEntity
  8
0
  6
Continuous
 62
     7
370
    25
100
AcDbLine
 10
31.2413940456
 20
17.47717142
 30
0.0
 11
31.2411763266
 21
17.4770812379
 31
0.0
  0
LINE
  5
450
330
1F
100
AcDbEntity
  8
0
  6
Continuous
 62
     7
370
    25
100
AcDbLine
 10
30.5411402977
 20
11.5803876642
 30
0.0
 11
30.5411763266
 21
11.5805046172
 31
0.0
  0
LINE
  5
451
330
1F
100
AcDbEntity
  8
0
  6
Continuous
 62
     7
370
    25
100
AcDbLine
 10
31.2413940456
 20
10.8802105006
 30
0.0
 11
31.2411763266
 21
10.8803006828
 31
0.0
  0
LINE
  5
452
330
1F
100
AcDbEntity
  8
0
  6
Continuous
 62
     7
370
    25
100
AcDbLine
 10
30.5411763266
 20
11.5803006828
 30
0.0
 11
31.2411763266
 21
10.8803006828
 31
0.0
  0
LINE
  5
453
330
1F
100
AcDbEntity
  8
0
  6
Continuous
 62
     7
370
    25
100
AcDbLine
 10
30.5411402977
 20
11.5803876642
 30
0.0
 11
30.5411763266
 21
11.5803006828
 31
0.0
  0
LINE
  5
454
330
1F
100
AcDbEntity
  8
0
  6
Continuous
 62
     7
370
    25
100
AcDbLine
 10
30.5411763266
 20
16.4565487951
 30
0.0
 11
30.5411763266
 21
16.3108331255
 31
0.0
  0
LINE
  5
455
330
1F
100
AcDbEntity
  8
0
  6
Continuous
 62
     7
370
    25
100
AcDbLine
 10
30.5411763266
 20
12.0465487951
 30
0.0
 11
30.5411763266
 21
11.9008331255
 31
0.0
  0
LINE
  5
456
330
1F
100
AcDbEntity
  8
0
  6
Continuous
 62
     7
370
    25
100
AcDbLine
 10
32.4576860513
 20
17.5949748463
 30
0.0
 11
32.3040681756
 21
17.5949748463
 31
0.0
  0
LINE
  5
457
330
1F
100
AcDbEntity
  8
0
  6
Continuous
 62
     7
370
    25
100
AcDbLine
 10
36.8676860513
 20
17.5949748463
 30
0.0
 11
36.7140681756
 21
17.5949748463
 31
0.0
  0
LINE
  5
458
330
1F
100
AcDbEntity
  8
0
  6
Continuous
 62
     7
370
    25
100
AcDbLine
 10
36.8676860513
 20
10.7624070743
 30
0.0
 11
36.7140681756
 21
10.7624070743
 31
0.0
  0
LINE
  5
459
330
1F
100
AcDbEntity
  8
0
  6
Continuous
 62
     7
370
    25
100
AcDbLine
 10
32.4576860513
 20
10.7624070743
 30
0.0
 11
32.3040681756
 21
10.7624070743
 31
0.0
  0
LINE
  5
45A
330
1F
100
AcDbEntity
  8
0
  6
Continuous
 62
     7
370
    25
100
AcDbLine
 10
30.7677177873
 20
16.0536909603
 30
0.0
 11
30.7677177873
 21
12.3036909603
 31
0.0
  0
LINE
  5
45B
330
1F
100
AcDbEntity
  8
0
  6
Continuous
 62
     7
370
    25
100
AcDbLine
 10
36.4608771134
 20
17.3660913906
 30
0.0
 11
32.7108771134
 21
17.3660913906
 31
0.0
  0
LINE
  5
45C
330
1F
100
AcDbEntity
  8
0
  6
Continuous
 62
     7
370
    25
100
AcDbLine
 10
32.7108771134
 20
10.99129053
 30
0.0
 11
36.4608771134
 21
10.99129053
 31
0.0
  0
LINE
  5
45D
330
1F
100
AcDbEntity
  8
0
  6
Continuous
 62
     7
370
    25
100
AcDbLine
 10
37.9804807082
 20
15.7136909603
 30
0.0
 11
37.9804807082
 21
15.4736909603
 31
0.0
  0
ARC
  5
45E
330
1F
100
AcDbEntity
  8
0
  6
Continuous
 62
     7
370
    25
100
AcDbCircle
 10
37.2936391075
 20
15.5936909603
 30
0.0
 40
0.6587991389621455
100
AcDbArc
 50
349.5050069387
 51
10.4949930613
  0
ARC
  5
45F
330
1F
100
AcDbEntity
  8
0
  6
Continuous
 62
     7
370
    25
100
AcDbCircle
 10
37.2936391075
 20
12.7636909603
 30
0.0
 40
0.6587991389618794
100
AcDbArc
 50
349.5050069387
 51
10.4949930613
  0
ARC
  5
460
330
1F
100
AcDbEntity
  8
0
  6
Continuous
 62
     7
370
    25
100
AcDbCircle
 10
37.1899332317
 20
12.7636909603
 30
0.0
 40
0.6587991389623684
100
AcDbArc
 50
349.5050069387
 51
10.4949930613
  0
ARC
  5
461
330
1F
100
AcDbEntity
  8
0
  6
Continuous
 62
     7
370
    25
100
AcDbCircle
 10
37.1899332317
 20
15.5936909603
 30
0.0
 40
0.6587991389623831
100
AcDbArc
 50
349.5050069387
 51
10.4949930613
  0
LINE
  5
462
330
1F
100
AcDbEntity
  8
0
  6
Continuous
 62
     7
370
    25
100
AcDbLine
 10
37.9804807082
 20
12.8836909603
 30
0.0
 11
37.9804807082
 21
12.6436909603
 31
0.0
  0
LINE
  5
463
330
1F
100
AcDbEntity
  8
0
  6
Continuous
 62
     7
370
    25
100
AcDbLine
 10
30.5411402977
 20
10.8802646539
 30
0.0
 11
30.5411402977
 21
11.5803876642
 31
0.0
  0
LINE
  5
464
330
1F
100
AcDbEntity
  8
0
  6
Continuous
 62
     7
370
    25
100
AcDbLine
 10
30.5411583341
 20
10.8802105006
 30
0.0
 11
30.5411402977
 21
10.8802646539
 31
0.0
  0
LINE
  5
465
330
1F
100
AcDbEntity
  8
0
  6
Continuous
 62
     7
370
    25
100
AcDbLine
 10
30.5332735186
 20
10.8406900534
 30
0.0
 11
30.5332735186
 21
17.5166918672
 31
0.0
  0
LINE
  5
466
330
1F
100
AcDbEntity
  8
0
  6
Continuous
 62
     7
370
    25
100
AcDbLine
 10
30.5411402977
 20
17.4771172667
 30
0.0
 11
30.5411583341
 21
17.47717142
 31
0.0
  0
LINE
  5
467
330
1F
100
AcDbEntity
  8
0
  6
Continuous
 62
     7
370
    25
100
AcDbLine
 10
30.5411402977
 20
16.7769942564
 30
0.0
 11
30.5411402977
 21
17.4771172667
 31
0.0
  0
LINE
  5
468
330
1F
100
AcDbEntity
  8
0
  6
Continuous
 62
     7
370
    25
100
AcDbLine
 10
30.5411763266
 20
17.4770812379
 30
0.0
 11
31.2411763266
 21
17.4770812379
 31
0.0
  0
LINE
  5
469
330
1F
100
AcDbEntity
  8
0
  6
Continuous
 62
     7
370
    25
100
AcDbLine
 10
30.5411402977
 20
17.4771172667
 30
0.0
 11
30.5411763266
 21
17.4770812379
 31
0.0
  0
LINE
  5
46A
330
1F
100
AcDbEntity
  8
0
  6
Continuous
 62
     7
370
    25
100
AcDbLine
 10
37.9726139291
 20
17.4771172667
 30
0.0
 11
37.9725779003
 21
17.4770812379
 31
0.0
  0
LINE
  5
46B
330
1F
100
AcDbEntity
  8
0
  6
Continuous
 62
     7
370
    25
100
AcDbLine
 10
37.2725779003
 20
17.4770812379
 30
0.0
 11
37.9725779003
 21
17.4770812379
 31
0.0
  0
LINE
  5
46C
330
1F
100
AcDbEntity
  8
0
  6
Continuous
 62
     7
370
    25
100
AcDbLine
 10
37.9725779003
 20
10.8803006828
 30
0.0
 11
37.2725779003
 21
10.8803006828
 31
0.0
  0
LINE
  5
46D
330
1F
100
AcDbEntity
  8
0
  6
Continuous
 62
     7
370
    25
100
AcDbLine
 10
37.9726139291
 20
10.8802646539
 30
0.0
 11
37.9725779003
 21
10.8803006828
 31
0.0
  0
LINE
  5
46E
330
1F
100
AcDbEntity
  8
0
  6
Continuous
 62
     7
370
    25
100
AcDbLine
 10
30.5411402977
 20
10.8802646539
 30
0.0
 11
30.5411763266
 21
10.8803006828
 31
0.0
  0
LINE
  5
46F
330
1F
100
AcDbEntity
  8
0
  6
Continuous
 62
     7
370
    25
100
AcDbLine
 10
31.2411763266
 20
10.8803006828
 30
0.0
 11
30.5411763266
 21
10.8803006828
 31
0.0
  0
LINE
  5
470
330
1F
100
AcDbEntity
  8
0
  6
Continuous
 62
     7
370
    25
100
AcDbLine
 10
30.5411763266
 20
16.7770812379
 30
0.0
 11
30.5411763266
 21
17.4770812379
 31
0.0
  0
LINE
  5
471
330
1F
100
AcDbEntity
  8
0
  6
Continuous
 62
     7
370
    25
100
AcDbLine
 10
30.5411763266
 20
10.8803006828
 30
0.0
 11
30.5411763266
 21
11.5803006828
 31
0.0
  0
LINE
  5
472
330
1F
100
AcDbEntity
  8
0
  6
Continuous
 62
     7
370
    25
100
AcDbLine
 10
37.9725779003
 20
11.5803006828
 30
0.0
 11
37.9725779003
 21
10.8803006828
 31
0.0
  0
LINE
  5
473
330
1F
100
AcDbEntity
  8
0
  6
Continuous
 62
     7
370
    25
100
AcDbLine
 10
37.9725779003
 20
17.4770812379
 30
0.0
 11
37.9725779003
 21
16.7770812379
 31
0.0
  0
CIRCLE
  5
474
330
1F
100
AcDbEntity
  8
0
  6
Continuous
 62
     7
370
    25
100
AcDbCircle
 10
30.7663771134
 20
17.2541909603
 30
0.0
 40
0.0657488155880444
  0
CIRCLE
  5
475
330
1F
100
AcDbEntity
  8
0
  6
Continuous
 62
     7
370
    25
100
AcDbCircle
 10
30.7663771134
 20
17.2541909603
 30
0.0
 40
0.0749999999999993
  0
CIRCLE
  5
476
330
1F
100
AcDbEntity
  8
0
  6
Continuous
 62
     7
370
    25
100
AcDbCircle
 10
30.7663771134
 20
11.1031909603
 30
0.0
 40
0.0657488155880461
  0
CIRCLE
  5
477
330
1F
100
AcDbEntity
  8
0
  6
Continuous
 62
     7
370
    25
100
AcDbCircle
 10
30.7663771134
 20
11.1031909603
 30
0.0
 40
0.0750000000000028
  0
CIRCLE
  5
478
330
1F
100
AcDbEntity
  8
0
  6
Continuous
 62
     7
370
    25
100
AcDbCircle
 10
37.7473771134
 20
17.2541909603
 30
0.0
 40
0.0657488155880444
  0
CIRCLE
  5
479
330
1F
100
AcDbEntity
  8
0
  6
Continuous
 62
     7
370
    25
100
AcDbCircle
 10
37.7473771134
 20
17.2541909603
 30
0.0
 40
0.0749999999999993
  0
CIRCLE
  5
47A
330
1F
100
AcDbEntity
  8
0
  6
Continuous
 62
     7
370
    25
100
AcDbCircle
 10
37.7473771134
 20
11.1031909603
 30
0.0
 40
0.0750000000000028
  0
CIRCLE
  5
47B
330
1F
100
AcDbEntity
  8
0
  6
Continuous
 62
     7
370
    25
100
AcDbCircle
 10
37.7473771134
 20
11.1031909603
 30
0.0
 40
0.0657488155880461
  0
LINE
  5
47C
330
1F
100
AcDbEntity
  8
0
  6
Continuous
 62
     7
370
    25
100
AcDbLine
 10
30.3218771134
 20
10.6186909603
 30
0.0
 11
30.3218771134
 21
17.7386909603
 31
0.0
  0
LINE
  5
47D
330
1F
100
AcDbEntity
  8
0
  6
Continuous
 62
     7
370
    25
100
AcDbLine
 10
30.3218771134
 20
17.7386909603
 30
0.0
 11
38.1918771134
 21
17.7386909603
 31
0.0
  0
LINE
  5
47E
330
1F
100
AcDbEntity
  8
0
  6
Continuous
 62
     7
370
    25
100
AcDbLine
 10
38.1918771134
 20
17.7386909603
 30
0.0
 11
38.1918771134
 21
10.6186909603
 31
0.0
  0
LINE
  5
47F
330
1F
100
AcDbEntity
  8
0
  6
Continuous
 62
     7
370
    25
100
AcDbLine
 10
38.1918771134
 20
10.6186909603
 30
0.0
 11
30.3218771134
 21
10.6186909603
 31
0.0
  0
LINE
  5
480
330
1F
100
AcDbEntity
  8
0
  6
Continuous
 62
     7
370
    25
100
AcDbLine
 10
30.8276642459
 20
12.3036909603
 30
0.0
 11
30.8276642459
 21
16.0536909603
 31
0.0
  0
LINE
  5
481
330
1F
100
AcDbEntity
  8
0
  6
Continuous
 62
     7
370
    25
100
AcDbLine
 10
30.8323771134
 20
12.3036909603
 30
0.0
 11
30.8323771134
 21
16.0536909603
 31
0.0
  0
LINE
  5
482
330
1F
100
AcDbEntity
  8
0
  6
Continuous
 62
     7
370
    25
100
AcDbLine
 10
32.7108771134
 20
17.2959038278
 30
0.0
 11
36.4608771134
 21
17.2959038278
 31
0.0
  0
LINE
  5
483
330
1F
100
AcDbEntity
  8
0
  6
Continuous
 62
     7
370
    25
100
AcDbLine
 10
32.7108771134
 20
17.2911909603
 30
0.0
 11
36.4608771134
 21
17.2911909603
 31
0.0
  0
LINE
  5
484
330
1F
100
AcDbEntity
  8
0
  6
Continuous
 62
     7
370
    25
100
AcDbLine
 10
36.4608771134
 20
11.0624780928
 30
0.0
 11
32.7108771134
 21
11.0624780928
 31
0.0
  0
LINE
  5
485
330
1F
100
AcDbEntity
  8
0
  6
Continuous
 62
     7
370
    25
100
AcDbLine
 10
37.80610872
 20
12.6436909603
 30
0.0
 11
37.80610872
 21
12.8836909603
 31
0.0
  0
LINE
  5
486
330
1F
100
AcDbEntity
  8
0
  6
Continuous
 62
     7
370
    25
100
AcDbLine
 10
37.80610872
 20
15.4736909603
 30
0.0
 11
37.80610872
 21
15.7136909603
 31
0.0
  0
LINE
  5
487
330
1F
100
AcDbEntity
  8
0
  6
Continuous
 62
     7
370
    25
100
AcDbLine
 10
37.8382052705
 20
15.7134817593
 30
0.0
 11
37.8382052705
 21
15.4739001613
 31
0.0
  0
LINE
  5
488
330
1F
100
AcDbEntity
  8
0
  6
Continuous
 62
     7
370
    25
100
AcDbLine
 10
37.8382052705
 20
12.8834817593
 30
0.0
 11
37.8382052705
 21
12.6439001613
 31
0.0
  0
LINE
  5
489
330
1F
100
AcDbEntity
  8
0
  6
Continuous
 62
     7
370
    25
100
AcDbLine
 10
36.4608771134
 20
11.0671909603
 30
0.0
 11
32.7108771134
 21
11.0671909603
 31
0.0
  0
LINE
  5
48A
330
1F
100
AcDbEntity
  8
0
  6
Continuous
 62
     7
370
    25
100
AcDbLine
 10
37.8445589965
 20
15.5246748452
 30
0.0
 11
37.8445589965
 21
15.6627070754
 31
0.0
  0
LINE
  5
48B
330
1F
100
AcDbEntity
  8
0
  6
Continuous
 62
     7
370
    25
100
AcDbLine
 10
37.8445589965
 20
12.6946748452
 30
0.0
 11
37.8445589965
 21
12.8327070754
 31
0.0
  0
ARC
  5
48C
330
1F
100
AcDbEntity
  8
0
  6
Continuous
 62
     7
370
    25
100
AcDbCircle
 10
29.7533771134
 20
10.4111909603
 30
0.0
 40
0.0878181168839731
100
AcDbArc
 50
180.0
 51
270.0
  0
LINE
  5
48D
330
1F
100
AcDbEntity
  8
0
  6
Continuous
 62
     7
370
    25
100
AcDbLine
 10
29.7533771134
 20
10.3233728434
 30
0.0
 11
29.7533771134
 21
10.3211909603
 31
0.0
  0
ARC
  5
48E
330
1F
100
AcDbEntity
  8
0
  6
Continuous
 62
     7
370
    25
100
AcDbCircle
 10
29.7533771134
 20
10.4111909603
 30
0.0
 40
0.0899999999999999
100
AcDbArc
 50
180.0
 51
270.0
  0
LINE
  5
48F
330
1F
100
AcDbEntity
  8
0
  6
Continuous
 62
     7
370
    25
100
AcDbLine
 10
29.6655589965
 20
10.4111909603
 30
0.0
 11
29.6633771134
 21
10.4111909603
 31
0.0
  0
ARC
  5
490
330
1F
100
AcDbEntity
  8
0
  6
Continuous
 62
     7
370
    25
100
AcDbCircle
 10
38.8113771134
 20
10.4111909603
 30
0.0
 40
0.0878181168839713
100
AcDbArc
 50
270.0
 51
0.0
  0
LINE
  5
491
330
1F
100
AcDbEntity
  8
0
  6
Continuous
 62
     7
370
    25
100
AcDbLine
 10
38.8991952303
 20
10.4111909603
 30
0.0
 11
38.9013771134
 21
10.4111909603
 31
0.0
  0
ARC
  5
492
330
1F
100
AcDbEntity
  8
0
  6
Continuous
 62
     7
370
    25
100
AcDbCircle
 10
38.8113771134
 20
10.4111909603
 30
0.0
 40
0.0899999999999981
100
AcDbArc
 50
270.0
 51
0.0
  0
LINE
  5
493
330
1F
100
AcDbEntity
  8
0
  6
Continuous
 62
     7
370
    25
100
AcDbLine
 10
38.8113771134
 20
10.3233728434
 30
0.0
 11
38.8113771134
 21
10.3211909603
 31
0.0
  0
LINE
  5
494
330
1F
100
AcDbEntity
  8
0
  6
Continuous
 62
     7
370
    25
100
AcDbLine
 10
38.8991952303
 20
10.4111909603
 30
0.0
 11
38.8991952303
 21
17.9471909603
 31
0.0
  0
LINE
  5
495
330
1F
100
AcDbEntity
  8
0
  6
Continuous
 62
     7
370
    25
100
AcDbLine
 10
38.8991952303
 20
17.9471909603
 30
0.0
 11
38.9013771134
 21
17.9471909603
 31
0.0
  0
LINE
  5
496
330
1F
100
AcDbEntity
  8
0
  6
Continuous
 62
     7
370
    25
100
AcDbLine
 10
38.9013771134
 20
10.4111909603
 30
0.0
 11
38.9013771134
 21
17.9471909603
 31
0.0
  0
ARC
  5
497
330
1F
100
AcDbEntity
  8
0
  6
Continuous
 62
     7
370
    25
100
AcDbCircle
 10
38.8113771134
 20
17.9471909603
 30
0.0
 40
0.0878181168839731
100
AcDbArc
 50
0.0
 51
90.0
  0
LINE
  5
498
330
1F
100
AcDbEntity
  8
0
  6
Continuous
 62
     7
370
    25
100
AcDbLine
 10
38.8113771134
 20
18.0350090772
 30
0.0
 11
38.8113771134
 21
18.0371909603
 31
0.0
  0
ARC
  5
499
330
1F
100
AcDbEntity
  8
0
  6
Continuous
 62
     7
370
    25
100
AcDbCircle
 10
38.8113771134
 20
17.9471909603
 30
0.0
 40
0.0900000000000034
100
AcDbArc
 50
0.0
 51
90.0
  0
LINE
  5
49A
330
1F
100
AcDbEntity
  8
0
  6
Continuous
 62
     7
370
    25
100
AcDbLine
 10
38.8113771134
 20
18.0350090772
 30
0.0
 11
29.7533771134
 21
18.0350090772
 31
0.0
  0
LINE
  5
49B
330
1F
100
AcDbEntity
  8
0
  6
Continuous
 62
     7
370
    25
100
AcDbLine
 10
29.7533771134
 20
18.0350090772
 30
0.0
 11
29.7533771134
 21
18.0371909603
 31
0.0
  0
LINE
  5
49C
330
1F
100
AcDbEntity
  8
0
  6
Continuous
 62
     7
370
    25
100
AcDbLine
 10
38.8113771134
 20
18.0371909603
 30
0.0
 11
29.7533771134
 21
18.0371909603
 31
0.0
  0
ARC
  5
49D
330
1F
100
AcDbEntity
  8
0
  6
Continuous
 62
     7
370
    25
100
AcDbCircle
 10
29.7533771134
 20
17.9471909603
 30
0.0
 40
0.0878181168839731
100
AcDbArc
 50
90.0
 51
180.0
  0
LINE
  5
49E
330
1F
100
AcDbEntity
  8
0
  6
Continuous
 62
     7
370
    25
100
AcDbLine
 10
29.6655589965
 20
17.9471909603
 30
0.0
 11
29.6633771134
 21
17.9471909603
 31
0.0
  0
ARC
  5
49F
330
1F
100
AcDbEntity
  8
0
  6
Continuous
 62
     7
370
    25
100
AcDbCircle
 10
29.7533771134
 20
17.9471909603
 30
0.0
 40
0.0899999999999999
100
AcDbArc
 50
90.0
 51
180.0
  0
LINE
  5
4A0
330
1F
100
AcDbEntity
  8
0
  6
Continuous
 62
     7
370
    25
100
AcDbLine
 10
29.6655589965
 20
17.9471909603
 30
0.0
 11
29.6655589965
 21
10.4111909603
 31
0.0
  0
LINE
  5
4A1
330
1F
100
AcDbEntity
  8
0
  6
Continuous
 62
     7
370
    25
100
AcDbLine
 10
29.6633771134
 20
17.9471909603
 30
0.0
 11
29.6633771134
 21
10.4111909603
 31
0.0
  0
LINE
  5
4A2
330
1F
100
AcDbEntity
  8
0
  6
Continuous
 62
     7
370
    25
100
AcDbLine
 10
29.5533771134
 20
10.4111909603
 30
0.0
 11
29.5533771134
 21
17.9471909603
 31
0.0
  0
ARC
  5
4A3
330
1F
100
AcDbEntity
  8
0
  6
Continuous
 62
     7
370
    25
100
AcDbCircle
 10
29.7533771134
 20
17.9471909603
 30
0.0
 40
0.1999999999999993
100
AcDbArc
 50
90.0
 51
180.0
  0
ARC
  5
4A4
330
1F
100
AcDbEntity
  8
0
  6
Continuous
 62
     7
370
    25
100
AcDbCircle
 10
29.7533771134
 20
10.4111909603
 30
0.0
 40
0.1999999999999993
100
AcDbArc
 50
180.0
 51
270.0
  0
LINE
  5
4A5
330
1F
100
AcDbEntity
  8
0
  6
Continuous
 62
     7
370
    25
100
AcDbLine
 10
29.7533771134
 20
10.3211909603
 30
0.0
 11
38.8113771134
 21
10.3211909603
 31
0.0
  0
LINE
  5
4A6
330
1F
100
AcDbEntity
  8
0
  6
Continuous
 62
     7
370
    25
100
AcDbLine
 10
38.8113771134
 20
10.2111909603
 30
0.0
 11
29.7533771134
 21
10.2111909603
 31
0.0
  0
ARC
  5
4A7
330
1F
100
AcDbEntity
  8
0
  6
Continuous
 62
     7
370
    25
100
AcDbCircle
 10
38.8113771134
 20
10.4111909603
 30
0.0
 40
0.2000000000000028
100
AcDbArc
 50
270.0
 51
0.0
  0
LINE
  5
4A8
330
1F
100
AcDbEntity
  8
0
  6
Continuous
 62
     7
370
    25
100
AcDbLine
 10
39.0113771134
 20
17.9471909603
 30
0.0
 11
39.0113771134
 21
10.4111909603
 31
0.0
  0
ARC
  5
4A9
330
1F
100
AcDbEntity
  8
0
  6
Continuous
 62
     7
370
    25
100
AcDbCircle
 10
38.8113771134
 20
17.9471909603
 30
0.0
 40
0.2000000000000028
100
AcDbArc
 50
0.0
 51
90.0
  0
LINE
  5
4AA
330
1F
100
AcDbEntity
  8
0
  6
Continuous
 62
     7
370
    25
100
AcDbLine
 10
29.7533771134
 20
18.1471909603
 30
0.0
 11
38.8113771134
 21
18.1471909603
 31
0.0
  0
LINE
  5
4AB
330
1F
100
AcDbEntity
  8
0
  6
Continuous
 62
     7
370
    25
100
AcDbLine
 10
29.7533771134
 20
10.3233728434
 30
0.0
 11
38.8113771134
 21
10.3233728434
 31
0.0
  0
ENDSEC
  0
SECTION
  2
OBJECTS
  0
DICTIONARY
  5
C
330
0
100
AcDbDictionary
281
     1
  3
ACAD_GROUP
350
D
  3
ACAD_LAYOUT
350
1A
  3
ACAD_MLINESTYLE
350
17
  3
ACAD_PLOTSETTINGS
350
19
  3
ACAD_PLOTSTYLENAME
350
E
  3
ACAD_SCALELIST
350
47
  3
DWGPROPS
350
4AC
  0
DICTIONARY
  5
D
102
{ACAD_REACTORS
330
C
102
}
330
C
100
AcDbDictionary
281
     1
  0
DICTIONARY
  5
1A
102
{ACAD_REACTORS
330
C
102
}
330
C
100
AcDbDictionary
281
     1
  3
Layout1
350
1E
  3
Layout2
350
26
  3
Model
350
22
  0
DICTIONARY
  5
17
102
{ACAD_REACTORS
330
C
102
}
330
C
100
AcDbDictionary
281
     1
  3
Standard
350
18
  0
DICTIONARY
  5
19
102
{ACAD_REACTORS
330
C
102
}
330
C
100
AcDbDictionary
281
     1
  0
ACDBDICTIONARYWDFLT
  5
E
102
{ACAD_REACTORS
330
C
102
}
330
C
100
AcDbDictionary
281
     1
  3
Normal
350
F
100
AcDbDictionaryWithDefault
340
F
  0
DICTIONARY
  5
47
102
{ACAD_REACTORS
330
C
102
}
330
C
100
AcDbDictionary
281
     1
  3
A0
350
48
  3
A1
350
49
  3
A2
350
4A
  3
A3
350
4B
  3
A4
350
4C
  3
A5
350
4D
  3
A6
350
4E
  3
A7
350
4F
  3
A8
350
50
  3
A9
350
51
  3
B0
350
52
  3
B1
350
53
  3
B2
350
54
  3
B3
350
55
  3
B4
350
56
  3
B5
350
57
  3
B6
350
58
  3
B7
350
59
  3
B8
350
5A
  3
B9
350
5B
  3
C0
350
5C
  3
C1
350
5D
  3
C2
350
5E
  3
C3
350
5F
  3
C4
350
60
  3
C5
350
61
  3
C6
350
62
  3
C7
350
63
  3
C8
350
64
  3
C9
350
65
  3
D0
350
66
  3
D1
350
67
  3
D2
350
68
  0
XRECORD
  5
4AC
102
{ACAD_REACTORS
330
C
102
}
330
C
100
AcDbXrecord
280
     1
  1
DWGPROPS COOKIE
  2

  3

  4

  6

  7

  8
ELM
  9

300
=
301
=
302
=
303
=
304
=
305
=
306
=
307
=
308
=
309
=
 40
0.0
 41
2459845.613082535
 42
2459845.613083692
  1

 90
        0
  0
LAYOUT
  5
1E
102
{ACAD_REACTORS
330
1A
102
}
330
1A
100
AcDbPlotSettings
  1

  2
none_device
  4

  6

 40
0.0
 41
0.0
 42
0.0
 43
0.0
 44
0.0
 45
0.0
 46
0.0
 47
0.0
 48
0.0
 49
0.0
140
0.0
141
0.0
142
1.0
143
1.0
 70
   688
 72
     0
 73
     0
 74
     5
  7

 75
    16
147
1.0
148
0.0
149
0.0
100
AcDbLayout
  1
Layout1
 70
     1
 71
     1
 10
0.0
 20
0.0
 11
12.0
 21
9.0
 12
0.0
 22
0.0
 32
0.0
 14
1.0000000000E+20
 24
1.0000000000E+20
 34
1.0000000000E+20
 15
-1.0000000000E+20
 25
-1.0000000000E+20
 35
-1.0000000000E+20
146
0.0
 13
0.0
 23
0.0
 33
0.0
 16
1.0
 26
0.0
 36
0.0
 17
0.0
 27
1.0
 37
0.0
 76
     0
330
1B
  0
LAYOUT
  5
26
102
{ACAD_REACTORS
330
1A
102
}
330
1A
100
AcDbPlotSettings
  1

  2
none_device
  4

  6

 40
0.0
 41
0.0
 42
0.0
 43
0.0
 44
0.0
 45
0.0
 46
0.0
 47
0.0
 48
0.0
 49
0.0
140
0.0
141
0.0
142
1.0
143
1.0
 70
   688
 72
     0
 73
     0
 74
     5
  7

 75
    16
147
1.0
148
0.0
149
0.0
100
AcDbLayout
  1
Layout2
 70
     1
 71
     2
 10
0.0
 20
0.0
 11
0.0
 21
0.0
 12
0.0
 22
0.0
 32
0.0
 14
0.0
 24
0.0
 34
0.0
 15
0.0
 25
0.0
 35
0.0
146
0.0
 13
0.0
 23
0.0
 33
0.0
 16
1.0
 26
0.0
 36
0.0
 17
0.0
 27
1.0
 37
0.0
 76
     0
330
23
  0
LAYOUT
  5
22
102
{ACAD_REACTORS
330
1A
102
}
330
1A
100
AcDbPlotSettings
  1

  2
none_device
  4
Letter_(8.50_x_11.00_Inches)
  6

 40
6.35
 41
6.35
 42
6.35000508
 43
6.35000508
 44
215.9
 45
279.4
 46
0.0
 47
0.0
 48
0.0
 49
0.0
140
0.0
141
0.0
142
1.0
143
1.0
 70
  1712
 72
     0
 73
     0
 74
     0
  7

 75
     0
147
1.0
148
0.0
149
0.0
100
AcDbLayout
  1
Model
 70
     1
 71
     0
 10
0.0
 20
0.0
 11
50.0
 21
30.0
 12
0.0
 22
0.0
 32
0.0
 14
0.0
 24
0.0
 34
0.0
 15
50.0
 25
30.0
 35
0.0
146
0.0
 13
0.0
 23
0.0
 33
0.0
 16
1.0
 26
0.0
 36
0.0
 17
0.0
 27
1.0
 37
0.0
 76
     0
330
1F
331
29
  0
MLINESTYLE
  5
18
102
{ACAD_REACTORS
330
17
102
}
330
17
100
AcDbMlineStyle
  2
Standard
 70
     0
  3

 62
   256
 51
90.0
 52
90.0
 71
     2
 49
0.5
 62
   256
  6
BYLAYER
 49
-0.5
 62
   256
  6
BYLAYER
  0
ACDBPLACEHOLDER
  5
F
102
{ACAD_REACTORS
330
E
102
}
330
E
  0
SCALE
  5
48
102
{ACAD_REACTORS
330
47
102
}
330
47
100
AcDbScale
 70
     0
300
1:1
140
1.0
141
1.0
290
     1
  0
SCALE
  5
49
102
{ACAD_REACTORS
330
47
102
}
330
47
100
AcDbScale
 70
     0
300
1:2
140
1.0
141
2.0
290
     0
  0
SCALE
  5
4A
102
{ACAD_REACTORS
330
47
102
}
330
47
100
AcDbScale
 70
     0
300
1:4
140
1.0
141
4.0
290
     0
  0
SCALE
  5
4B
102
{ACAD_REACTORS
330
47
102
}
330
47
100
AcDbScale
 70
     0
300
1:5
140
1.0
141
5.0
290
     0
  0
SCALE
  5
4C
102
{ACAD_REACTORS
330
47
102
}
330
47
100
AcDbScale
 70
     0
300
1:8
140
1.0
141
8.0
290
     0
  0
SCALE
  5
4D
102
{ACAD_REACTORS
330
47
102
}
330
47
100
AcDbScale
 70
     0
300
1:10
140
1.0
141
10.0
290
     0
  0
SCALE
  5
4E
102
{ACAD_REACTORS
330
47
102
}
330
47
100
AcDbScale
 70
     0
300
1:16
140
1.0
141
16.0
290
     0
  0
SCALE
  5
4F
102
{ACAD_REACTORS
330
47
102
}
330
47
100
AcDbScale
 70
     0
300
1:20
140
1.0
141
20.0
290
     0
  0
SCALE
  5
50
102
{ACAD_REACTORS
330
47
102
}
330
47
100
AcDbScale
 70
     0
300
1:30
140
1.0
141
30.0
290
     0
  0
SCALE
  5
51
102
{ACAD_REACTORS
330
47
102
}
330
47
100
AcDbScale
 70
     0
300
1:40
140
1.0
141
40.0
290
     0
  0
SCALE
  5
52
102
{ACAD_REACTORS
330
47
102
}
330
47
100
AcDbScale
 70
     0
300
1:50
140
1.0
141
50.0
290
     0
  0
SCALE
  5
53
102
{ACAD_REACTORS
330
47
102
}
330
47
100
AcDbScale
 70
     0
300
1:100
140
1.0
141
100.0
290
     0
  0
SCALE
  5
54
102
{ACAD_REACTORS
330
47
102
}
330
47
100
AcDbScale
 70
     0
300
2:1
140
2.0
141
1.0
290
     0
  0
SCALE
  5
55
102
{ACAD_REACTORS
330
47
102
}
330
47
100
AcDbScale
 70
     0
300
4:1
140
4.0
141
1.0
290
     0
  0
SCALE
  5
56
102
{ACAD_REACTORS
330
47
102
}
330
47
100
AcDbScale
 70
     0
300
8:1
140
8.0
141
1.0
290
     0
  0
SCALE
  5
57
102
{ACAD_REACTORS
330
47
102
}
330
47
100
AcDbScale
 70
     0
300
10:1
140
10.0
141
1.0
290
     0
  0
SCALE
  5
58
102
{ACAD_REACTORS
330
47
102
}
330
47
100
AcDbScale
 70
     0
300
100:1
140
100.0
141
1.0
290
     0
  0
SCALE
  5
59
102
{ACAD_REACTORS
330
47
102
}
330
47
100
AcDbScale
 70
     0
300
1/128" = 1'-0"
140
0.0078125
141
12.0
290
     0
  0
SCALE
  5
5A
102
{ACAD_REACTORS
330
47
102
}
330
47
100
AcDbScale
 70
     0
300
1/64" = 1'-0"
140
0.015625
141
12.0
290
     0
  0
SCALE
  5
5B
102
{ACAD_REACTORS
330
47
102
}
330
47
100
AcDbScale
 70
     0
300
1/32" = 1'-0"
140
0.03125
141
12.0
290
     0
  0
SCALE
  5
5C
102
{ACAD_REACTORS
330
47
102
}
330
47
100
AcDbScale
 70
     0
300
1/16" = 1'-0"
140
0.0625
141
12.0
290
     0
  0
SCALE
  5
5D
102
{ACAD_REACTORS
330
47
102
}
330
47
100
AcDbScale
 70
     0
300
3/32" = 1'-0"
140
0.09375
141
12.0
290
     0
  0
SCALE
  5
5E
102
{ACAD_REACTORS
330
47
102
}
330
47
100
AcDbScale
 70
     0
300
1/8" = 1'-0"
140
0.125
141
12.0
290
     0
  0
SCALE
  5
5F
102
{ACAD_REACTORS
330
47
102
}
330
47
100
AcDbScale
 70
     0
300
3/16" = 1'-0"
140
0.1875
141
12.0
290
     0
  0
SCALE
  5
60
102
{ACAD_REACTORS
330
47
102
}
330
47
100
AcDbScale
 70
     0
300
1/4" = 1'-0"
140
0.25
141
12.0
290
     0
  0
SCALE
  5
61
102
{ACAD_REACTORS
330
47
102
}
330
47
100
AcDbScale
 70
     0
300
3/8" = 1'-0"
140
0.375
141
12.0
290
     0
  0
SCALE
  5
62
102
{ACAD_REACTORS
330
47
102
}
330
47
100
AcDbScale
 70
     0
300
1/2" = 1'-0"
140
0.5
141
12.0
290
     0
  0
SCALE
  5
63
102
{ACAD_REACTORS
330
47
102
}
330
47
100
AcDbScale
 70
     0
300
3/4" = 1'-0"
140
0.75
141
12.0
290
     0
  0
SCALE
  5
64
102
{ACAD_REACTORS
330
47
102
}
330
47
100
AcDbScale
 70
     0
300
1" = 1'-0"
140
1.0
141
12.0
290
     0
  0
SCALE
  5
65
102
{ACAD_REACTORS
330
47
102
}
330
47
100
AcDbScale
 70
     0
300
1-1/2" = 1'-0"
140
1.5
141
12.0
290
     0
  0
SCALE
  5
66
102
{ACAD_REACTORS
330
47
102
}
330
47
100
AcDbScale
 70
     0
300
3" = 1'-0"
140
3.0
141
12.0
290
     0
  0
SCALE
  5
67
102
{ACAD_REACTORS
330
47
102
}
330
47
100
AcDbScale
 70
     0
300
6" = 1'-0"
140
6.0
141
12.0
290
     0
  0
SCALE
  5
68
102
{ACAD_REACTORS
330
47
102
}
330
47
100
AcDbScale
 70
     0
300
1'-0" = 1'-0"
140
12.0
141
12.0
290
     0
  0
ENDSEC
  0
EOF
