  0
SECTION
  2
HEADER
  9
$ACADVER
  1
AC1015
  9
$ACADMAINTVER
 70
     6
  9
$DWGCODEPAGE
  3
ANSI_1252
  9
$INSBASE
 10
0.0
 20
0.0
 30
0.0
  9
$EXTMIN
 10
0.0
 20
0.0
 30
0.0
  9
$EXTMAX
 10
34.0
 20
22.0
 30
0.0
  9
$LIMMIN
 10
0.0
 20
0.0
  9
$LIMMAX
 10
34.0
 20
22.0
  9
$ORTHOMODE
 70
     0
  9
$REGENMODE
 70
     1
  9
$FILLMODE
 70
     1
  9
$QTEXTMODE
 70
     0
  9
$MIRRTEXT
 70
     1
  9
$LTSCALE
 40
1.0
  9
$ATTMODE
 70
     1
  9
$TEXTSIZE
 40
0.125
  9
$TRACEWID
 40
0.05
  9
$TEXTSTYLE
  7
Standard
  9
$CLAYER
  8
0
  9
$CELTYPE
  6
ByLayer
  9
$CECOLOR
 62
   256
  9
$CELTSCALE
 40
1.0
  9
$DISPSILH
 70
     0
  9
$DIMSCALE
 40
1.0
  9
$DIMASZ
 40
0.15
  9
$DIMEXO
 40
0.05
  9
$DIMDLI
 40
0.38
  9
$DIMRND
 40
0.0
  9
$DIMDLE
 40
0.0
  9
$DIMEXE
 40
0.075
  9
$DIMTP
 40
0.0
  9
$DIMTM
 40
0.0
  9
$DIMTXT
 40
0.125
  9
$DIMCEN
 40
0.09
  9
$DIMTSZ
 40
0.0
  9
$DIMTOL
 70
     0
  9
$DIMLIM
 70
     0
  9
$DIMTIH
 70
     1
  9
$DIMTOH
 70
     1
  9
$DIMSE1
 70
     0
  9
$DIMSE2
 70
     0
  9
$DIMTAD
 70
     0
  9
$DIMZIN
 70
     0
  9
$DIMBLK
  1

  9
$DIMASO
 70
     1
  9
$DIMSHO
 70
     1
  9
$DIMPOST
  1

  9
$DIMAPOST
  1

  9
$DIMALT
 70
     0
  9
$DIMALTD
 70
     2
  9
$DIMALTF
 40
25.4
  9
$DIMLFAC
 40
1.0
  9
$DIMTOFL
 70
     0
  9
$DIMTVP
 40
0.0
  9
$DIMTIX
 70
     0
  9
$DIMSOXD
 70
     0
  9
$DIMSAH
 70
     0
  9
$DIMBLK1
  1

  9
$DIMBLK2
  1

  9
$DIMSTYLE
  2
Standard
  9
$DIMCLRD
 70
     0
  9
$DIMCLRE
 70
     0
  9
$DIMCLRT
 70
     0
  9
$DIMTFAC
 40
1.0
  9
$DIMGAP
 40
0.06
  9
$DIMJUST
 70
     0
  9
$DIMSD1
 70
     0
  9
$DIMSD2
 70
     0
  9
$DIMTOLJ
 70
     1
  9
$DIMTZIN
 70
     0
  9
$DIMALTZ
 70
     0
  9
$DIMALTTZ
 70
     0
  9
$DIMUPT
 70
     0
  9
$DIMDEC
 70
     3
  9
$DIMTDEC
 70
     3
  9
$DIMALTU
 70
     2
  9
$DIMALTTD
 70
     2
  9
$DIMTXSTY
  7
Standard
  9
$DIMAUNIT
 70
     0
  9
$DIMADEC
 70
     2
  9
$DIMALTRND
 40
0.0
  9
$DIMAZIN
 70
     0
  9
$DIMDSEP
 70
    46
  9
$DIMATFIT
 70
     3
  9
$DIMFRAC
 70
     0
  9
$DIMLDRBLK
  1

  9
$DIMLUNIT
 70
     2
  9
$DIMLWD
 70
    -2
  9
$DIMLWE
 70
    -2
  9
$DIMTMOVE
 70
     0
  9
$LUNITS
 70
     2
  9
$LUPREC
 70
     3
  9
$SKETCHINC
 40
0.1
  9
$FILLETRAD
 40
0.5
  9
$AUNITS
 70
     0
  9
$AUPREC
 70
     2
  9
$MENU
  1
.
  9
$ELEVATION
 40
0.0
  9
$PELEVATION
 40
0.0
  9
$THICKNESS
 40
0.0
  9
$LIMCHECK
 70
     0
  9
$CHAMFERA
 40
0.0
  9
$CHAMFERB
 40
0.0
  9
$CHAMFERC
 40
0.0
  9
$CHAMFERD
 40
0.0
  9
$SKPOLY
 70
     0
  9
$TDCREATE
 40
2459268.584778241
  9
$TDUCREATE
 40
2459268.918111574
  9
$TDUPDATE
 40
2459268.58477919
  9
$TDUUPDATE
 40
2459268.918112523
  9
$TDINDWG
 40
0.0000000116
  9
$TDUSRTIMER
 40
0.0000000116
  9
$USRTIMER
 70
     1
  9
$ANGBASE
 50
0.0
  9
$ANGDIR
 70
     0
  9
$PDMODE
 70
     0
  9
$PDSIZE
 40
-1.0
  9
$PLINEWID
 40
0.0
  9
$SPLFRAME
 70
     0
  9
$SPLINETYPE
 70
     6
  9
$SPLINESEGS
 70
     8
  9
$HANDSEED
  5
5B3
  9
$SURFTAB1
 70
     6
  9
$SURFTAB2
 70
     6
  9
$SURFTYPE
 70
     6
  9
$SURFU
 70
     6
  9
$SURFV
 70
     6
  9
$UCSBASE
  2

  9
$UCSNAME
  2

  9
$UCSORG
 10
0.0
 20
0.0
 30
0.0
  9
$UCSXDIR
 10
1.0
 20
0.0
 30
0.0
  9
$UCSYDIR
 10
0.0
 20
1.0
 30
0.0
  9
$UCSORTHOREF
  2

  9
$UCSORTHOVIEW
 70
     0
  9
$UCSORGTOP
 10
0.0
 20
0.0
 30
0.0
  9
$UCSORGBOTTOM
 10
0.0
 20
0.0
 30
0.0
  9
$UCSORGLEFT
 10
0.0
 20
0.0
 30
0.0
  9
$UCSORGRIGHT
 10
0.0
 20
0.0
 30
0.0
  9
$UCSORGFRONT
 10
0.0
 20
0.0
 30
0.0
  9
$UCSORGBACK
 10
0.0
 20
0.0
 30
0.0
  9
$PUCSBASE
  2

  9
$PUCSNAME
  2

  9
$PUCSORG
 10
0.0
 20
0.0
 30
0.0
  9
$PUCSXDIR
 10
1.0
 20
0.0
 30
0.0
  9
$PUCSYDIR
 10
0.0
 20
1.0
 30
0.0
  9
$PUCSORTHOREF
  2

  9
$PUCSORTHOVIEW
 70
     0
  9
$PUCSORGTOP
 10
0.0
 20
0.0
 30
0.0
  9
$PUCSORGBOTTOM
 10
0.0
 20
0.0
 30
0.0
  9
$PUCSORGLEFT
 10
0.0
 20
0.0
 30
0.0
  9
$PUCSORGRIGHT
 10
0.0
 20
0.0
 30
0.0
  9
$PUCSORGFRONT
 10
0.0
 20
0.0
 30
0.0
  9
$PUCSORGBACK
 10
0.0
 20
0.0
 30
0.0
  9
$USERI1
 70
     0
  9
$USERI2
 70
     0
  9
$USERI3
 70
     0
  9
$USERI4
 70
     0
  9
$USERI5
 70
     0
  9
$USERR1
 40
0.0
  9
$USERR2
 40
0.0
  9
$USERR3
 40
0.0
  9
$USERR4
 40
0.0
  9
$USERR5
 40
0.0
  9
$WORLDVIEW
 70
     1
  9
$SHADEDGE
 70
     3
  9
$SHADEDIF
 70
    70
  9
$TILEMODE
 70
     1
  9
$MAXACTVP
 70
    64
  9
$PINSBASE
 10
0.0
 20
0.0
 30
0.0
  9
$PLIMCHECK
 70
     0
  9
$PEXTMIN
 10
1.0000000000E+20
 20
1.0000000000E+20
 30
1.0000000000E+20
  9
$PEXTMAX
 10
-1.0000000000E+20
 20
-1.0000000000E+20
 30
-1.0000000000E+20
  9
$PLIMMIN
 10
0.0
 20
0.0
  9
$PLIMMAX
 10
12.0
 20
9.0
  9
$UNITMODE
 70
     0
  9
$VISRETAIN
 70
     1
  9
$PLINEGEN
 70
     0
  9
$PSLTSCALE
 70
     1
  9
$TREEDEPTH
 70
  3020
  9
$CMLSTYLE
  2
Standard
  9
$CMLJUST
 70
     0
  9
$CMLSCALE
 40
1.0
  9
$PROXYGRAPHICS
 70
     1
  9
$MEASUREMENT
 70
     0
  9
$CELWEIGHT
370
    -1
  9
$ENDCAPS
280
     0
  9
$JOINSTYLE
280
     0
  9
$LWDISPLAY
290
     1
  9
$INSUNITS
 70
     1
  9
$HYPERLINKBASE
  1

  9
$STYLESHEET
  1

  9
$XEDIT
290
     1
  9
$CEPSNTYPE
380
     0
  9
$PSTYLEMODE
290
     1
  9
$FINGERPRINTGUID
  2
{2b81fb48-a372-4f2e-a10b-a90c0079ad80}
  9
$VERSIONGUID
  2
{FAEB1C32-E019-11D5-929B-00C0DF256EC4}
  9
$EXTNAMES
290
     1
  9
$PSVPSCALE
 40
0.0
  9
$OLESTARTUP
290
     0
  0
ENDSEC
  0
SECTION
  2
CLASSES
  0
CLASS
  1
ACDBDICTIONARYWDFLT
  2
AcDbDictionaryWithDefault
  3
ObjectDBX Classes
 90
        0
280
     0
281
     0
  0
CLASS
  1
VISUALSTYLE
  2
AcDbVisualStyle
  3
ObjectDBX Classes
 90
     4095
280
     0
281
     0
  0
CLASS
  1
MATERIAL
  2
AcDbMaterial
  3
ObjectDBX Classes
 90
     1153
280
     0
281
     0
  0
CLASS
  1
SCALE
  2
AcDbScale
  3
ObjectDBX Classes
 90
     1153
280
     0
281
     0
  0
CLASS
  1
TABLESTYLE
  2
AcDbTableStyle
  3
ObjectDBX Classes
 90
     4095
280
     0
281
     0
  0
CLASS
  1
MLEADERSTYLE
  2
AcDbMLeaderStyle
  3
ACDB_MLEADERSTYLE_CLASS
 90
     4095
280
     0
281
     0
  0
CLASS
  1
SUN
  2
AcDbSun
  3
SCENEOE
 90
     1153
280
     0
281
     0
  0
CLASS
  1
ACDBPLACEHOLDER
  2
AcDbPlaceHolder
  3
ObjectDBX Classes
 90
        0
280
     0
281
     0
  0
CLASS
  1
LAYOUT
  2
AcDbLayout
  3
ObjectDBX Classes
 90
        0
280
     0
281
     0
  0
ENDSEC
  0
SECTION
  2
TABLES
  0
TABLE
  2
VPORT
  5
8
330
0
100
AcDbSymbolTable
 70
     1
  0
VPORT
  5
29
330
8
100
AcDbSymbolTableRecord
100
AcDbViewportTableRecord
  2
*Active
 70
     0
 10
0.0
 20
0.0
 11
1.0
 21
1.0
 12
17.0
 22
11.0
 13
0.0
 23
0.0
 14
0.5
 24
0.5
 15
0.5
 25
0.5
 16
0.0
 26
0.0
 36
1.0
 17
0.0
 27
0.0
 37
0.0
 40
22.0
 41
1.5454545455
 42
50.0
 43
0.0
 44
0.0
 50
0.0
 51
0.0
 71
     0
 72
  2000
 73
     1
 74
     3
 75
     0
 76
     0
 77
     0
 78
     0
281
     0
 65
     1
110
0.0
120
0.0
130
0.0
111
1.0
121
0.0
131
0.0
112
0.0
122
1.0
132
0.0
 79
     0
146
0.0
  0
ENDTAB
  0
TABLE
  2
LTYPE
  5
5
330
0
100
AcDbSymbolTable
 70
     6
  0
LTYPE
  5
14
330
5
100
AcDbSymbolTableRecord
100
AcDbLinetypeTableRecord
  2
ByBlock
 70
     0
  3

 72
    65
 73
     0
 40
0.0
  0
LTYPE
  5
15
330
5
100
AcDbSymbolTableRecord
100
AcDbLinetypeTableRecord
  2
ByLayer
 70
     0
  3

 72
    65
 73
     0
 40
0.0
  0
LTYPE
  5
16
330
5
100
AcDbSymbolTableRecord
100
AcDbLinetypeTableRecord
  2
Continuous
 70
     0
  3
Solid line
 72
    65
 73
     0
 40
0.0
  0
LTYPE
  5
6E
330
5
100
AcDbSymbolTableRecord
100
AcDbLinetypeTableRecord
  2
HIDDEN
 70
     0
  3
Hidden __ __ __ __ __ __ __ __ __ __ __ __ __ __
 72
    65
 73
     2
 40
0.075
 49
0.05
 74
     0
 49
-0.025
 74
     0
  0
LTYPE
  5
6F
330
5
100
AcDbSymbolTableRecord
100
AcDbLinetypeTableRecord
  2
PHANTOM
 70
     0
  3
Phantom ______  __  __  ______  __  __  ______
 72
    65
 73
     6
 40
0.5
 49
0.25
 74
     0
 49
-0.05
 74
     0
 49
0.05
 74
     0
 49
-0.05
 74
     0
 49
0.05
 74
     0
 49
-0.05
 74
     0
  0
LTYPE
  5
70
330
5
100
AcDbSymbolTableRecord
100
AcDbLinetypeTableRecord
  2
CENTER
 70
     0
  3
Center ____ _ ____ _ ____ _ ____ _ ____ _ ____
 72
    65
 73
     4
 40
0.4
 49
0.25
 74
     0
 49
-0.05
 74
     0
 49
0.05
 74
     0
 49
-0.05
 74
     0
  0
LTYPE
  5
71
330
5
100
AcDbSymbolTableRecord
100
AcDbLinetypeTableRecord
  2
CENTERX2
 70
     0
  3
Center (2x) ________  __  ________  __  _____
 72
    65
 73
     4
 40
0.8
 49
0.5
 74
     0
 49
-0.1
 74
     0
 49
0.1
 74
     0
 49
-0.1
 74
     0
  0
LTYPE
  5
72
330
5
100
AcDbSymbolTableRecord
100
AcDbLinetypeTableRecord
  2
DOT2
 70
     0
  3
Dot (.5x) ........................................
 72
    65
 73
     2
 40
0.025
 49
0.0
 74
     0
 49
-0.025
 74
     0
  0
ENDTAB
  0
TABLE
  2
LAYER
  5
2
330
0
100
AcDbSymbolTable
 70
     3
  0
LAYER
  5
10
330
2
100
AcDbSymbolTableRecord
100
AcDbLayerTableRecord
  2
0
 70
     0
 62
     7
  6
Continuous
370
    -3
390
F
  0
LAYER
  5
73
330
2
100
AcDbSymbolTableRecord
100
AcDbLayerTableRecord
  2
FORMAT
 70
     0
 62
     7
  6
Continuous
370
    -3
390
F
  0
LAYER
  5
74
330
2
100
AcDbSymbolTableRecord
100
AcDbLayerTableRecord
  2
1
 70
     0
 62
   179
  6
Continuous
370
    -3
390
F
  0
ENDTAB
  0
TABLE
  2
STYLE
  5
3
330
0
100
AcDbSymbolTable
 70
     2
  0
STYLE
  5
11
330
3
100
AcDbSymbolTableRecord
100
AcDbTextStyleTableRecord
  2
Standard
 70
     0
 40
0.0
 41
1.0
 50
0.0
 71
     0
 42
0.125
  3
txt
  4

  0
STYLE
  5
78
330
3
100
AcDbSymbolTableRecord
100
AcDbTextStyleTableRecord
  2
SLDTEXTSTYLE0
 70
     0
 40
0.0
 41
0.605
 50
0.0
 71
     0
 42
0.125
  3
TXT
  4

  0
ENDTAB
  0
TABLE
  2
VIEW
  5
6
330
0
100
AcDbSymbolTable
 70
     0
  0
ENDTAB
  0
TABLE
  2
UCS
  5
7
330
0
100
AcDbSymbolTable
 70
     0
  0
ENDTAB
  0
TABLE
  2
APPID
  5
9
330
0
100
AcDbSymbolTable
 70
     1
  0
APPID
  5
12
330
9
100
AcDbSymbolTableRecord
100
AcDbRegAppTableRecord
  2
ACAD
 70
     0
  0
ENDTAB
  0
TABLE
  2
DIMSTYLE
  5
A
330
0
100
AcDbSymbolTable
 70
     3
100
AcDbDimStyleTable
  0
DIMSTYLE
105
27
330
A
100
AcDbSymbolTableRecord
100
AcDbDimStyleTableRecord
  2
Standard
 70
     0
178
     0
340
11
  0
DIMSTYLE
105
120
102
{ACAD_REACTORS
330
11F
330
1EE
102
}
330
A
100
AcDbSymbolTableRecord
100
AcDbDimStyleTableRecord
  2
SLDDIMSTYLE0
 70
     0
 41
0.15
 44
0.0
 45
0.000000001
 78
     4
 79
     1
140
0.125
147
0.03125
173
     1
178
     0
271
     2
272
     2
276
     2
284
    12
340
78
  0
DIMSTYLE
105
5A7
102
{ACAD_REACTORS
330
5A6
102
}
330
A
100
AcDbSymbolTableRecord
100
AcDbDimStyleTableRecord
  2
SLDDIMSTYLE1
 70
     0
 41
0.15
 44
0.0
 45
0.000000001
 78
    12
 79
     3
140
0.125
147
0.03125
173
     1
178
     0
271
     2
272
     2
276
     2
284
    12
340
78
  0
ENDTAB
  0
TABLE
  2
BLOCK_RECORD
  5
1
330
0
100
AcDbSymbolTable
 70
     5
  0
BLOCK_RECORD
  5
1F
330
1
100
AcDbSymbolTableRecord
100
AcDbBlockTableRecord
  2
*Model_Space
340
22
  0
BLOCK_RECORD
  5
1B
330
1
100
AcDbSymbolTableRecord
100
AcDbBlockTableRecord
  2
*Paper_Space
340
1E
  0
BLOCK_RECORD
  5
23
330
1
100
AcDbSymbolTableRecord
100
AcDbBlockTableRecord
  2
*Paper_Space0
340
26
  0
BLOCK_RECORD
  5
75
330
1
100
AcDbSymbolTableRecord
100
AcDbBlockTableRecord
  2
SW_NOTE_0
340
0
102
{BLKREFS
331
7C
102
}
  0
BLOCK_RECORD
  5
121
330
1
100
AcDbSymbolTableRecord
100
AcDbBlockTableRecord
  2
_D
340
0
  0
BLOCK_RECORD
  5
1EF
330
1
100
AcDbSymbolTableRecord
100
AcDbBlockTableRecord
  2
_D_1
340
0
  0
BLOCK_RECORD
  5
5A8
330
1
100
AcDbSymbolTableRecord
100
AcDbBlockTableRecord
  2
_D_2
340
0
  0
ENDTAB
  0
ENDSEC
  0
SECTION
  2
BLOCKS
  0
BLOCK
  5
20
330
1F
100
AcDbEntity
  8
0
100
AcDbBlockBegin
  2
*Model_Space
 70
     0
 10
0.0
 20
0.0
 30
0.0
  3
*Model_Space
  1

  0
ENDBLK
  5
21
330
1F
100
AcDbEntity
  8
0
100
AcDbBlockEnd
  0
BLOCK
  5
1C
330
1B
100
AcDbEntity
 67
     1
  8
0
100
AcDbBlockBegin
  2
*Paper_Space
 70
     0
 10
0.0
 20
0.0
 30
0.0
  3
*Paper_Space
  1

  0
ENDBLK
  5
1D
330
1B
100
AcDbEntity
 67
     1
  8
0
100
AcDbBlockEnd
  0
BLOCK
  5
24
330
23
100
AcDbEntity
  8
0
100
AcDbBlockBegin
  2
*Paper_Space0
 70
     0
 10
0.0
 20
0.0
 30
0.0
  3
*Paper_Space0
  1

  0
ENDBLK
  5
25
330
23
100
AcDbEntity
  8
0
100
AcDbBlockEnd
  0
BLOCK
  5
76
330
75
100
AcDbEntity
  8
0
100
AcDbBlockBegin
  2
SW_NOTE_0
 70
     0
 10
0.0
 20
0.0
 30
0.0
  3
SW_NOTE_0
  1

  0
MTEXT
  5
79
330
75
100
AcDbEntity
  8
FORMAT
 62
     0
100
AcDbMText
 10
0.4192708333
 20
0.1879890454
 30
0.0
 40
0.1458333333
 41
0.0
 71
     2
 72
     1
  1
LEVITON
  7
SLDTEXTSTYLE0
 73
     1
 44
1.0
  0
MTEXT
  5
7A
330
75
100
AcDbEntity
  8
FORMAT
 62
     0
100
AcDbMText
 10
0.4213806939
 20
-0.0458254819
 30
0.0
 40
0.1458333333
 41
0.0
 71
     2
 72
     1
  1
49225-24E
  7
SLDTEXTSTYLE0
 73
     1
 44
1.0
  0
MTEXT
  5
7B
330
75
100
AcDbEntity
  8
FORMAT
 62
     0
100
AcDbMText
 10
0.4299047073
 20
-0.2796400092
 30
0.0
 40
0.1458333333
 41
0.0
 71
     2
 72
     1
  1
24-PORT LOW PROFILE ZONE BOX
  7
SLDTEXTSTYLE0
 73
     1
 44
1.0
  0
ENDBLK
  5
77
330
75
100
AcDbEntity
  8
0
100
AcDbBlockEnd
  0
BLOCK
  5
122
330
121
100
AcDbEntity
  8
0
100
AcDbBlockBegin
  2
_D
 70
     0
 10
0.0
 20
0.0
 30
0.0
  3
_D
  1

  0
SOLID
  5
124
330
121
100
AcDbEntity
  8
FORMAT
 62
     7
100
AcDbTrace
 10
18.2885074838
 20
6.342703462
 30
0.0
 11
18.1385074838
 21
6.372703462
 31
0.0
 12
18.1385074838
 22
6.312703462
 32
0.0
 13
18.1385074838
 23
6.312703462
 33
0.0
  0
SOLID
  5
125
330
121
100
AcDbEntity
  8
FORMAT
 62
     7
100
AcDbTrace
 10
3.3885074838
 20
6.342703462
 30
0.0
 11
3.5385074838
 21
6.312703462
 31
0.0
 12
3.5385074838
 22
6.372703462
 32
0.0
 13
3.5385074838
 23
6.372703462
 33
0.0
  0
LINE
  5
126
330
121
100
AcDbEntity
  8
FORMAT
 62
     7
100
AcDbLine
 10
18.2885074838
 20
5.892703462
 30
0.0
 11
18.2885074838
 21
6.417703462
 31
0.0
  0
LINE
  5
127
330
121
100
AcDbEntity
  8
FORMAT
 62
     7
100
AcDbLine
 10
3.3885074838
 20
5.892703462
 30
0.0
 11
3.3885074838
 21
6.417703462
 31
0.0
  0
LINE
  5
128
330
121
100
AcDbEntity
  8
FORMAT
 62
     7
100
AcDbLine
 10
18.2885074838
 20
6.342703462
 30
0.0
 11
11.0947742818
 21
6.342703462
 31
0.0
  0
LINE
  5
129
330
121
100
AcDbEntity
  8
FORMAT
 62
     7
100
AcDbLine
 10
3.3885074838
 20
6.342703462
 30
0.0
 11
10.6650867589
 21
6.342703462
 31
0.0
  0
MTEXT
  5
12A
330
121
100
AcDbEntity
  8
FORMAT
 62
     7
100
AcDbMText
 10
10.6650867589
 20
6.4079167955
 30
0.0
 40
0.125
 41
0.0
 71
     1
 72
     1
  1
14.90
  7
SLDTEXTSTYLE0
 73
     1
 44
1.0
  0
ENDBLK
  5
123
330
121
100
AcDbEntity
  8
0
100
AcDbBlockEnd
  0
BLOCK
  5
1F0
330
1EF
100
AcDbEntity
  8
0
100
AcDbBlockBegin
  2
_D_1
 70
     0
 10
0.0
 20
0.0
 30
0.0
  3
_D_1
  1

  0
SOLID
  5
1F2
330
1EF
100
AcDbEntity
  8
FORMAT
 62
     7
100
AcDbTrace
 10
18.7885074838
 20
15.2319591005
 30
0.0
 11
18.7585074838
 21
15.0819591005
 31
0.0
 12
18.8185074838
 22
15.0819591005
 32
0.0
 13
18.8185074838
 23
15.0819591005
 33
0.0
  0
SOLID
  5
1F3
330
1EF
100
AcDbEntity
  8
FORMAT
 62
     7
100
AcDbTrace
 10
18.7885074838
 20
10.7319591005
 30
0.0
 11
18.8185074838
 21
10.8819591005
 31
0.0
 12
18.7585074838
 22
10.8819591005
 32
0.0
 13
18.7585074838
 23
10.8819591005
 33
0.0
  0
LINE
  5
1F4
330
1EF
100
AcDbEntity
  8
FORMAT
 62
     7
100
AcDbLine
 10
15.6035074838
 20
15.2319591005
 30
0.0
 11
18.8635074838
 21
15.2319591005
 31
0.0
  0
LINE
  5
1F5
330
1EF
100
AcDbEntity
  8
FORMAT
 62
     7
100
AcDbLine
 10
18.2785074838
 20
10.7319591005
 30
0.0
 11
18.8635074838
 21
10.7319591005
 31
0.0
  0
LINE
  5
1F6
330
1EF
100
AcDbEntity
  8
FORMAT
 62
     7
100
AcDbLine
 10
18.7885074838
 20
15.2319591005
 30
0.0
 11
18.7885074838
 21
12.9515340077
 31
0.0
  0
LINE
  5
1F7
330
1EF
100
AcDbEntity
  8
FORMAT
 62
     7
100
AcDbLine
 10
18.7885074838
 20
10.7319591005
 30
0.0
 11
18.7885074838
 21
12.7596937305
 31
0.0
  0
MTEXT
  5
1F8
330
1EF
100
AcDbEntity
  8
FORMAT
 62
     7
100
AcDbMText
 10
18.6214067825
 20
12.9208272026
 30
0.0
 40
0.125
 41
0.0
 71
     1
 72
     1
  1
4.50
  7
SLDTEXTSTYLE0
 73
     1
 44
1.0
  0
ENDBLK
  5
1F1
330
1EF
100
AcDbEntity
  8
0
100
AcDbBlockEnd
  0
BLOCK
  5
5A9
330
5A8
100
AcDbEntity
  8
0
100
AcDbBlockBegin
  2
_D_2
 70
     0
 10
0.0
 20
0.0
 30
0.0
  3
_D_2
  1

  0
SOLID
  5
5AB
330
5A8
100
AcDbEntity
  8
FORMAT
 62
     7
100
AcDbTrace
 10
22.8483903972
 20
5.842703462
 30
0.0
 11
22.8183903972
 21
5.692703462
 31
0.0
 12
22.8783903972
 22
5.692703462
 32
0.0
 13
22.8783903972
 23
5.692703462
 33
0.0
  0
SOLID
  5
5AC
330
5A8
100
AcDbEntity
  8
FORMAT
 62
     7
100
AcDbTrace
 10
22.8483903972
 20
4.092903462
 30
0.0
 11
22.8783903972
 21
4.242903462
 31
0.0
 12
22.8183903972
 22
4.242903462
 32
0.0
 13
22.8183903972
 23
4.242903462
 33
0.0
  0
LINE
  5
5AD
330
5A8
100
AcDbEntity
  8
FORMAT
 62
     7
100
AcDbLine
 10
23.2983903972
 20
5.842703462
 30
0.0
 11
22.7733903972
 21
5.842703462
 31
0.0
  0
LINE
  5
5AE
330
5A8
100
AcDbEntity
  8
FORMAT
 62
     7
100
AcDbLine
 10
23.4183903972
 20
4.092903462
 30
0.0
 11
22.7733903972
 21
4.092903462
 31
0.0
  0
LINE
  5
5AF
330
5A8
100
AcDbEntity
  8
FORMAT
 62
     7
100
AcDbLine
 10
22.8483903972
 20
5.842703462
 30
0.0
 11
22.8483903972
 21
5.0029848925
 31
0.0
  0
LINE
  5
5B0
330
5A8
100
AcDbEntity
  8
FORMAT
 62
     7
100
AcDbLine
 10
22.8483903972
 20
4.092903462
 30
0.0
 11
22.8483903972
 21
4.8111446153
 31
0.0
  0
MTEXT
  5
5B1
330
5A8
100
AcDbEntity
  8
FORMAT
 62
     7
100
AcDbMText
 10
22.6812896959
 20
4.9722780874
 30
0.0
 40
0.125
 41
0.0
 71
     1
 72
     1
  1
1.75
  7
SLDTEXTSTYLE0
 73
     1
 44
1.0
  0
ENDBLK
  5
5AA
330
5A8
100
AcDbEntity
  8
0
100
AcDbBlockEnd
  0
ENDSEC
  0
SECTION
  2
ENTITIES
  0
INSERT
  5
7C
330
1F
100
AcDbEntity
  8
FORMAT
 62
     7
100
AcDbBlockReference
  2
SW_NOTE_0
 10
15.8338904288
 20
1.8557681222
 30
0.0
  0
LINE
  5
7D
330
1F
100
AcDbEntity
  8
0
  6
Continuous
 62
     7
370
    25
100
AcDbLine
 10
18.2285074838
 20
5.782903462
 30
0.0
 11
18.2285074838
 21
5.842703462
 31
0.0
  0
LINE
  5
7E
330
1F
100
AcDbEntity
  8
0
  6
Continuous
 62
     7
370
    25
100
AcDbLine
 10
3.4485074838
 20
5.842703462
 30
0.0
 11
3.4485074838
 21
5.782903462
 31
0.0
  0
LINE
  5
7F
330
1F
100
AcDbEntity
  8
0
  6
Continuous
 62
     7
370
    25
100
AcDbLine
 10
3.4485074838
 20
5.842703462
 30
0.0
 11
18.2285074838
 21
5.842703462
 31
0.0
  0
LINE
  5
80
330
1F
100
AcDbEntity
  8
0
  6
Continuous
 62
     7
370
    25
100
AcDbLine
 10
3.4485074838
 20
5.782903462
 30
0.0
 11
18.2285074838
 21
5.782903462
 31
0.0
  0
LINE
  5
81
330
1F
100
AcDbEntity
  8
0
  6
Continuous
 62
     7
370
    25
100
AcDbLine
 10
3.3885074838
 20
5.782903462
 30
0.0
 11
3.3885074838
 21
5.842703462
 31
0.0
  0
LINE
  5
82
330
1F
100
AcDbEntity
  8
0
  6
Continuous
 62
     7
370
    25
100
AcDbLine
 10
3.3885074838
 20
5.842703462
 30
0.0
 11
3.4485074838
 21
5.842703462
 31
0.0
  0
LINE
  5
83
330
1F
100
AcDbEntity
  8
0
  6
Continuous
 62
     7
370
    25
100
AcDbLine
 10
3.4485074838
 20
5.782903462
 30
0.0
 11
3.3885074838
 21
5.782903462
 31
0.0
  0
LINE
  5
84
330
1F
100
AcDbEntity
  8
0
  6
Continuous
 62
     7
370
    25
100
AcDbLine
 10
18.2885074838
 20
5.842703462
 30
0.0
 11
18.2885074838
 21
5.782903462
 31
0.0
  0
LINE
  5
85
330
1F
100
AcDbEntity
  8
0
  6
Continuous
 62
     7
370
    25
100
AcDbLine
 10
18.2285074838
 20
5.842703462
 30
0.0
 11
18.2885074838
 21
5.842703462
 31
0.0
  0
LINE
  5
86
330
1F
100
AcDbEntity
  8
0
  6
Continuous
 62
     7
370
    25
100
AcDbLine
 10
18.2885074838
 20
5.782903462
 30
0.0
 11
18.2285074838
 21
5.782903462
 31
0.0
  0
LINE
  5
87
330
1F
100
AcDbEntity
  8
0
  6
Continuous
 62
     7
370
    25
100
AcDbLine
 10
3.3885074838
 20
5.782903462
 30
0.0
 11
3.3885074838
 21
5.7741166655
 31
0.0
  0
LINE
  5
88
330
1F
100
AcDbEntity
  8
0
  6
Continuous
 62
     7
370
    25
100
AcDbLine
 10
18.2885074838
 20
5.7741166655
 30
0.0
 11
18.2885074838
 21
5.782903462
 31
0.0
  0
LINE
  5
89
330
1F
100
AcDbEntity
  8
0
  6
Continuous
 62
     7
370
    25
100
AcDbLine
 10
18.2885074838
 20
5.7741166655
 30
0.0
 11
18.2885074838
 21
5.6842052731
 31
0.0
  0
LINE
  5
8A
330
1F
100
AcDbEntity
  8
0
  6
Continuous
 62
     7
370
    25
100
AcDbLine
 10
3.3885074838
 20
5.6842052731
 30
0.0
 11
3.3885074838
 21
5.7741166655
 31
0.0
  0
LINE
  5
8B
330
1F
100
AcDbEntity
  8
0
  6
Continuous
 62
     7
370
    25
100
AcDbLine
 10
3.4185074838
 20
5.657903462
 30
0.0
 11
3.3885074838
 21
5.657903462
 31
0.0
  0
LINE
  5
8C
330
1F
100
AcDbEntity
  8
0
  6
Continuous
 62
     7
370
    25
100
AcDbLine
 10
3.3885074838
 20
5.6842052731
 30
0.0
 11
3.3885074838
 21
5.657903462
 31
0.0
  0
LINE
  5
8D
330
1F
100
AcDbEntity
  8
0
  6
Continuous
 62
     7
370
    25
100
AcDbLine
 10
18.2885074838
 20
5.657903462
 30
0.0
 11
18.2885074838
 21
5.6842052731
 31
0.0
  0
LINE
  5
8E
330
1F
100
AcDbEntity
  8
0
  6
Continuous
 62
     7
370
    25
100
AcDbLine
 10
18.2885074838
 20
5.657903462
 30
0.0
 11
18.2585074838
 21
5.657903462
 31
0.0
  0
LINE
  5
8F
330
1F
100
AcDbEntity
  8
0
  6
Continuous
 62
     7
370
    25
100
AcDbLine
 10
17.9635074838
 20
4.9049722457
 30
0.0
 11
17.9635074838
 21
4.7606346784
 31
0.0
  0
LINE
  5
90
330
1F
100
AcDbEntity
  8
0
  6
Continuous
 62
     7
370
    25
100
AcDbLine
 10
17.8385074838
 20
4.9771410293
 30
0.0
 11
17.9635074838
 21
4.9049722457
 31
0.0
  0
LINE
  5
91
330
1F
100
AcDbEntity
  8
0
  6
Continuous
 62
     7
370
    25
100
AcDbLine
 10
17.7135074838
 20
4.9049722457
 30
0.0
 11
17.8385074838
 21
4.9771410293
 31
0.0
  0
LINE
  5
92
330
1F
100
AcDbEntity
  8
0
  6
Continuous
 62
     7
370
    25
100
AcDbLine
 10
17.8385074838
 20
4.6884658947
 30
0.0
 11
17.7135074838
 21
4.7606346784
 31
0.0
  0
LINE
  5
93
330
1F
100
AcDbEntity
  8
0
  6
Continuous
 62
     7
370
    25
100
AcDbLine
 10
17.9635074838
 20
4.7606346784
 30
0.0
 11
17.8385074838
 21
4.6884658947
 31
0.0
  0
CIRCLE
  5
94
330
1F
100
AcDbEntity
  8
0
  6
Continuous
 62
     7
370
    25
100
AcDbCircle
 10
17.8385074838
 20
4.832803462
 30
0.0
 40
0.1060000000000008
  0
LINE
  5
95
330
1F
100
AcDbEntity
  8
0
  6
Continuous
 62
     7
370
    25
100
AcDbLine
 10
17.7135074838
 20
4.7606346784
 30
0.0
 11
17.7135074838
 21
4.9049722457
 31
0.0
  0
LINE
  5
96
330
1F
100
AcDbEntity
  8
0
  6
Continuous
 62
     7
370
    25
100
AcDbLine
 10
3.9635074838
 20
4.9049722457
 30
0.0
 11
3.9635074838
 21
4.7606346784
 31
0.0
  0
LINE
  5
97
330
1F
100
AcDbEntity
  8
0
  6
Continuous
 62
     7
370
    25
100
AcDbLine
 10
3.7135074838
 20
4.7606346784
 30
0.0
 11
3.7135074838
 21
4.9049722457
 31
0.0
  0
LINE
  5
98
330
1F
100
AcDbEntity
  8
0
  6
Continuous
 62
     7
370
    25
100
AcDbLine
 10
3.7135074838
 20
4.9049722457
 30
0.0
 11
3.8385074838
 21
4.9771410293
 31
0.0
  0
LINE
  5
99
330
1F
100
AcDbEntity
  8
0
  6
Continuous
 62
     7
370
    25
100
AcDbLine
 10
3.8385074838
 20
4.9771410293
 30
0.0
 11
3.9635074838
 21
4.9049722457
 31
0.0
  0
LINE
  5
9A
330
1F
100
AcDbEntity
  8
0
  6
Continuous
 62
     7
370
    25
100
AcDbLine
 10
3.9635074838
 20
4.7606346784
 30
0.0
 11
3.8385074838
 21
4.6884658947
 31
0.0
  0
CIRCLE
  5
9B
330
1F
100
AcDbEntity
  8
0
  6
Continuous
 62
     7
370
    25
100
AcDbCircle
 10
3.8385074838
 20
4.832803462
 30
0.0
 40
0.1060000000000008
  0
LINE
  5
9C
330
1F
100
AcDbEntity
  8
0
  6
Continuous
 62
     7
370
    25
100
AcDbLine
 10
3.8385074838
 20
4.6884658947
 30
0.0
 11
3.7135074838
 21
4.7606346784
 31
0.0
  0
LINE
  5
9D
330
1F
100
AcDbEntity
  8
0
  6
Continuous
 62
     7
370
    25
100
AcDbLine
 10
10.9635074838
 20
5.0606346784
 30
0.0
 11
10.8385074838
 21
4.9884658947
 31
0.0
  0
LINE
  5
9E
330
1F
100
AcDbEntity
  8
0
  6
Continuous
 62
     7
370
    25
100
AcDbLine
 10
10.8385074838
 20
5.2771410293
 30
0.0
 11
10.9635074838
 21
5.2049722457
 31
0.0
  0
LINE
  5
9F
330
1F
100
AcDbEntity
  8
0
  6
Continuous
 62
     7
370
    25
100
AcDbLine
 10
10.9635074838
 20
5.2049722457
 30
0.0
 11
10.9635074838
 21
5.0606346784
 31
0.0
  0
CIRCLE
  5
A0
330
1F
100
AcDbEntity
  8
0
  6
Continuous
 62
     7
370
    25
100
AcDbCircle
 10
10.8385074838
 20
5.132803462
 30
0.0
 40
0.1060000000000008
  0
LINE
  5
A1
330
1F
100
AcDbEntity
  8
0
  6
Continuous
 62
     7
370
    25
100
AcDbLine
 10
10.7135074838
 20
5.0606346784
 30
0.0
 11
10.7135074838
 21
5.2049722457
 31
0.0
  0
LINE
  5
A2
330
1F
100
AcDbEntity
  8
0
  6
Continuous
 62
     7
370
    25
100
AcDbLine
 10
10.7135074838
 20
5.2049722457
 30
0.0
 11
10.8385074838
 21
5.2771410293
 31
0.0
  0
LINE
  5
A3
330
1F
100
AcDbEntity
  8
0
  6
Continuous
 62
     7
370
    25
100
AcDbLine
 10
10.8385074838
 20
4.9884658947
 30
0.0
 11
10.7135074838
 21
5.0606346784
 31
0.0
  0
LINE
  5
A4
330
1F
100
AcDbEntity
  8
0
  6
Continuous
 62
     7
370
    25
100
AcDbLine
 10
18.2585074838
 20
5.782903462
 30
0.0
 11
18.2585074838
 21
4.182703462
 31
0.0
  0
LINE
  5
A5
330
1F
100
AcDbEntity
  8
0
  6
Continuous
 62
     7
370
    25
100
AcDbLine
 10
18.2585074838
 20
4.182703462
 30
0.0
 11
18.1685074838
 21
4.182703462
 31
0.0
  0
LINE
  5
A6
330
1F
100
AcDbEntity
  8
0
  6
Continuous
 62
     7
370
    25
100
AcDbLine
 10
3.5085074838
 20
4.182703462
 30
0.0
 11
18.1685074838
 21
4.182703462
 31
0.0
  0
LINE
  5
A7
330
1F
100
AcDbEntity
  8
0
  6
Continuous
 62
     7
370
    25
100
AcDbLine
 10
3.4185074838
 20
4.182703462
 30
0.0
 11
3.5085074838
 21
4.182703462
 31
0.0
  0
LINE
  5
A8
330
1F
100
AcDbEntity
  8
0
  6
Continuous
 62
     7
370
    25
100
AcDbLine
 10
4.8385074838
 20
5.616803462
 30
0.0
 11
4.1685074838
 21
5.616803462
 31
0.0
  0
LINE
  5
A9
330
1F
100
AcDbEntity
  8
0
  6
Continuous
 62
     7
370
    25
100
AcDbLine
 10
4.1685074838
 20
5.616803462
 30
0.0
 11
4.1685074838
 21
5.033803462
 31
0.0
  0
LINE
  5
AA
330
1F
100
AcDbEntity
  8
0
  6
Continuous
 62
     7
370
    25
100
AcDbLine
 10
4.1685074838
 20
5.033803462
 30
0.0
 11
4.8385074838
 21
5.033803462
 31
0.0
  0
LINE
  5
AB
330
1F
100
AcDbEntity
  8
0
  6
Continuous
 62
     7
370
    25
100
AcDbLine
 10
4.8385074838
 20
5.033803462
 30
0.0
 11
4.8385074838
 21
5.616803462
 31
0.0
  0
LINE
  5
AC
330
1F
100
AcDbEntity
  8
0
  6
Continuous
 62
     7
370
    25
100
AcDbLine
 10
10.3385074838
 20
5.616803462
 30
0.0
 11
9.6685074838
 21
5.616803462
 31
0.0
  0
LINE
  5
AD
330
1F
100
AcDbEntity
  8
0
  6
Continuous
 62
     7
370
    25
100
AcDbLine
 10
9.6685074838
 20
5.616803462
 30
0.0
 11
9.6685074838
 21
5.033803462
 31
0.0
  0
LINE
  5
AE
330
1F
100
AcDbEntity
  8
0
  6
Continuous
 62
     7
370
    25
100
AcDbLine
 10
9.6685074838
 20
5.033803462
 30
0.0
 11
10.3385074838
 21
5.033803462
 31
0.0
  0
LINE
  5
AF
330
1F
100
AcDbEntity
  8
0
  6
Continuous
 62
     7
370
    25
100
AcDbLine
 10
10.3385074838
 20
5.033803462
 30
0.0
 11
10.3385074838
 21
5.616803462
 31
0.0
  0
LINE
  5
B0
330
1F
100
AcDbEntity
  8
0
  6
Continuous
 62
     7
370
    25
100
AcDbLine
 10
16.4085074838
 20
4.931803462
 30
0.0
 11
15.7385074838
 21
4.931803462
 31
0.0
  0
LINE
  5
B1
330
1F
100
AcDbEntity
  8
0
  6
Continuous
 62
     7
370
    25
100
AcDbLine
 10
15.7385074838
 20
4.931803462
 30
0.0
 11
15.7385074838
 21
4.348803462
 31
0.0
  0
LINE
  5
B2
330
1F
100
AcDbEntity
  8
0
  6
Continuous
 62
     7
370
    25
100
AcDbLine
 10
15.7385074838
 20
4.348803462
 30
0.0
 11
16.4085074838
 21
4.348803462
 31
0.0
  0
LINE
  5
B3
330
1F
100
AcDbEntity
  8
0
  6
Continuous
 62
     7
370
    25
100
AcDbLine
 10
16.4085074838
 20
4.348803462
 30
0.0
 11
16.4085074838
 21
4.931803462
 31
0.0
  0
LINE
  5
B4
330
1F
100
AcDbEntity
  8
0
  6
Continuous
 62
     7
370
    25
100
AcDbLine
 10
16.4085074838
 20
5.616803462
 30
0.0
 11
15.7385074838
 21
5.616803462
 31
0.0
  0
LINE
  5
B5
330
1F
100
AcDbEntity
  8
0
  6
Continuous
 62
     7
370
    25
100
AcDbLine
 10
15.7385074838
 20
5.616803462
 30
0.0
 11
15.7385074838
 21
5.033803462
 31
0.0
  0
LINE
  5
B6
330
1F
100
AcDbEntity
  8
0
  6
Continuous
 62
     7
370
    25
100
AcDbLine
 10
15.7385074838
 20
5.033803462
 30
0.0
 11
16.4085074838
 21
5.033803462
 31
0.0
  0
LINE
  5
B7
330
1F
100
AcDbEntity
  8
0
  6
Continuous
 62
     7
370
    25
100
AcDbLine
 10
16.4085074838
 20
5.033803462
 30
0.0
 11
16.4085074838
 21
5.616803462
 31
0.0
  0
LINE
  5
B8
330
1F
100
AcDbEntity
  8
0
  6
Continuous
 62
     7
370
    25
100
AcDbLine
 10
9.2385074838
 20
4.931803462
 30
0.0
 11
8.5685074838
 21
4.931803462
 31
0.0
  0
LINE
  5
B9
330
1F
100
AcDbEntity
  8
0
  6
Continuous
 62
     7
370
    25
100
AcDbLine
 10
8.5685074838
 20
4.931803462
 30
0.0
 11
8.5685074838
 21
4.348803462
 31
0.0
  0
LINE
  5
BA
330
1F
100
AcDbEntity
  8
0
  6
Continuous
 62
     7
370
    25
100
AcDbLine
 10
8.5685074838
 20
4.348803462
 30
0.0
 11
9.2385074838
 21
4.348803462
 31
0.0
  0
LINE
  5
BB
330
1F
100
AcDbEntity
  8
0
  6
Continuous
 62
     7
370
    25
100
AcDbLine
 10
9.2385074838
 20
4.348803462
 30
0.0
 11
9.2385074838
 21
4.931803462
 31
0.0
  0
LINE
  5
BC
330
1F
100
AcDbEntity
  8
0
  6
Continuous
 62
     7
370
    25
100
AcDbLine
 10
17.5085074838
 20
4.931803462
 30
0.0
 11
16.8385074838
 21
4.931803462
 31
0.0
  0
LINE
  5
BD
330
1F
100
AcDbEntity
  8
0
  6
Continuous
 62
     7
370
    25
100
AcDbLine
 10
16.8385074838
 20
4.931803462
 30
0.0
 11
16.8385074838
 21
4.348803462
 31
0.0
  0
LINE
  5
BE
330
1F
100
AcDbEntity
  8
0
  6
Continuous
 62
     7
370
    25
100
AcDbLine
 10
16.8385074838
 20
4.348803462
 30
0.0
 11
17.5085074838
 21
4.348803462
 31
0.0
  0
LINE
  5
BF
330
1F
100
AcDbEntity
  8
0
  6
Continuous
 62
     7
370
    25
100
AcDbLine
 10
17.5085074838
 20
4.348803462
 30
0.0
 11
17.5085074838
 21
4.931803462
 31
0.0
  0
LINE
  5
C0
330
1F
100
AcDbEntity
  8
0
  6
Continuous
 62
     7
370
    25
100
AcDbLine
 10
17.5085074838
 20
5.616803462
 30
0.0
 11
16.8385074838
 21
5.616803462
 31
0.0
  0
LINE
  5
C1
330
1F
100
AcDbEntity
  8
0
  6
Continuous
 62
     7
370
    25
100
AcDbLine
 10
16.8385074838
 20
5.616803462
 30
0.0
 11
16.8385074838
 21
5.033803462
 31
0.0
  0
LINE
  5
C2
330
1F
100
AcDbEntity
  8
0
  6
Continuous
 62
     7
370
    25
100
AcDbLine
 10
16.8385074838
 20
5.033803462
 30
0.0
 11
17.5085074838
 21
5.033803462
 31
0.0
  0
LINE
  5
C3
330
1F
100
AcDbEntity
  8
0
  6
Continuous
 62
     7
370
    25
100
AcDbLine
 10
17.5085074838
 20
5.033803462
 30
0.0
 11
17.5085074838
 21
5.616803462
 31
0.0
  0
LINE
  5
C4
330
1F
100
AcDbEntity
  8
0
  6
Continuous
 62
     7
370
    25
100
AcDbLine
 10
10.3385074838
 20
4.931803462
 30
0.0
 11
9.6685074838
 21
4.931803462
 31
0.0
  0
LINE
  5
C5
330
1F
100
AcDbEntity
  8
0
  6
Continuous
 62
     7
370
    25
100
AcDbLine
 10
9.6685074838
 20
4.931803462
 30
0.0
 11
9.6685074838
 21
4.348803462
 31
0.0
  0
LINE
  5
C6
330
1F
100
AcDbEntity
  8
0
  6
Continuous
 62
     7
370
    25
100
AcDbLine
 10
9.6685074838
 20
4.348803462
 30
0.0
 11
10.3385074838
 21
4.348803462
 31
0.0
  0
LINE
  5
C7
330
1F
100
AcDbEntity
  8
0
  6
Continuous
 62
     7
370
    25
100
AcDbLine
 10
10.3385074838
 20
4.348803462
 30
0.0
 11
10.3385074838
 21
4.931803462
 31
0.0
  0
LINE
  5
C8
330
1F
100
AcDbEntity
  8
0
  6
Continuous
 62
     7
370
    25
100
AcDbLine
 10
5.9385074838
 20
4.931803462
 30
0.0
 11
5.2685074838
 21
4.931803462
 31
0.0
  0
LINE
  5
C9
330
1F
100
AcDbEntity
  8
0
  6
Continuous
 62
     7
370
    25
100
AcDbLine
 10
5.2685074838
 20
4.931803462
 30
0.0
 11
5.2685074838
 21
4.348803462
 31
0.0
  0
LINE
  5
CA
330
1F
100
AcDbEntity
  8
0
  6
Continuous
 62
     7
370
    25
100
AcDbLine
 10
5.2685074838
 20
4.348803462
 30
0.0
 11
5.9385074838
 21
4.348803462
 31
0.0
  0
LINE
  5
CB
330
1F
100
AcDbEntity
  8
0
  6
Continuous
 62
     7
370
    25
100
AcDbLine
 10
5.9385074838
 20
4.348803462
 30
0.0
 11
5.9385074838
 21
4.931803462
 31
0.0
  0
LINE
  5
CC
330
1F
100
AcDbEntity
  8
0
  6
Continuous
 62
     7
370
    25
100
AcDbLine
 10
13.1085074838
 20
5.616803462
 30
0.0
 11
12.4385074838
 21
5.616803462
 31
0.0
  0
LINE
  5
CD
330
1F
100
AcDbEntity
  8
0
  6
Continuous
 62
     7
370
    25
100
AcDbLine
 10
12.4385074838
 20
5.616803462
 30
0.0
 11
12.4385074838
 21
5.033803462
 31
0.0
  0
LINE
  5
CE
330
1F
100
AcDbEntity
  8
0
  6
Continuous
 62
     7
370
    25
100
AcDbLine
 10
12.4385074838
 20
5.033803462
 30
0.0
 11
13.1085074838
 21
5.033803462
 31
0.0
  0
LINE
  5
CF
330
1F
100
AcDbEntity
  8
0
  6
Continuous
 62
     7
370
    25
100
AcDbLine
 10
13.1085074838
 20
5.033803462
 30
0.0
 11
13.1085074838
 21
5.616803462
 31
0.0
  0
LINE
  5
D0
330
1F
100
AcDbEntity
  8
0
  6
Continuous
 62
     7
370
    25
100
AcDbLine
 10
13.1085074838
 20
4.931803462
 30
0.0
 11
12.4385074838
 21
4.931803462
 31
0.0
  0
LINE
  5
D1
330
1F
100
AcDbEntity
  8
0
  6
Continuous
 62
     7
370
    25
100
AcDbLine
 10
12.4385074838
 20
4.931803462
 30
0.0
 11
12.4385074838
 21
4.348803462
 31
0.0
  0
LINE
  5
D2
330
1F
100
AcDbEntity
  8
0
  6
Continuous
 62
     7
370
    25
100
AcDbLine
 10
12.4385074838
 20
4.348803462
 30
0.0
 11
13.1085074838
 21
4.348803462
 31
0.0
  0
LINE
  5
D3
330
1F
100
AcDbEntity
  8
0
  6
Continuous
 62
     7
370
    25
100
AcDbLine
 10
13.1085074838
 20
4.348803462
 30
0.0
 11
13.1085074838
 21
4.931803462
 31
0.0
  0
LINE
  5
D4
330
1F
100
AcDbEntity
  8
0
  6
Continuous
 62
     7
370
    25
100
AcDbLine
 10
7.0385074838
 20
5.616803462
 30
0.0
 11
6.3685074838
 21
5.616803462
 31
0.0
  0
LINE
  5
D5
330
1F
100
AcDbEntity
  8
0
  6
Continuous
 62
     7
370
    25
100
AcDbLine
 10
6.3685074838
 20
5.616803462
 30
0.0
 11
6.3685074838
 21
5.033803462
 31
0.0
  0
LINE
  5
D6
330
1F
100
AcDbEntity
  8
0
  6
Continuous
 62
     7
370
    25
100
AcDbLine
 10
6.3685074838
 20
5.033803462
 30
0.0
 11
7.0385074838
 21
5.033803462
 31
0.0
  0
LINE
  5
D7
330
1F
100
AcDbEntity
  8
0
  6
Continuous
 62
     7
370
    25
100
AcDbLine
 10
7.0385074838
 20
5.033803462
 30
0.0
 11
7.0385074838
 21
5.616803462
 31
0.0
  0
LINE
  5
D8
330
1F
100
AcDbEntity
  8
0
  6
Continuous
 62
     7
370
    25
100
AcDbLine
 10
4.8385074838
 20
4.931803462
 30
0.0
 11
4.1685074838
 21
4.931803462
 31
0.0
  0
LINE
  5
D9
330
1F
100
AcDbEntity
  8
0
  6
Continuous
 62
     7
370
    25
100
AcDbLine
 10
4.1685074838
 20
4.931803462
 30
0.0
 11
4.1685074838
 21
4.348803462
 31
0.0
  0
LINE
  5
DA
330
1F
100
AcDbEntity
  8
0
  6
Continuous
 62
     7
370
    25
100
AcDbLine
 10
4.1685074838
 20
4.348803462
 30
0.0
 11
4.8385074838
 21
4.348803462
 31
0.0
  0
LINE
  5
DB
330
1F
100
AcDbEntity
  8
0
  6
Continuous
 62
     7
370
    25
100
AcDbLine
 10
4.8385074838
 20
4.348803462
 30
0.0
 11
4.8385074838
 21
4.931803462
 31
0.0
  0
LINE
  5
DC
330
1F
100
AcDbEntity
  8
0
  6
Continuous
 62
     7
370
    25
100
AcDbLine
 10
12.0085074838
 20
5.616803462
 30
0.0
 11
11.3385074838
 21
5.616803462
 31
0.0
  0
LINE
  5
DD
330
1F
100
AcDbEntity
  8
0
  6
Continuous
 62
     7
370
    25
100
AcDbLine
 10
11.3385074838
 20
5.616803462
 30
0.0
 11
11.3385074838
 21
5.033803462
 31
0.0
  0
LINE
  5
DE
330
1F
100
AcDbEntity
  8
0
  6
Continuous
 62
     7
370
    25
100
AcDbLine
 10
11.3385074838
 20
5.033803462
 30
0.0
 11
12.0085074838
 21
5.033803462
 31
0.0
  0
LINE
  5
DF
330
1F
100
AcDbEntity
  8
0
  6
Continuous
 62
     7
370
    25
100
AcDbLine
 10
12.0085074838
 20
5.033803462
 30
0.0
 11
12.0085074838
 21
5.616803462
 31
0.0
  0
LINE
  5
E0
330
1F
100
AcDbEntity
  8
0
  6
Continuous
 62
     7
370
    25
100
AcDbLine
 10
12.0085074838
 20
4.931803462
 30
0.0
 11
11.3385074838
 21
4.931803462
 31
0.0
  0
LINE
  5
E1
330
1F
100
AcDbEntity
  8
0
  6
Continuous
 62
     7
370
    25
100
AcDbLine
 10
11.3385074838
 20
4.931803462
 30
0.0
 11
11.3385074838
 21
4.348803462
 31
0.0
  0
LINE
  5
E2
330
1F
100
AcDbEntity
  8
0
  6
Continuous
 62
     7
370
    25
100
AcDbLine
 10
11.3385074838
 20
4.348803462
 30
0.0
 11
12.0085074838
 21
4.348803462
 31
0.0
  0
LINE
  5
E3
330
1F
100
AcDbEntity
  8
0
  6
Continuous
 62
     7
370
    25
100
AcDbLine
 10
12.0085074838
 20
4.348803462
 30
0.0
 11
12.0085074838
 21
4.931803462
 31
0.0
  0
LINE
  5
E4
330
1F
100
AcDbEntity
  8
0
  6
Continuous
 62
     7
370
    25
100
AcDbLine
 10
5.9385074838
 20
5.616803462
 30
0.0
 11
5.2685074838
 21
5.616803462
 31
0.0
  0
LINE
  5
E5
330
1F
100
AcDbEntity
  8
0
  6
Continuous
 62
     7
370
    25
100
AcDbLine
 10
5.2685074838
 20
5.616803462
 30
0.0
 11
5.2685074838
 21
5.033803462
 31
0.0
  0
LINE
  5
E6
330
1F
100
AcDbEntity
  8
0
  6
Continuous
 62
     7
370
    25
100
AcDbLine
 10
5.2685074838
 20
5.033803462
 30
0.0
 11
5.9385074838
 21
5.033803462
 31
0.0
  0
LINE
  5
E7
330
1F
100
AcDbEntity
  8
0
  6
Continuous
 62
     7
370
    25
100
AcDbLine
 10
5.9385074838
 20
5.033803462
 30
0.0
 11
5.9385074838
 21
5.616803462
 31
0.0
  0
LINE
  5
E8
330
1F
100
AcDbEntity
  8
0
  6
Continuous
 62
     7
370
    25
100
AcDbLine
 10
8.1385074838
 20
4.931803462
 30
0.0
 11
7.4685074838
 21
4.931803462
 31
0.0
  0
LINE
  5
E9
330
1F
100
AcDbEntity
  8
0
  6
Continuous
 62
     7
370
    25
100
AcDbLine
 10
7.4685074838
 20
4.931803462
 30
0.0
 11
7.4685074838
 21
4.348803462
 31
0.0
  0
LINE
  5
EA
330
1F
100
AcDbEntity
  8
0
  6
Continuous
 62
     7
370
    25
100
AcDbLine
 10
7.4685074838
 20
4.348803462
 30
0.0
 11
8.1385074838
 21
4.348803462
 31
0.0
  0
LINE
  5
EB
330
1F
100
AcDbEntity
  8
0
  6
Continuous
 62
     7
370
    25
100
AcDbLine
 10
8.1385074838
 20
4.348803462
 30
0.0
 11
8.1385074838
 21
4.931803462
 31
0.0
  0
LINE
  5
EC
330
1F
100
AcDbEntity
  8
0
  6
Continuous
 62
     7
370
    25
100
AcDbLine
 10
15.3085074838
 20
5.616803462
 30
0.0
 11
14.6385074838
 21
5.616803462
 31
0.0
  0
LINE
  5
ED
330
1F
100
AcDbEntity
  8
0
  6
Continuous
 62
     7
370
    25
100
AcDbLine
 10
14.6385074838
 20
5.616803462
 30
0.0
 11
14.6385074838
 21
5.033803462
 31
0.0
  0
LINE
  5
EE
330
1F
100
AcDbEntity
  8
0
  6
Continuous
 62
     7
370
    25
100
AcDbLine
 10
14.6385074838
 20
5.033803462
 30
0.0
 11
15.3085074838
 21
5.033803462
 31
0.0
  0
LINE
  5
EF
330
1F
100
AcDbEntity
  8
0
  6
Continuous
 62
     7
370
    25
100
AcDbLine
 10
15.3085074838
 20
5.033803462
 30
0.0
 11
15.3085074838
 21
5.616803462
 31
0.0
  0
LINE
  5
F0
330
1F
100
AcDbEntity
  8
0
  6
Continuous
 62
     7
370
    25
100
AcDbLine
 10
15.3085074838
 20
4.931803462
 30
0.0
 11
14.6385074838
 21
4.931803462
 31
0.0
  0
LINE
  5
F1
330
1F
100
AcDbEntity
  8
0
  6
Continuous
 62
     7
370
    25
100
AcDbLine
 10
14.6385074838
 20
4.931803462
 30
0.0
 11
14.6385074838
 21
4.348803462
 31
0.0
  0
LINE
  5
F2
330
1F
100
AcDbEntity
  8
0
  6
Continuous
 62
     7
370
    25
100
AcDbLine
 10
14.6385074838
 20
4.348803462
 30
0.0
 11
15.3085074838
 21
4.348803462
 31
0.0
  0
LINE
  5
F3
330
1F
100
AcDbEntity
  8
0
  6
Continuous
 62
     7
370
    25
100
AcDbLine
 10
15.3085074838
 20
4.348803462
 30
0.0
 11
15.3085074838
 21
4.931803462
 31
0.0
  0
LINE
  5
F4
330
1F
100
AcDbEntity
  8
0
  6
Continuous
 62
     7
370
    25
100
AcDbLine
 10
9.2385074838
 20
5.616803462
 30
0.0
 11
8.5685074838
 21
5.616803462
 31
0.0
  0
LINE
  5
F5
330
1F
100
AcDbEntity
  8
0
  6
Continuous
 62
     7
370
    25
100
AcDbLine
 10
8.5685074838
 20
5.616803462
 30
0.0
 11
8.5685074838
 21
5.033803462
 31
0.0
  0
LINE
  5
F6
330
1F
100
AcDbEntity
  8
0
  6
Continuous
 62
     7
370
    25
100
AcDbLine
 10
8.5685074838
 20
5.033803462
 30
0.0
 11
9.2385074838
 21
5.033803462
 31
0.0
  0
LINE
  5
F7
330
1F
100
AcDbEntity
  8
0
  6
Continuous
 62
     7
370
    25
100
AcDbLine
 10
9.2385074838
 20
5.033803462
 30
0.0
 11
9.2385074838
 21
5.616803462
 31
0.0
  0
LINE
  5
F8
330
1F
100
AcDbEntity
  8
0
  6
Continuous
 62
     7
370
    25
100
AcDbLine
 10
7.0385074838
 20
4.931803462
 30
0.0
 11
6.3685074838
 21
4.931803462
 31
0.0
  0
LINE
  5
F9
330
1F
100
AcDbEntity
  8
0
  6
Continuous
 62
     7
370
    25
100
AcDbLine
 10
6.3685074838
 20
4.931803462
 30
0.0
 11
6.3685074838
 21
4.348803462
 31
0.0
  0
LINE
  5
FA
330
1F
100
AcDbEntity
  8
0
  6
Continuous
 62
     7
370
    25
100
AcDbLine
 10
6.3685074838
 20
4.348803462
 30
0.0
 11
7.0385074838
 21
4.348803462
 31
0.0
  0
LINE
  5
FB
330
1F
100
AcDbEntity
  8
0
  6
Continuous
 62
     7
370
    25
100
AcDbLine
 10
7.0385074838
 20
4.348803462
 30
0.0
 11
7.0385074838
 21
4.931803462
 31
0.0
  0
LINE
  5
FC
330
1F
100
AcDbEntity
  8
0
  6
Continuous
 62
     7
370
    25
100
AcDbLine
 10
14.2085074838
 20
5.616803462
 30
0.0
 11
13.5385074838
 21
5.616803462
 31
0.0
  0
LINE
  5
FD
330
1F
100
AcDbEntity
  8
0
  6
Continuous
 62
     7
370
    25
100
AcDbLine
 10
13.5385074838
 20
5.616803462
 30
0.0
 11
13.5385074838
 21
5.033803462
 31
0.0
  0
LINE
  5
FE
330
1F
100
AcDbEntity
  8
0
  6
Continuous
 62
     7
370
    25
100
AcDbLine
 10
13.5385074838
 20
5.033803462
 30
0.0
 11
14.2085074838
 21
5.033803462
 31
0.0
  0
LINE
  5
FF
330
1F
100
AcDbEntity
  8
0
  6
Continuous
 62
     7
370
    25
100
AcDbLine
 10
14.2085074838
 20
5.033803462
 30
0.0
 11
14.2085074838
 21
5.616803462
 31
0.0
  0
LINE
  5
100
330
1F
100
AcDbEntity
  8
0
  6
Continuous
 62
     7
370
    25
100
AcDbLine
 10
14.2085074838
 20
4.931803462
 30
0.0
 11
13.5385074838
 21
4.931803462
 31
0.0
  0
LINE
  5
101
330
1F
100
AcDbEntity
  8
0
  6
Continuous
 62
     7
370
    25
100
AcDbLine
 10
13.5385074838
 20
4.931803462
 30
0.0
 11
13.5385074838
 21
4.348803462
 31
0.0
  0
LINE
  5
102
330
1F
100
AcDbEntity
  8
0
  6
Continuous
 62
     7
370
    25
100
AcDbLine
 10
13.5385074838
 20
4.348803462
 30
0.0
 11
14.2085074838
 21
4.348803462
 31
0.0
  0
LINE
  5
103
330
1F
100
AcDbEntity
  8
0
  6
Continuous
 62
     7
370
    25
100
AcDbLine
 10
14.2085074838
 20
4.348803462
 30
0.0
 11
14.2085074838
 21
4.931803462
 31
0.0
  0
LINE
  5
104
330
1F
100
AcDbEntity
  8
0
  6
Continuous
 62
     7
370
    25
100
AcDbLine
 10
8.1385074838
 20
5.616803462
 30
0.0
 11
7.4685074838
 21
5.616803462
 31
0.0
  0
LINE
  5
105
330
1F
100
AcDbEntity
  8
0
  6
Continuous
 62
     7
370
    25
100
AcDbLine
 10
7.4685074838
 20
5.616803462
 30
0.0
 11
7.4685074838
 21
5.033803462
 31
0.0
  0
LINE
  5
106
330
1F
100
AcDbEntity
  8
0
  6
Continuous
 62
     7
370
    25
100
AcDbLine
 10
7.4685074838
 20
5.033803462
 30
0.0
 11
8.1385074838
 21
5.033803462
 31
0.0
  0
LINE
  5
107
330
1F
100
AcDbEntity
  8
0
  6
Continuous
 62
     7
370
    25
100
AcDbLine
 10
8.1385074838
 20
5.033803462
 30
0.0
 11
8.1385074838
 21
5.616803462
 31
0.0
  0
CIRCLE
  5
108
330
1F
100
AcDbEntity
  8
0
  6
Continuous
 62
     7
370
    25
100
AcDbCircle
 10
17.8385074838
 20
4.832803462
 30
0.0
 40
0.1065000000000005
  0
CIRCLE
  5
109
330
1F
100
AcDbEntity
  8
0
  6
Continuous
 62
     7
370
    25
100
AcDbCircle
 10
10.8385074838
 20
5.132803462
 30
0.0
 40
0.1065000000000005
  0
CIRCLE
  5
10A
330
1F
100
AcDbEntity
  8
0
  6
Continuous
 62
     7
370
    25
100
AcDbCircle
 10
3.8385074838
 20
4.832803462
 30
0.0
 40
0.1064999999999996
  0
LINE
  5
10B
330
1F
100
AcDbEntity
  8
0
  6
Continuous
 62
     7
370
    25
100
AcDbLine
 10
3.4185074838
 20
4.182703462
 30
0.0
 11
3.4185074838
 21
5.782903462
 31
0.0
  0
LINE
  5
10C
330
1F
100
AcDbEntity
  8
0
  6
Continuous
 62
     7
370
    25
100
AcDbLine
 10
18.1685074838
 20
4.092903462
 30
0.0
 11
3.5085074838
 21
4.092903462
 31
0.0
  0
LINE
  5
10D
330
1F
100
AcDbEntity
  8
0
  6
Continuous
 62
     7
370
    25
100
AcDbLine
 10
18.1685074838
 20
4.182703462
 30
0.0
 11
18.1685074838
 21
4.092903462
 31
0.0
  0
LINE
  5
10E
330
1F
100
AcDbEntity
  8
0
  6
Continuous
 62
     7
370
    25
100
AcDbLine
 10
3.5085074838
 20
4.092903462
 30
0.0
 11
3.5085074838
 21
4.182703462
 31
0.0
  0
LINE
  5
10F
330
1F
100
AcDbEntity
  8
0
  6
Continuous
 62
     7
370
    25
100
AcDbLine
 10
3.5083074838
 20
4.152703462
 30
0.0
 11
3.5083074838
 21
4.092903462
 31
0.0
  0
LINE
  5
110
330
1F
100
AcDbEntity
  8
0
  6
Continuous
 62
     7
370
    25
100
AcDbLine
 10
3.5083074838
 20
4.152703462
 30
0.0
 11
3.5085074838
 21
4.152703462
 31
0.0
  0
LINE
  5
111
330
1F
100
AcDbEntity
  8
0
  6
Continuous
 62
     7
370
    25
100
AcDbLine
 10
3.5083074838
 20
4.092903462
 30
0.0
 11
3.5085074838
 21
4.092903462
 31
0.0
  0
LINE
  5
112
330
1F
100
AcDbEntity
  8
0
  6
Continuous
 62
     7
370
    25
100
AcDbLine
 10
18.1687074838
 20
4.152703462
 30
0.0
 11
18.1687074838
 21
4.092903462
 31
0.0
  0
LINE
  5
113
330
1F
100
AcDbEntity
  8
0
  6
Continuous
 62
     7
370
    25
100
AcDbLine
 10
18.1687074838
 20
4.152703462
 30
0.0
 11
18.1685074838
 21
4.152703462
 31
0.0
  0
LINE
  5
114
330
1F
100
AcDbEntity
  8
0
  6
Continuous
 62
     7
370
    25
100
AcDbLine
 10
18.1685074838
 20
4.092903462
 30
0.0
 11
18.1687074838
 21
4.092903462
 31
0.0
  0
ARC
  5
115
330
1F
100
AcDbEntity
  8
0
  6
Continuous
 62
     7
370
    25
100
AcDbCircle
 10
3.5083074838
 20
4.182703462
 30
0.0
 40
0.0898000000000008
100
AcDbArc
 50
180.0
 51
270.0
  0
ARC
  5
116
330
1F
100
AcDbEntity
  8
0
  6
Continuous
 62
     7
370
    25
100
AcDbCircle
 10
3.5083074838
 20
4.182703462
 30
0.0
 40
0.0300000000000007
100
AcDbArc
 50
180.0
 51
270.0
  0
ARC
  5
117
330
1F
100
AcDbEntity
  8
0
  6
Continuous
 62
     7
370
    25
100
AcDbCircle
 10
18.1687074838
 20
4.182703462
 30
0.0
 40
0.0898000000000003
100
AcDbArc
 50
270.0
 51
0.0
  0
ARC
  5
118
330
1F
100
AcDbEntity
  8
0
  6
Continuous
 62
     7
370
    25
100
AcDbCircle
 10
18.1687074838
 20
4.182703462
 30
0.0
 40
0.0300000000000011
100
AcDbArc
 50
270.0
 51
0.0
  0
LINE
  5
119
330
1F
100
AcDbEntity
  8
0
  6
Continuous
 62
     7
370
    25
100
AcDbLine
 10
3.5083074838
 20
4.182703462
 30
0.0
 11
3.5083074838
 21
4.152703462
 31
0.0
  0
LINE
  5
11A
330
1F
100
AcDbEntity
  8
0
  6
Continuous
 62
     7
370
    25
100
AcDbLine
 10
18.1687074838
 20
4.152703462
 30
0.0
 11
18.1687074838
 21
4.182703462
 31
0.0
  0
LINE
  5
11B
330
1F
100
AcDbEntity
  8
0
  6
Continuous
 62
     8
370
    25
100
AcDbLine
 10
3.4185074838
 20
5.7741166655
 30
0.0
 11
3.3885074838
 21
5.7741166655
 31
0.0
  0
LINE
  5
11C
330
1F
100
AcDbEntity
  8
0
  6
Continuous
 62
     8
370
    25
100
AcDbLine
 10
18.2885074838
 20
5.7741166655
 30
0.0
 11
18.2585074838
 21
5.7741166655
 31
0.0
  0
LINE
  5
11D
330
1F
100
AcDbEntity
  8
0
  6
Continuous
 62
     8
370
    25
100
AcDbLine
 10
18.2885074838
 20
5.6842052731
 30
0.0
 11
18.2585074838
 21
5.6842052731
 31
0.0
  0
LINE
  5
11E
330
1F
100
AcDbEntity
  8
0
  6
Continuous
 62
     8
370
    25
100
AcDbLine
 10
3.4185074838
 20
5.6842052731
 30
0.0
 11
3.3885074838
 21
5.6842052731
 31
0.0
  0
DIMENSION
  5
11F
330
1F
100
AcDbEntity
  8
FORMAT
 62
     7
100
AcDbDimension
  2
_D
 10
3.3885074838
 20
6.342703462
 30
0.0
 11
10.8799305204
 21
6.342703462
 31
0.0
 70
   160
  1
<>
 71
     2
 42
-1.0
  3
SLDDIMSTYLE0
100
AcDbAlignedDimension
 13
18.2885074838
 23
5.842703462
 33
0.0
 14
3.3885074838
 24
5.842703462
 34
0.0
100
AcDbRotatedDimension
  0
LINE
  5
12B
330
1F
100
AcDbEntity
  8
0
  6
Continuous
 62
     7
370
    25
100
AcDbLine
 10
3.727034615
 20
11.7239958703
 30
0.0
 11
3.7355617461
 21
11.7160326402
 31
0.0
  0
LINE
  5
12C
330
1F
100
AcDbEntity
  8
0
  6
Continuous
 62
     7
370
    25
100
AcDbLine
 10
3.7355617461
 20
11.7160326402
 30
0.0
 11
3.7377660864
 21
11.6515703188
 31
0.0
  0
LINE
  5
12D
330
1F
100
AcDbEntity
  8
0
  6
Continuous
 62
     7
370
    25
100
AcDbLine
 10
3.7377660864
 20
11.6515703188
 30
0.0
 11
3.727034615
 21
11.7239958703
 31
0.0
  0
LINE
  5
12E
330
1F
100
AcDbEntity
  8
0
  6
Continuous
 62
     7
370
    25
100
AcDbLine
 10
3.7988962656
 20
11.751217703
 30
0.0
 11
3.726470714
 21
11.7404862316
 31
0.0
  0
LINE
  5
12F
330
1F
100
AcDbEntity
  8
0
  6
Continuous
 62
     7
370
    25
100
AcDbLine
 10
3.7344339441
 20
11.7490133628
 30
0.0
 11
3.726470714
 21
11.7404862316
 31
0.0
  0
LINE
  5
130
330
1F
100
AcDbEntity
  8
0
  6
Continuous
 62
     7
370
    25
100
AcDbLine
 10
3.7344339441
 20
11.7490133628
 30
0.0
 11
3.7988962656
 21
11.751217703
 31
0.0
  0
LINE
  5
131
330
1F
100
AcDbEntity
  8
0
  6
Continuous
 62
     7
370
    25
100
AcDbLine
 10
3.7105442537
 20
11.7234319693
 30
0.0
 11
3.7099803527
 21
11.7399223306
 31
0.0
  0
LINE
  5
132
330
1F
100
AcDbEntity
  8
0
  6
Continuous
 62
     7
370
    25
100
AcDbLine
 10
3.6381187021
 20
11.7127004979
 30
0.0
 11
3.7105442537
 21
11.7234319693
 31
0.0
  0
LINE
  5
133
330
1F
100
AcDbEntity
  8
0
  6
Continuous
 62
     7
370
    25
100
AcDbLine
 10
3.6381187021
 20
11.7127004979
 30
0.0
 11
3.6369909001
 21
11.7456812205
 31
0.0
  0
LINE
  5
134
330
1F
100
AcDbEntity
  8
0
  6
Continuous
 62
     7
370
    25
100
AcDbLine
 10
3.6369909001
 20
11.7456812205
 30
0.0
 11
3.7099803527
 21
11.7399223306
 31
0.0
  0
LINE
  5
135
330
1F
100
AcDbEntity
  8
0
  6
Continuous
 62
     7
370
    25
100
AcDbLine
 10
3.726470714
 20
11.7404862316
 30
0.0
 11
3.727034615
 21
11.7239958703
 31
0.0
  0
LINE
  5
136
330
1F
100
AcDbEntity
  8
0
  6
Continuous
 62
     7
370
    25
100
AcDbLine
 10
3.7988962656
 20
11.751217703
 30
0.0
 11
3.8000240676
 21
11.7182369805
 31
0.0
  0
LINE
  5
137
330
1F
100
AcDbEntity
  8
0
  6
Continuous
 62
     7
370
    25
100
AcDbLine
 10
3.8000240676
 20
11.7182369805
 30
0.0
 11
3.727034615
 21
11.7239958703
 31
0.0
  0
LINE
  5
138
330
1F
100
AcDbEntity
  8
0
  6
Continuous
 62
     7
370
    25
100
AcDbLine
 10
3.7099803527
 20
11.7399223306
 30
0.0
 11
3.7014532215
 21
11.7478855608
 31
0.0
  0
LINE
  5
139
330
1F
100
AcDbEntity
  8
0
  6
Continuous
 62
     7
370
    25
100
AcDbLine
 10
3.7014532215
 20
11.7478855608
 30
0.0
 11
3.6992488813
 21
11.8123478822
 31
0.0
  0
LINE
  5
13A
330
1F
100
AcDbEntity
  8
0
  6
Continuous
 62
     7
370
    25
100
AcDbLine
 10
3.6992488813
 20
11.8123478822
 30
0.0
 11
3.7099803527
 21
11.7399223306
 31
0.0
  0
LINE
  5
13B
330
1F
100
AcDbEntity
  8
0
  6
Continuous
 62
     7
370
    25
100
AcDbLine
 10
3.7025810235
 20
11.7149048382
 30
0.0
 11
3.7105442537
 21
11.7234319693
 31
0.0
  0
LINE
  5
13C
330
1F
100
AcDbEntity
  8
0
  6
Continuous
 62
     7
370
    25
100
AcDbLine
 10
3.7047853638
 20
11.6504425168
 30
0.0
 11
3.7105442537
 21
11.7234319693
 31
0.0
  0
LINE
  5
13D
330
1F
100
AcDbEntity
  8
0
  6
Continuous
 62
     7
370
    25
100
AcDbLine
 10
3.7047853638
 20
11.6504425168
 30
0.0
 11
3.7025810235
 21
11.7149048382
 31
0.0
  0
LINE
  5
13E
330
1F
100
AcDbEntity
  8
0
  6
Continuous
 62
     7
370
    25
100
AcDbLine
 10
3.7025810235
 20
11.7149048382
 30
0.0
 11
3.6381187021
 21
11.7127004979
 31
0.0
  0
LINE
  5
13F
330
1F
100
AcDbEntity
  8
0
  6
Continuous
 62
     7
370
    25
100
AcDbLine
 10
3.7377660864
 20
11.6515703188
 30
0.0
 11
3.7047853638
 21
11.6504425168
 31
0.0
  0
LINE
  5
140
330
1F
100
AcDbEntity
  8
0
  6
Continuous
 62
     7
370
    25
100
AcDbLine
 10
3.8000240676
 20
11.7182369805
 30
0.0
 11
3.7355617461
 21
11.7160326402
 31
0.0
  0
LINE
  5
141
330
1F
100
AcDbEntity
  8
0
  6
Continuous
 62
     7
370
    25
100
AcDbLine
 10
3.7322296039
 20
11.8134756842
 30
0.0
 11
3.7344339441
 21
11.7490133628
 31
0.0
  0
LINE
  5
142
330
1F
100
AcDbEntity
  8
0
  6
Continuous
 62
     7
370
    25
100
AcDbLine
 10
3.6992488813
 20
11.8123478822
 30
0.0
 11
3.7322296039
 21
11.8134756842
 31
0.0
  0
LINE
  5
143
330
1F
100
AcDbEntity
  8
0
  6
Continuous
 62
     7
370
    25
100
AcDbLine
 10
3.6369909001
 20
11.7456812205
 30
0.0
 11
3.7014532215
 21
11.7478855608
 31
0.0
  0
CIRCLE
  5
144
330
1F
100
AcDbEntity
  8
0
  6
Continuous
 62
     7
370
    25
100
AcDbCircle
 10
3.7185074838
 20
11.7319591005
 30
0.0
 40
0.119000000000001
  0
LINE
  5
145
330
1F
100
AcDbEntity
  8
0
  6
Continuous
 62
     7
370
    25
100
AcDbLine
 10
3.727034615
 20
11.7239958703
 30
0.0
 11
3.7105442537
 21
11.7234319693
 31
0.0
  0
LINE
  5
146
330
1F
100
AcDbEntity
  8
0
  6
Continuous
 62
     7
370
    25
100
AcDbLine
 10
3.7322296039
 20
11.8134756842
 30
0.0
 11
3.726470714
 21
11.7404862316
 31
0.0
  0
LINE
  5
147
330
1F
100
AcDbEntity
  8
0
  6
Continuous
 62
     7
370
    25
100
AcDbLine
 10
3.7099803527
 20
11.7399223306
 30
0.0
 11
3.726470714
 21
11.7404862316
 31
0.0
  0
LINE
  5
148
330
1F
100
AcDbEntity
  8
0
  6
Continuous
 62
     7
370
    25
100
AcDbLine
 10
17.9760017058
 20
11.747400998
 30
0.0
 11
17.9672545948
 21
11.7396800492
 31
0.0
  0
LINE
  5
149
330
1F
100
AcDbEntity
  8
0
  6
Continuous
 62
     7
370
    25
100
AcDbLine
 10
17.9800130673
 20
11.8117761405
 30
0.0
 11
17.9672545948
 21
11.7396800492
 31
0.0
  0
LINE
  5
14A
330
1F
100
AcDbEntity
  8
0
  6
Continuous
 62
     7
370
    25
100
AcDbLine
 10
17.9800130673
 20
11.8117761405
 30
0.0
 11
17.9760017058
 21
11.747400998
 31
0.0
  0
LINE
  5
14B
330
1F
100
AcDbEntity
  8
0
  6
Continuous
 62
     7
370
    25
100
AcDbLine
 10
17.8786904438
 20
11.7534646839
 30
0.0
 11
17.9430655864
 21
11.7494533224
 31
0.0
  0
LINE
  5
14C
330
1F
100
AcDbEntity
  8
0
  6
Continuous
 62
     7
370
    25
100
AcDbLine
 10
17.9507865351
 20
11.7407062115
 30
0.0
 11
17.9430655864
 21
11.7494533224
 31
0.0
  0
LINE
  5
14D
330
1F
100
AcDbEntity
  8
0
  6
Continuous
 62
     7
370
    25
100
AcDbLine
 10
17.8786904438
 20
11.7534646839
 30
0.0
 11
17.9507865351
 21
11.7407062115
 31
0.0
  0
LINE
  5
14E
330
1F
100
AcDbEntity
  8
0
  6
Continuous
 62
     7
370
    25
100
AcDbLine
 10
17.9507865351
 20
11.7407062115
 30
0.0
 11
17.9672545948
 21
11.7396800492
 31
0.0
  0
LINE
  5
14F
330
1F
100
AcDbEntity
  8
0
  6
Continuous
 62
     7
370
    25
100
AcDbLine
 10
17.9470769479
 20
11.813828465
 30
0.0
 11
17.9507865351
 21
11.7407062115
 31
0.0
  0
LINE
  5
150
330
1F
100
AcDbEntity
  8
0
  6
Continuous
 62
     7
370
    25
100
AcDbLine
 10
17.9470769479
 20
11.813828465
 30
0.0
 11
17.9800130673
 21
11.8117761405
 31
0.0
  0
LINE
  5
151
330
1F
100
AcDbEntity
  8
0
  6
Continuous
 62
     7
370
    25
100
AcDbLine
 10
18.0383245239
 20
11.710453517
 30
0.0
 11
17.9739493813
 21
11.7144648785
 31
0.0
  0
LINE
  5
152
330
1F
100
AcDbEntity
  8
0
  6
Continuous
 62
     7
370
    25
100
AcDbLine
 10
17.9662284326
 20
11.7232119895
 30
0.0
 11
17.9739493813
 21
11.7144648785
 31
0.0
  0
LINE
  5
153
330
1F
100
AcDbEntity
  8
0
  6
Continuous
 62
     7
370
    25
100
AcDbLine
 10
18.0383245239
 20
11.710453517
 30
0.0
 11
17.9662284326
 21
11.7232119895
 31
0.0
  0
LINE
  5
154
330
1F
100
AcDbEntity
  8
0
  6
Continuous
 62
     7
370
    25
100
AcDbLine
 10
17.9672545948
 20
11.7396800492
 30
0.0
 11
17.9662284326
 21
11.7232119895
 31
0.0
  0
LINE
  5
155
330
1F
100
AcDbEntity
  8
0
  6
Continuous
 62
     7
370
    25
100
AcDbLine
 10
18.0403768484
 20
11.7433896365
 30
0.0
 11
17.9672545948
 21
11.7396800492
 31
0.0
  0
LINE
  5
156
330
1F
100
AcDbEntity
  8
0
  6
Continuous
 62
     7
370
    25
100
AcDbLine
 10
18.0403768484
 20
11.7433896365
 30
0.0
 11
18.0383245239
 21
11.710453517
 31
0.0
  0
LINE
  5
157
330
1F
100
AcDbEntity
  8
0
  6
Continuous
 62
     7
370
    25
100
AcDbLine
 10
17.9760017058
 20
11.747400998
 30
0.0
 11
18.0403768484
 21
11.7433896365
 31
0.0
  0
LINE
  5
158
330
1F
100
AcDbEntity
  8
0
  6
Continuous
 62
     7
370
    25
100
AcDbLine
 10
17.9497603729
 20
11.7242381517
 30
0.0
 11
17.9507865351
 21
11.7407062115
 31
0.0
  0
LINE
  5
159
330
1F
100
AcDbEntity
  8
0
  6
Continuous
 62
     7
370
    25
100
AcDbLine
 10
17.8766381193
 20
11.7205285645
 30
0.0
 11
17.9497603729
 21
11.7242381517
 31
0.0
  0
LINE
  5
15A
330
1F
100
AcDbEntity
  8
0
  6
Continuous
 62
     7
370
    25
100
AcDbLine
 10
17.8766381193
 20
11.7205285645
 30
0.0
 11
17.8786904438
 21
11.7534646839
 31
0.0
  0
LINE
  5
15B
330
1F
100
AcDbEntity
  8
0
  6
Continuous
 62
     7
370
    25
100
AcDbLine
 10
17.9430655864
 20
11.7494533224
 30
0.0
 11
17.9470769479
 21
11.813828465
 31
0.0
  0
LINE
  5
15C
330
1F
100
AcDbEntity
  8
0
  6
Continuous
 62
     7
370
    25
100
AcDbLine
 10
17.9410132619
 20
11.716517203
 30
0.0
 11
17.9497603729
 21
11.7242381517
 31
0.0
  0
LINE
  5
15D
330
1F
100
AcDbEntity
  8
0
  6
Continuous
 62
     7
370
    25
100
AcDbLine
 10
17.9410132619
 20
11.716517203
 30
0.0
 11
17.8766381193
 21
11.7205285645
 31
0.0
  0
LINE
  5
15E
330
1F
100
AcDbEntity
  8
0
  6
Continuous
 62
     7
370
    25
100
AcDbLine
 10
17.9370019004
 20
11.6521420604
 30
0.0
 11
17.9410132619
 21
11.716517203
 31
0.0
  0
LINE
  5
15F
330
1F
100
AcDbEntity
  8
0
  6
Continuous
 62
     7
370
    25
100
AcDbLine
 10
17.9699380198
 20
11.650089736
 30
0.0
 11
17.9370019004
 21
11.6521420604
 31
0.0
  0
LINE
  5
160
330
1F
100
AcDbEntity
  8
0
  6
Continuous
 62
     7
370
    25
100
AcDbLine
 10
17.9739493813
 20
11.7144648785
 30
0.0
 11
17.9699380198
 21
11.650089736
 31
0.0
  0
CIRCLE
  5
161
330
1F
100
AcDbEntity
  8
0
  6
Continuous
 62
     7
370
    25
100
AcDbCircle
 10
17.9585074838
 20
11.7319591005
 30
0.0
 40
0.1190000000000001
  0
LINE
  5
162
330
1F
100
AcDbEntity
  8
0
  6
Continuous
 62
     7
370
    25
100
AcDbLine
 10
17.9370019004
 20
11.6521420604
 30
0.0
 11
17.9497603729
 21
11.7242381517
 31
0.0
  0
LINE
  5
163
330
1F
100
AcDbEntity
  8
0
  6
Continuous
 62
     7
370
    25
100
AcDbLine
 10
17.9662284326
 20
11.7232119895
 30
0.0
 11
17.9497603729
 21
11.7242381517
 31
0.0
  0
LINE
  5
164
330
1F
100
AcDbEntity
  8
0
  6
Continuous
 62
     7
370
    25
100
AcDbLine
 10
17.9699380198
 20
11.650089736
 30
0.0
 11
17.9662284326
 21
11.7232119895
 31
0.0
  0
LINE
  5
165
330
1F
100
AcDbEntity
  8
0
  6
Continuous
 62
     7
370
    25
100
AcDbLine
 10
16.78220471
 20
11.7549591005
 30
0.0
 11
17.2785074838
 21
11.7549591005
 31
0.0
  0
LINE
  5
166
330
1F
100
AcDbEntity
  8
0
  6
Continuous
 62
     7
370
    25
100
AcDbLine
 10
17.2785074838
 20
11.7549591005
 30
0.0
 11
17.2785074838
 21
11.4819591005
 31
0.0
  0
LINE
  5
167
330
1F
100
AcDbEntity
  8
0
  6
Continuous
 62
     7
370
    25
100
AcDbLine
 10
17.2785074838
 20
11.4819591005
 30
0.0
 11
17.2185074838
 21
11.4819591005
 31
0.0
  0
LINE
  5
168
330
1F
100
AcDbEntity
  8
0
  6
Continuous
 62
     7
370
    25
100
AcDbLine
 10
17.2185074838
 20
11.4819591005
 30
0.0
 11
17.2185074838
 21
11.3569591005
 31
0.0
  0
LINE
  5
169
330
1F
100
AcDbEntity
  8
0
  6
Continuous
 62
     7
370
    25
100
AcDbLine
 10
17.2185074838
 20
11.3569591005
 30
0.0
 11
17.1138305558
 21
11.4819591005
 31
0.0
  0
LINE
  5
16A
330
1F
100
AcDbEntity
  8
0
  6
Continuous
 62
     7
370
    25
100
AcDbLine
 10
17.1138305558
 20
11.4819591005
 30
0.0
 11
17.05720471
 21
11.4819591005
 31
0.0
  0
LINE
  5
16B
330
1F
100
AcDbEntity
  8
0
  6
Continuous
 62
     7
370
    25
100
AcDbLine
 10
17.05720471
 20
11.4819591005
 30
0.0
 11
17.05720471
 21
11.2419591005
 31
0.0
  0
LINE
  5
16C
330
1F
100
AcDbEntity
  8
0
  6
Continuous
 62
     7
370
    25
100
AcDbLine
 10
17.05720471
 20
11.2419591005
 30
0.0
 11
16.9461945049
 21
11.2419591005
 31
0.0
  0
ARC
  5
16D
330
1F
100
AcDbEntity
  8
0
  6
Continuous
 62
     7
370
    25
100
AcDbCircle
 10
16.89720471
 20
11.3569591005
 30
0.0
 40
0.1250000000000006
100
AcDbArc
 50
293.0739180656
 51
156.9260819344
  0
LINE
  5
16E
330
1F
100
AcDbEntity
  8
0
  6
Continuous
 62
     7
370
    25
100
AcDbLine
 10
16.78220471
 20
11.4059488953
 30
0.0
 11
16.78220471
 21
11.7549591005
 31
0.0
  0
LINE
  5
16F
330
1F
100
AcDbEntity
  8
0
  6
Continuous
 62
     7
370
    25
100
AcDbLine
 10
15.7885074838
 20
11.2319591005
 30
0.0
 11
15.7885074838
 21
11.4819591005
 31
0.0
  0
LINE
  5
170
330
1F
100
AcDbEntity
  8
0
  6
Continuous
 62
     7
370
    25
100
AcDbLine
 10
15.7885074838
 20
11.4819591005
 30
0.0
 11
15.8585074838
 21
11.4819591005
 31
0.0
  0
LINE
  5
171
330
1F
100
AcDbEntity
  8
0
  6
Continuous
 62
     7
370
    25
100
AcDbLine
 10
15.8585074838
 20
11.4819591005
 30
0.0
 11
15.8585074838
 21
11.2969591005
 31
0.0
  0
LINE
  5
172
330
1F
100
AcDbEntity
  8
0
  6
Continuous
 62
     7
370
    25
100
AcDbLine
 10
15.8585074838
 20
11.2969591005
 30
0.0
 11
15.9555074838
 21
11.2969591005
 31
0.0
  0
LINE
  5
173
330
1F
100
AcDbEntity
  8
0
  6
Continuous
 62
     7
370
    25
100
AcDbLine
 10
15.9555074838
 20
11.2969591005
 30
0.0
 11
15.9555074838
 21
11.2319591005
 31
0.0
  0
LINE
  5
174
330
1F
100
AcDbEntity
  8
0
  6
Continuous
 62
     7
370
    25
100
AcDbLine
 10
15.9555074838
 20
11.2319591005
 30
0.0
 11
15.7885074838
 21
11.2319591005
 31
0.0
  0
LINE
  5
175
330
1F
100
AcDbEntity
  8
0
  6
Continuous
 62
     7
370
    25
100
AcDbLine
 10
17.3410074838
 20
11.2824591005
 30
0.0
 11
17.3410074838
 21
11.2964591005
 31
0.0
  0
LINE
  5
176
330
1F
100
AcDbEntity
  8
0
  6
Continuous
 62
     7
370
    25
100
AcDbLine
 10
17.3410074838
 20
11.2964591005
 30
0.0
 11
17.3630074838
 21
11.2964591005
 31
0.0
  0
ARC
  5
177
330
1F
100
AcDbEntity
  8
0
  6
Continuous
 62
     7
370
    25
100
AcDbCircle
 10
17.3630074838
 20
11.2894591005
 30
0.0
 40
0.0070000000000014
100
AcDbArc
 50
270.0
 51
90.0
  0
LINE
  5
178
330
1F
100
AcDbEntity
  8
0
  6
Continuous
 62
     7
370
    25
100
AcDbLine
 10
17.3630074838
 20
11.2824591005
 30
0.0
 11
17.3410074838
 21
11.2824591005
 31
0.0
  0
CIRCLE
  5
179
330
1F
100
AcDbEntity
  8
0
  6
Continuous
 62
     7
370
    25
100
AcDbCircle
 10
17.9585074838
 20
11.7319591005
 30
0.0
 40
0.1395
  0
CIRCLE
  5
17A
330
1F
100
AcDbEntity
  8
0
  6
Continuous
 62
     7
370
    25
100
AcDbCircle
 10
3.7185074838
 20
11.7319591005
 30
0.0
 40
0.1395
  0
LINE
  5
17B
330
1F
100
AcDbEntity
  8
0
  6
Continuous
 62
     7
370
    25
100
AcDbLine
 10
17.3410074838
 20
11.2544591005
 30
0.0
 11
17.3330074838
 21
11.2544591005
 31
0.0
  0
LINE
  5
17C
330
1F
100
AcDbEntity
  8
0
  6
Continuous
 62
     7
370
    25
100
AcDbLine
 10
17.3410074838
 20
11.2744591005
 30
0.0
 11
17.3410074838
 21
11.2544591005
 31
0.0
  0
LINE
  5
17D
330
1F
100
AcDbEntity
  8
0
  6
Continuous
 62
     7
370
    25
100
AcDbLine
 10
17.3560074838
 20
11.2744591005
 30
0.0
 11
17.3410074838
 21
11.2744591005
 31
0.0
  0
LINE
  5
17E
330
1F
100
AcDbEntity
  8
0
  6
Continuous
 62
     7
370
    25
100
AcDbLine
 10
17.36856194
 20
11.2544591005
 30
0.0
 11
17.3560074838
 21
11.2744591005
 31
0.0
  0
LINE
  5
17F
330
1F
100
AcDbEntity
  8
0
  6
Continuous
 62
     7
370
    25
100
AcDbLine
 10
17.3780074838
 20
11.2544591005
 30
0.0
 11
17.36856194
 21
11.2544591005
 31
0.0
  0
LINE
  5
180
330
1F
100
AcDbEntity
  8
0
  6
Continuous
 62
     7
370
    25
100
AcDbLine
 10
17.3653386265
 20
11.2746413485
 30
0.0
 11
17.3780074838
 21
11.2544591005
 31
0.0
  0
ARC
  5
181
330
1F
100
AcDbEntity
  8
0
  6
Continuous
 62
     7
370
    25
100
AcDbCircle
 10
17.3630074838
 20
11.2894591005
 30
0.0
 40
0.0150000000000018
100
AcDbArc
 50
278.9405472039
 51
90.0
  0
LINE
  5
182
330
1F
100
AcDbEntity
  8
0
  6
Continuous
 62
     7
370
    25
100
AcDbLine
 10
17.3330074838
 20
11.3044591005
 30
0.0
 11
17.3630074838
 21
11.3044591005
 31
0.0
  0
LINE
  5
183
330
1F
100
AcDbEntity
  8
0
  6
Continuous
 62
     7
370
    25
100
AcDbLine
 10
17.3330074838
 20
11.2544591005
 30
0.0
 11
17.3330074838
 21
11.3044591005
 31
0.0
  0
CIRCLE
  5
184
330
1F
100
AcDbEntity
  8
0
  6
Continuous
 62
     7
370
    25
100
AcDbCircle
 10
17.3560074838
 20
11.2794591005
 30
0.0
 40
0.0395000000000003
  0
LINE
  5
185
330
1F
100
AcDbEntity
  8
0
  6
Continuous
 62
     7
370
    25
100
AcDbLine
 10
18.2885074838
 20
14.6334364255
 30
0.0
 11
15.6735074838
 21
14.6334364255
 31
0.0
  0
LINE
  5
186
330
1F
100
AcDbEntity
  8
0
  6
Continuous
 62
     7
370
    25
100
AcDbLine
 10
15.6735074838
 20
14.6969346144
 30
0.0
 11
15.6735074838
 21
14.6334364255
 31
0.0
  0
LINE
  5
187
330
1F
100
AcDbEntity
  8
0
  6
Continuous
 62
     7
370
    25
100
AcDbLine
 10
18.2885074838
 20
14.6969346144
 30
0.0
 11
15.6735074838
 21
14.6969346144
 31
0.0
  0
LINE
  5
188
330
1F
100
AcDbEntity
  8
0
  6
Continuous
 62
     7
370
    25
100
AcDbLine
 10
18.2885074838
 20
14.6969346144
 30
0.0
 11
18.2885074838
 21
14.6334364255
 31
0.0
  0
LINE
  5
189
330
1F
100
AcDbEntity
  8
0
  6
Continuous
 62
     7
370
    25
100
AcDbLine
 10
17.12720471
 20
11.3569591005
 30
0.0
 11
17.2235074838
 21
11.2419591005
 31
0.0
  0
LINE
  5
18A
330
1F
100
AcDbEntity
  8
0
  6
Continuous
 62
     7
370
    25
100
AcDbLine
 10
17.12720471
 20
11.2419591005
 30
0.0
 11
17.12720471
 21
11.3569591005
 31
0.0
  0
LINE
  5
18B
330
1F
100
AcDbEntity
  8
0
  6
Continuous
 62
     7
370
    25
100
AcDbLine
 10
17.2235074838
 20
11.2419591005
 30
0.0
 11
17.12720471
 21
11.2419591005
 31
0.0
  0
CIRCLE
  5
18C
330
1F
100
AcDbEntity
  8
0
  6
Continuous
 62
     7
370
    25
100
AcDbCircle
 10
16.89720471
 20
11.3569591005
 30
0.0
 40
0.0600000000000005
  0
ARC
  5
18D
330
1F
100
AcDbEntity
  8
0
  6
Continuous
 62
     7
370
    25
100
AcDbCircle
 10
16.89720471
 20
11.3569591005
 30
0.0
 40
0.1250000000000018
100
AcDbArc
 50
180.0
 51
270.0
  0
LINE
  5
18E
330
1F
100
AcDbEntity
  8
0
  6
Continuous
 62
     7
370
    25
100
AcDbLine
 10
16.77220471
 20
11.3569591005
 30
0.0
 11
16.77220471
 21
11.4169591005
 31
0.0
  0
LINE
  5
18F
330
1F
100
AcDbEntity
  8
0
  6
Continuous
 62
     7
370
    25
100
AcDbLine
 10
16.77220471
 20
11.4169591005
 30
0.0
 11
16.71220471
 21
11.4169591005
 31
0.0
  0
LINE
  5
190
330
1F
100
AcDbEntity
  8
0
  6
Continuous
 62
     7
370
    25
100
AcDbLine
 10
16.71220471
 20
11.4169591005
 30
0.0
 11
16.71220471
 21
11.2319591005
 31
0.0
  0
LINE
  5
191
330
1F
100
AcDbEntity
  8
0
  6
Continuous
 62
     7
370
    25
100
AcDbLine
 10
16.71220471
 20
11.2319591005
 30
0.0
 11
16.64220471
 21
11.2319591005
 31
0.0
  0
LINE
  5
192
330
1F
100
AcDbEntity
  8
0
  6
Continuous
 62
     7
370
    25
100
AcDbLine
 10
16.64220471
 20
11.2319591005
 30
0.0
 11
16.64220471
 21
11.4169591005
 31
0.0
  0
LINE
  5
193
330
1F
100
AcDbEntity
  8
0
  6
Continuous
 62
     7
370
    25
100
AcDbLine
 10
16.64220471
 20
11.4169591005
 30
0.0
 11
16.58220471
 21
11.4169591005
 31
0.0
  0
LINE
  5
194
330
1F
100
AcDbEntity
  8
0
  6
Continuous
 62
     7
370
    25
100
AcDbLine
 10
16.58220471
 20
11.4169591005
 30
0.0
 11
16.58220471
 21
11.4819591005
 31
0.0
  0
LINE
  5
195
330
1F
100
AcDbEntity
  8
0
  6
Continuous
 62
     7
370
    25
100
AcDbLine
 10
16.58220471
 20
11.4819591005
 30
0.0
 11
16.77220471
 21
11.4819591005
 31
0.0
  0
LINE
  5
196
330
1F
100
AcDbEntity
  8
0
  6
Continuous
 62
     7
370
    25
100
AcDbLine
 10
16.77220471
 20
11.4819591005
 30
0.0
 11
16.77220471
 21
11.7649591005
 31
0.0
  0
LINE
  5
197
330
1F
100
AcDbEntity
  8
0
  6
Continuous
 62
     7
370
    25
100
AcDbLine
 10
16.77220471
 20
11.7649591005
 30
0.0
 11
17.2885074838
 21
11.7649591005
 31
0.0
  0
LINE
  5
198
330
1F
100
AcDbEntity
  8
0
  6
Continuous
 62
     7
370
    25
100
AcDbLine
 10
17.2885074838
 20
11.7649591005
 30
0.0
 11
17.2885074838
 21
11.4819591005
 31
0.0
  0
LINE
  5
199
330
1F
100
AcDbEntity
  8
0
  6
Continuous
 62
     7
370
    25
100
AcDbLine
 10
17.2885074838
 20
11.4819591005
 30
0.0
 11
17.2885074838
 21
11.2319591005
 31
0.0
  0
LINE
  5
19A
330
1F
100
AcDbEntity
  8
0
  6
Continuous
 62
     7
370
    25
100
AcDbLine
 10
17.2885074838
 20
11.2319591005
 30
0.0
 11
16.89720471
 21
11.2319591005
 31
0.0
  0
LINE
  5
19B
330
1F
100
AcDbEntity
  8
0
  6
Continuous
 62
     7
370
    25
100
AcDbLine
 10
16.47920471
 20
11.4819591005
 30
0.0
 11
16.54920471
 21
11.4819591005
 31
0.0
  0
LINE
  5
19C
330
1F
100
AcDbEntity
  8
0
  6
Continuous
 62
     7
370
    25
100
AcDbLine
 10
16.54920471
 20
11.4819591005
 30
0.0
 11
16.54920471
 21
11.2319591005
 31
0.0
  0
LINE
  5
19D
330
1F
100
AcDbEntity
  8
0
  6
Continuous
 62
     7
370
    25
100
AcDbLine
 10
16.54920471
 20
11.2319591005
 30
0.0
 11
16.47920471
 21
11.2319591005
 31
0.0
  0
LINE
  5
19E
330
1F
100
AcDbEntity
  8
0
  6
Continuous
 62
     7
370
    25
100
AcDbLine
 10
16.47920471
 20
11.2319591005
 30
0.0
 11
16.47920471
 21
11.4819591005
 31
0.0
  0
LINE
  5
19F
330
1F
100
AcDbEntity
  8
0
  6
Continuous
 62
     7
370
    25
100
AcDbLine
 10
16.44520471
 20
11.4819591005
 30
0.0
 11
16.3618713767
 21
11.2319591005
 31
0.0
  0
LINE
  5
1A0
330
1F
100
AcDbEntity
  8
0
  6
Continuous
 62
     7
370
    25
100
AcDbLine
 10
16.3618713767
 20
11.2319591005
 30
0.0
 11
16.2785380434
 21
11.2319591005
 31
0.0
  0
LINE
  5
1A1
330
1F
100
AcDbEntity
  8
0
  6
Continuous
 62
     7
370
    25
100
AcDbLine
 10
16.2785380434
 20
11.2319591005
 30
0.0
 11
16.19520471
 21
11.4819591005
 31
0.0
  0
LINE
  5
1A2
330
1F
100
AcDbEntity
  8
0
  6
Continuous
 62
     7
370
    25
100
AcDbLine
 10
16.19520471
 20
11.4819591005
 30
0.0
 11
16.27020471
 21
11.4819591005
 31
0.0
  0
LINE
  5
1A3
330
1F
100
AcDbEntity
  8
0
  6
Continuous
 62
     7
370
    25
100
AcDbLine
 10
16.27020471
 20
11.4819591005
 30
0.0
 11
16.32020471
 21
11.3319591005
 31
0.0
  0
LINE
  5
1A4
330
1F
100
AcDbEntity
  8
0
  6
Continuous
 62
     7
370
    25
100
AcDbLine
 10
16.32020471
 20
11.3319591005
 30
0.0
 11
16.37020471
 21
11.4819591005
 31
0.0
  0
LINE
  5
1A5
330
1F
100
AcDbEntity
  8
0
  6
Continuous
 62
     7
370
    25
100
AcDbLine
 10
16.37020471
 20
11.4819591005
 30
0.0
 11
16.44520471
 21
11.4819591005
 31
0.0
  0
LINE
  5
1A6
330
1F
100
AcDbEntity
  8
0
  6
Continuous
 62
     7
370
    25
100
AcDbLine
 10
6.0035074838
 20
14.6969346144
 30
0.0
 11
3.3885074838
 21
14.6969346144
 31
0.0
  0
LINE
  5
1A7
330
1F
100
AcDbEntity
  8
0
  6
Continuous
 62
     7
370
    25
100
AcDbLine
 10
6.0035074838
 20
14.6334364255
 30
0.0
 11
6.0035074838
 21
14.6969346144
 31
0.0
  0
LINE
  5
1A8
330
1F
100
AcDbEntity
  8
0
  6
Continuous
 62
     7
370
    25
100
AcDbLine
 10
6.0035074838
 20
14.6334364255
 30
0.0
 11
3.3885074838
 21
14.6334364255
 31
0.0
  0
LINE
  5
1A9
330
1F
100
AcDbEntity
  8
0
  6
Continuous
 62
     7
370
    25
100
AcDbLine
 10
3.3885074838
 20
14.6334364255
 30
0.0
 11
3.3885074838
 21
14.6969346144
 31
0.0
  0
CIRCLE
  5
1AA
330
1F
100
AcDbEntity
  8
0
  6
Continuous
 62
     7
370
    25
100
AcDbCircle
 10
17.3560074838
 20
11.2794591005
 30
0.0
 40
0.0475000000000012
  0
LINE
  5
1AB
330
1F
100
AcDbEntity
  8
0
  6
Continuous
 62
     7
370
    25
100
AcDbLine
 10
16.16120471
 20
11.4819591005
 30
0.0
 11
16.16120471
 21
11.4169591005
 31
0.0
  0
LINE
  5
1AC
330
1F
100
AcDbEntity
  8
0
  6
Continuous
 62
     7
370
    25
100
AcDbLine
 10
15.9895074838
 20
11.4819591005
 30
0.0
 11
16.16120471
 21
11.4819591005
 31
0.0
  0
LINE
  5
1AD
330
1F
100
AcDbEntity
  8
0
  6
Continuous
 62
     7
370
    25
100
AcDbLine
 10
15.9895074838
 20
11.2319591005
 30
0.0
 11
15.9895074838
 21
11.4819591005
 31
0.0
  0
LINE
  5
1AE
330
1F
100
AcDbEntity
  8
0
  6
Continuous
 62
     7
370
    25
100
AcDbLine
 10
16.16120471
 20
11.2319591005
 30
0.0
 11
15.9895074838
 21
11.2319591005
 31
0.0
  0
LINE
  5
1AF
330
1F
100
AcDbEntity
  8
0
  6
Continuous
 62
     7
370
    25
100
AcDbLine
 10
16.16120471
 20
11.2969591005
 30
0.0
 11
16.16120471
 21
11.2319591005
 31
0.0
  0
LINE
  5
1B0
330
1F
100
AcDbEntity
  8
0
  6
Continuous
 62
     7
370
    25
100
AcDbLine
 10
16.0595074838
 20
11.2969591005
 30
0.0
 11
16.16120471
 21
11.2969591005
 31
0.0
  0
LINE
  5
1B1
330
1F
100
AcDbEntity
  8
0
  6
Continuous
 62
     7
370
    25
100
AcDbLine
 10
16.0595074838
 20
11.3319591005
 30
0.0
 11
16.0595074838
 21
11.2969591005
 31
0.0
  0
LINE
  5
1B2
330
1F
100
AcDbEntity
  8
0
  6
Continuous
 62
     7
370
    25
100
AcDbLine
 10
16.1415074838
 20
11.3319591005
 30
0.0
 11
16.0595074838
 21
11.3319591005
 31
0.0
  0
LINE
  5
1B3
330
1F
100
AcDbEntity
  8
0
  6
Continuous
 62
     7
370
    25
100
AcDbLine
 10
16.1415074838
 20
11.3819591005
 30
0.0
 11
16.1415074838
 21
11.3319591005
 31
0.0
  0
LINE
  5
1B4
330
1F
100
AcDbEntity
  8
0
  6
Continuous
 62
     7
370
    25
100
AcDbLine
 10
16.0595074838
 20
11.3819591005
 30
0.0
 11
16.1415074838
 21
11.3819591005
 31
0.0
  0
LINE
  5
1B5
330
1F
100
AcDbEntity
  8
0
  6
Continuous
 62
     7
370
    25
100
AcDbLine
 10
16.0595074838
 20
11.4169591005
 30
0.0
 11
16.0595074838
 21
11.3819591005
 31
0.0
  0
LINE
  5
1B6
330
1F
100
AcDbEntity
  8
0
  6
Continuous
 62
     7
370
    25
100
AcDbLine
 10
16.16120471
 20
11.4169591005
 30
0.0
 11
16.0595074838
 21
11.4169591005
 31
0.0
  0
LINE
  5
1B7
330
1F
100
AcDbEntity
  8
0
  6
Continuous
 62
     7
370
    25
100
AcDbLine
 10
15.6735074838
 20
14.6334364255
 30
0.0
 11
15.6135074838
 21
14.6334364255
 31
0.0
  0
LINE
  5
1B8
330
1F
100
AcDbEntity
  8
0
  6
Continuous
 62
     7
370
    25
100
AcDbLine
 10
18.2885074838
 20
10.7919591005
 30
0.0
 11
18.2885074838
 21
14.6334364255
 31
0.0
  0
ARC
  5
1B9
330
1F
100
AcDbEntity
  8
0
  6
Continuous
 62
     7
370
    25
100
AcDbCircle
 10
6.1235074838
 20
15.1719591005
 30
0.0
 40
0.0600000000000005
100
AcDbArc
 50
90.0
 51
180.0
  0
LINE
  5
1BA
330
1F
100
AcDbEntity
  8
0
  6
Continuous
 62
     7
370
    25
100
AcDbLine
 10
6.0635074838
 20
15.1719591005
 30
0.0
 11
6.0635074838
 21
14.6334364255
 31
0.0
  0
LINE
  5
1BB
330
1F
100
AcDbEntity
  8
0
  6
Continuous
 62
     7
370
    25
100
AcDbLine
 10
6.0635074838
 20
14.6334364255
 30
0.0
 11
6.0035074838
 21
14.6334364255
 31
0.0
  0
LINE
  5
1BC
330
1F
100
AcDbEntity
  8
0
  6
Continuous
 62
     7
370
    25
100
AcDbLine
 10
15.6135074838
 20
14.6334364255
 30
0.0
 11
15.6135074838
 21
15.1719591005
 31
0.0
  0
LINE
  5
1BD
330
1F
100
AcDbEntity
  8
0
  6
Continuous
 62
     7
370
    25
100
AcDbLine
 10
15.5535074838
 20
15.2319591005
 30
0.0
 11
6.1235074838
 21
15.2319591005
 31
0.0
  0
LINE
  5
1BE
330
1F
100
AcDbEntity
  8
0
  6
Continuous
 62
     7
370
    25
100
AcDbLine
 10
3.3885074838
 20
14.6334364255
 30
0.0
 11
3.3885074838
 21
10.7919591005
 31
0.0
  0
ARC
  5
1BF
330
1F
100
AcDbEntity
  8
0
  6
Continuous
 62
     7
370
    25
100
AcDbCircle
 10
18.2285074838
 20
10.7919591005
 30
0.0
 40
0.0599999999999987
100
AcDbArc
 50
270.0
 51
0.0
  0
ARC
  5
1C0
330
1F
100
AcDbEntity
  8
0
  6
Continuous
 62
     7
370
    25
100
AcDbCircle
 10
3.4485074838
 20
10.7919591005
 30
0.0
 40
0.0600000000000005
100
AcDbArc
 50
180.0
 51
270.0
  0
LINE
  5
1C1
330
1F
100
AcDbEntity
  8
0
  6
Continuous
 62
     7
370
    25
100
AcDbLine
 10
3.4485074838
 20
10.7319591005
 30
0.0
 11
18.2285074838
 21
10.7319591005
 31
0.0
  0
ARC
  5
1C2
330
1F
100
AcDbEntity
  8
0
  6
Continuous
 62
     7
370
    25
100
AcDbCircle
 10
15.5535074838
 20
15.1719591005
 30
0.0
 40
0.0600000000000005
100
AcDbArc
 50
0.0
 51
90.0
  0
LINE
  5
1C3
330
1F
100
AcDbEntity
  8
0
  6
Continuous
 62
     7
370
    25
100
AcDbLine
 10
3.3885074838
 20
14.7868460068
 30
0.0
 11
3.3885074838
 21
14.6969346144
 31
0.0
  0
LINE
  5
1C4
330
1F
100
AcDbEntity
  8
0
  6
Continuous
 62
     7
370
    25
100
AcDbLine
 10
6.0035074838
 20
14.7868460068
 30
0.0
 11
3.3885074838
 21
14.7868460068
 31
0.0
  0
LINE
  5
1C5
330
1F
100
AcDbEntity
  8
0
  6
Continuous
 62
     7
370
    25
100
AcDbLine
 10
6.0035074838
 20
14.7868460068
 30
0.0
 11
6.0035074838
 21
14.6969346144
 31
0.0
  0
LINE
  5
1C6
330
1F
100
AcDbEntity
  8
0
  6
Continuous
 62
     7
370
    25
100
AcDbLine
 10
18.2885074838
 20
14.7868460068
 30
0.0
 11
15.6735074838
 21
14.7868460068
 31
0.0
  0
LINE
  5
1C7
330
1F
100
AcDbEntity
  8
0
  6
Continuous
 62
     7
370
    25
100
AcDbLine
 10
18.2885074838
 20
14.6969346144
 30
0.0
 11
18.2885074838
 21
14.7868460068
 31
0.0
  0
LINE
  5
1C8
330
1F
100
AcDbEntity
  8
0
  6
Continuous
 62
     7
370
    25
100
AcDbLine
 10
15.6735074838
 20
14.6969346144
 30
0.0
 11
15.6735074838
 21
14.7868460068
 31
0.0
  0
LINE
  5
1C9
330
1F
100
AcDbEntity
  8
0
  6
Continuous
 62
     7
370
    25
100
AcDbLine
 10
18.2885074838
 20
14.8080592103
 30
0.0
 11
18.2885074838
 21
14.7868460068
 31
0.0
  0
LINE
  5
1CA
330
1F
100
AcDbEntity
  8
0
  6
Continuous
 62
     7
370
    25
100
AcDbLine
 10
18.2885074838
 20
14.8080592103
 30
0.0
 11
15.6735074838
 21
14.8080592103
 31
0.0
  0
LINE
  5
1CB
330
1F
100
AcDbEntity
  8
0
  6
Continuous
 62
     7
370
    25
100
AcDbLine
 10
15.6735074838
 20
14.8080592103
 30
0.0
 11
15.6735074838
 21
14.7868460068
 31
0.0
  0
LINE
  5
1CC
330
1F
100
AcDbEntity
  8
0
  6
Continuous
 62
     7
370
    25
100
AcDbLine
 10
6.0035074838
 20
14.8080592103
 30
0.0
 11
3.3885074838
 21
14.8080592103
 31
0.0
  0
LINE
  5
1CD
330
1F
100
AcDbEntity
  8
0
  6
Continuous
 62
     7
370
    25
100
AcDbLine
 10
3.3885074838
 20
14.7868460068
 30
0.0
 11
3.3885074838
 21
14.8080592103
 31
0.0
  0
LINE
  5
1CE
330
1F
100
AcDbEntity
  8
0
  6
Continuous
 62
     7
370
    25
100
AcDbLine
 10
6.0035074838
 20
14.7868460068
 30
0.0
 11
6.0035074838
 21
14.8080592103
 31
0.0
  0
LINE
  5
1CF
330
1F
100
AcDbEntity
  8
0
  6
Continuous
 62
     7
370
    25
100
AcDbLine
 10
3.3885074838
 20
15.0469591005
 30
0.0
 11
3.3885074838
 21
14.8080592103
 31
0.0
  0
ARC
  5
1D0
330
1F
100
AcDbEntity
  8
0
  6
Continuous
 62
     7
370
    25
100
AcDbCircle
 10
3.4485074838
 20
15.0469591005
 30
0.0
 40
0.0600000000000012
100
AcDbArc
 50
120.0
 51
180.0
  0
LINE
  5
1D1
330
1F
100
AcDbEntity
  8
0
  6
Continuous
 62
     7
370
    25
100
AcDbLine
 10
6.0035074838
 20
14.8869591005
 30
0.0
 11
6.0035074838
 21
14.8080592103
 31
0.0
  0
ARC
  5
1D2
330
1F
100
AcDbEntity
  8
0
  6
Continuous
 62
     7
370
    25
100
AcDbCircle
 10
18.2285074838
 20
15.0469591005
 30
0.0
 40
0.0600000000000004
100
AcDbArc
 50
0.0
 51
60.0
  0
LINE
  5
1D3
330
1F
100
AcDbEntity
  8
0
  6
Continuous
 62
     7
370
    25
100
AcDbLine
 10
18.2885074838
 20
14.8080592103
 30
0.0
 11
18.2885074838
 21
15.0469591005
 31
0.0
  0
LINE
  5
1D4
330
1F
100
AcDbEntity
  8
0
  6
Continuous
 62
     7
370
    25
100
AcDbLine
 10
15.6735074838
 20
14.8080592103
 30
0.0
 11
15.6735074838
 21
14.8869591005
 31
0.0
  0
LINE
  5
1D5
330
1F
100
AcDbEntity
  8
0
  6
Continuous
 62
     7
370
    25
100
AcDbLine
 10
15.6735074838
 20
15.1121591005
 30
0.0
 11
18.2585074838
 21
15.1121591005
 31
0.0
  0
LINE
  5
1D6
330
1F
100
AcDbEntity
  8
0
  6
Continuous
 62
     7
370
    25
100
AcDbLine
 10
18.2585074838
 20
14.8869591005
 30
0.0
 11
18.2585074838
 21
15.1121591005
 31
0.0
  0
ARC
  5
1D7
330
1F
100
AcDbEntity
  8
0
  6
Continuous
 62
     7
370
    25
100
AcDbCircle
 10
15.7335074838
 20
14.8869591005
 30
0.0
 40
0.0600000000000005
100
AcDbArc
 50
180.0
 51
270.0
  0
LINE
  5
1D8
330
1F
100
AcDbEntity
  8
0
  6
Continuous
 62
     7
370
    25
100
AcDbLine
 10
15.6735074838
 20
15.1121591005
 30
0.0
 11
15.6735074838
 21
14.8869591005
 31
0.0
  0
LINE
  5
1D9
330
1F
100
AcDbEntity
  8
0
  6
Continuous
 62
     7
370
    25
100
AcDbLine
 10
15.7335074838
 20
14.8269591005
 30
0.0
 11
18.1985074838
 21
14.8269591005
 31
0.0
  0
ARC
  5
1DA
330
1F
100
AcDbEntity
  8
0
  6
Continuous
 62
     7
370
    25
100
AcDbCircle
 10
18.1985074838
 20
14.8869591005
 30
0.0
 40
0.0600000000000023
100
AcDbArc
 50
270.0
 51
0.0
  0
LINE
  5
1DB
330
1F
100
AcDbEntity
  8
0
  6
Continuous
 62
     7
370
    25
100
AcDbLine
 10
3.4185074838
 20
15.1121591005
 30
0.0
 11
6.0035074838
 21
15.1121591005
 31
0.0
  0
LINE
  5
1DC
330
1F
100
AcDbEntity
  8
0
  6
Continuous
 62
     7
370
    25
100
AcDbLine
 10
6.0035074838
 20
14.8869591005
 30
0.0
 11
6.0035074838
 21
15.1121591005
 31
0.0
  0
ARC
  5
1DD
330
1F
100
AcDbEntity
  8
0
  6
Continuous
 62
     7
370
    25
100
AcDbCircle
 10
5.9435074838
 20
14.8869591005
 30
0.0
 40
0.0600000000000005
100
AcDbArc
 50
270.0
 51
0.0
  0
LINE
  5
1DE
330
1F
100
AcDbEntity
  8
0
  6
Continuous
 62
     7
370
    25
100
AcDbLine
 10
3.4785074838
 20
14.8269591005
 30
0.0
 11
5.9435074838
 21
14.8269591005
 31
0.0
  0
ARC
  5
1DF
330
1F
100
AcDbEntity
  8
0
  6
Continuous
 62
     7
370
    25
100
AcDbCircle
 10
3.4785074838
 20
14.8869591005
 30
0.0
 40
0.0600000000000001
100
AcDbArc
 50
180.0
 51
270.0
  0
LINE
  5
1E0
330
1F
100
AcDbEntity
  8
0
  6
Continuous
 62
     7
370
    25
100
AcDbLine
 10
3.4185074838
 20
15.1121591005
 30
0.0
 11
3.4185074838
 21
14.8869591005
 31
0.0
  0
LINE
  5
1E1
330
1F
100
AcDbEntity
  8
0
  6
Continuous
 62
     7
370
    25
100
AcDbLine
 10
18.2585074838
 20
15.2019591005
 30
0.0
 11
18.2585074838
 21
15.1121591005
 31
0.0
  0
LINE
  5
1E2
330
1F
100
AcDbEntity
  8
0
  6
Continuous
 62
     7
370
    25
100
AcDbLine
 10
15.6735074838
 20
15.1121591005
 30
0.0
 11
15.6735074838
 21
15.2019591005
 31
0.0
  0
LINE
  5
1E3
330
1F
100
AcDbEntity
  8
0
  6
Continuous
 62
     7
370
    25
100
AcDbLine
 10
15.6735074838
 20
15.2019591005
 30
0.0
 11
18.2585074838
 21
15.2019591005
 31
0.0
  0
LINE
  5
1E4
330
1F
100
AcDbEntity
  8
0
  6
Continuous
 62
     7
370
    25
100
AcDbLine
 10
3.4185074838
 20
15.2019591005
 30
0.0
 11
6.0035074838
 21
15.2019591005
 31
0.0
  0
LINE
  5
1E5
330
1F
100
AcDbEntity
  8
0
  6
Continuous
 62
     7
370
    25
100
AcDbLine
 10
3.4185074838
 20
15.1121591005
 30
0.0
 11
3.4185074838
 21
15.2019591005
 31
0.0
  0
LINE
  5
1E6
330
1F
100
AcDbEntity
  8
0
  6
Continuous
 62
     7
370
    25
100
AcDbLine
 10
6.0035074838
 20
15.2019591005
 30
0.0
 11
6.0035074838
 21
15.1121591005
 31
0.0
  0
HATCH
  5
1E7
330
1F
100
AcDbEntity
  8
FORMAT
 62
     7
100
AcDbHatch
 10
0.0
 20
0.0
 30
0.0
210
0.0
220
0.0
230
1.0
  2
SOLID
 70
     1
 71
     0
 91
        1
 92
        0
 93
        6
 72
     1
 10
15.85850748384535
 20
11.48195910047518
 11
15.78850748384535
 21
11.48195910047518
 72
     1
 10
15.78850748384535
 20
11.48195910047518
 11
15.78850748384535
 21
11.23195910047518
 72
     1
 10
15.78850748384535
 20
11.23195910047518
 11
15.95550748384535
 21
11.23195910047518
 72
     1
 10
15.95550748384535
 20
11.23195910047518
 11
15.95550748384535
 21
11.29695910047518
 72
     1
 10
15.95550748384535
 20
11.29695910047518
 11
15.85850748384535
 21
11.29695910047518
 72
     1
 10
15.85850748384535
 20
11.29695910047518
 11
15.85850748384535
 21
11.48195910047518
 97
        0
 75
     0
 76
     1
 98
        1
 10
0.0
 20
0.0
  0
HATCH
  5
1E8
330
1F
100
AcDbEntity
  8
FORMAT
 62
     7
100
AcDbHatch
 10
0.0
 20
0.0
 30
0.0
210
0.0
220
0.0
230
1.0
  2
SOLID
 70
     1
 71
     0
 91
        1
 92
        0
 93
       12
 72
     1
 10
16.14150748384535
 20
11.33195910047518
 11
16.14150748384535
 21
11.38195910047518
 72
     1
 10
16.14150748384535
 20
11.38195910047518
 11
16.05950748384535
 21
11.38195910047518
 72
     1
 10
16.05950748384535
 20
11.38195910047518
 11
16.05950748384535
 21
11.41695910047518
 72
     1
 10
16.05950748384535
 20
11.41695910047518
 11
16.16120471002907
 21
11.41695910047518
 72
     1
 10
16.16120471002907
 20
11.41695910047518
 11
16.16120471002907
 21
11.48195910047518
 72
     1
 10
16.16120471002907
 20
11.48195910047518
 11
15.98950748384535
 21
11.48195910047518
 72
     1
 10
15.98950748384535
 20
11.48195910047518
 11
15.98950748384535
 21
11.23195910047518
 72
     1
 10
15.98950748384535
 20
11.23195910047518
 11
16.16120471002907
 21
11.23195910047518
 72
     1
 10
16.16120471002907
 20
11.23195910047518
 11
16.16120471002907
 21
11.29695910047518
 72
     1
 10
16.16120471002907
 20
11.29695910047518
 11
16.05950748384535
 21
11.29695910047518
 72
     1
 10
16.05950748384535
 20
11.29695910047518
 11
16.05950748384535
 21
11.33195910047518
 72
     1
 10
16.05950748384535
 20
11.33195910047518
 11
16.14150748384535
 21
11.33195910047518
 97
        0
 75
     0
 76
     1
 98
        1
 10
0.0
 20
0.0
  0
HATCH
  5
1E9
330
1F
100
AcDbEntity
  8
FORMAT
 62
     7
100
AcDbHatch
 10
0.0
 20
0.0
 30
0.0
210
0.0
220
0.0
230
1.0
  2
SOLID
 70
     1
 71
     0
 91
        1
 92
        0
 93
        7
 72
     1
 10
16.27853804336241
 20
11.23195910047518
 11
16.36187137669574
 21
11.23195910047518
 72
     1
 10
16.36187137669574
 20
11.23195910047518
 11
16.44520471002907
 21
11.48195910047518
 72
     1
 10
16.44520471002907
 20
11.48195910047518
 11
16.37020471002907
 21
11.48195910047518
 72
     1
 10
16.37020471002907
 20
11.48195910047518
 11
16.32020471002907
 21
11.33195910047518
 72
     1
 10
16.32020471002907
 20
11.33195910047518
 11
16.27020471002908
 21
11.48195910047518
 72
     1
 10
16.27020471002908
 20
11.48195910047518
 11
16.19520471002907
 21
11.48195910047518
 72
     1
 10
16.19520471002907
 20
11.48195910047518
 11
16.27853804336241
 21
11.23195910047518
 97
        0
 75
     0
 76
     1
 98
        1
 10
0.0
 20
0.0
  0
HATCH
  5
1EA
330
1F
100
AcDbEntity
  8
FORMAT
 62
     7
100
AcDbHatch
 10
0.0
 20
0.0
 30
0.0
210
0.0
220
0.0
230
1.0
  2
SOLID
 70
     1
 71
     0
 91
        1
 92
        0
 93
        4
 72
     1
 10
16.54920471002907
 20
11.23195910047518
 11
16.54920471002907
 21
11.48195910047518
 72
     1
 10
16.54920471002907
 20
11.48195910047518
 11
16.47920471002907
 21
11.48195910047518
 72
     1
 10
16.47920471002907
 20
11.48195910047518
 11
16.47920471002907
 21
11.23195910047518
 72
     1
 10
16.47920471002907
 20
11.23195910047518
 11
16.54920471002907
 21
11.23195910047518
 97
        0
 75
     0
 76
     1
 98
        1
 10
0.0
 20
0.0
  0
HATCH
  5
1EB
330
1F
100
AcDbEntity
  8
FORMAT
 62
     7
100
AcDbHatch
 10
0.0
 20
0.0
 30
0.0
210
0.0
220
0.0
230
1.0
  2
SOLID
 70
     1
 71
     0
 91
        4
 92
        0
 93
       14
 72
     1
 10
16.77220471002907
 20
11.41695910047518
 11
16.77220471002907
 21
11.35695910047518
 72
     2
 10
16.89720471002907
 20
11.35695910047518
 40
0.1249999999999993
 50
180.0
 51
270.0000000000008
 73
     1
 72
     1
 10
16.89720471002907
 20
11.23195910047518
 11
17.28850748384535
 21
11.23195910047518
 72
     1
 10
17.28850748384535
 20
11.23195910047518
 11
17.28850748384535
 21
11.48195910047518
 72
     1
 10
17.28850748384535
 20
11.48195910047518
 11
17.28850748384535
 21
11.76495910047518
 72
     1
 10
17.28850748384535
 20
11.76495910047518
 11
16.77220471002907
 21
11.76495910047518
 72
     1
 10
16.77220471002907
 20
11.76495910047518
 11
16.77220471002907
 21
11.48195910047518
 72
     1
 10
16.77220471002907
 20
11.48195910047518
 11
16.58220471002907
 21
11.48195910047518
 72
     1
 10
16.58220471002907
 20
11.48195910047518
 11
16.58220471002907
 21
11.41695910047518
 72
     1
 10
16.58220471002907
 20
11.41695910047518
 11
16.64220471002907
 21
11.41695910047518
 72
     1
 10
16.64220471002907
 20
11.41695910047518
 11
16.64220471002907
 21
11.23195910047518
 72
     1
 10
16.64220471002907
 20
11.23195910047518
 11
16.71220471002907
 21
11.23195910047518
 72
     1
 10
16.71220471002907
 20
11.23195910047518
 11
16.71220471002907
 21
11.41695910047518
 72
     1
 10
16.71220471002907
 20
11.41695910047518
 11
16.77220471002907
 21
11.41695910047518
 97
        0
 92
        0
 93
        1
 72
     2
 10
16.89720471002907
 20
11.35695910047518
 40
0.0599999999999999
 50
0.0
 51
360.0
 73
     1
 97
        0
 92
        0
 93
       10
 72
     1
 10
17.05720471002907
 20
11.24195910047518
 11
16.94619450488474
 21
11.24195910047518
 72
     2
 10
16.89720471002907
 20
11.35695910047518
 40
0.1249999999999997
 50
293.0739180656321
 51
516.9260819343691
 73
     1
 72
     1
 10
16.78220471002907
 20
11.40594889533084
 11
16.78220471002907
 21
11.75495910047518
 72
     1
 10
16.78220471002907
 20
11.75495910047518
 11
17.27850748384535
 21
11.75495910047518
 72
     1
 10
17.27850748384535
 20
11.75495910047518
 11
17.27850748384535
 21
11.48195910047518
 72
     1
 10
17.27850748384535
 20
11.48195910047518
 11
17.21850748384535
 21
11.48195910047518
 72
     1
 10
17.21850748384535
 20
11.48195910047518
 11
17.21850748384535
 21
11.35695910047518
 72
     1
 10
17.21850748384535
 20
11.35695910047518
 11
17.11383055578418
 21
11.48195910047518
 72
     1
 10
17.11383055578418
 20
11.48195910047518
 11
17.05720471002907
 21
11.48195910047518
 72
     1
 10
17.05720471002907
 20
11.48195910047518
 11
17.05720471002907
 21
11.24195910047518
 97
        0
 92
        0
 93
        3
 72
     1
 10
17.12720471002907
 20
11.24195910047518
 11
17.12720471002907
 21
11.35695910047518
 72
     1
 10
17.12720471002907
 20
11.35695910047518
 11
17.22350748384535
 21
11.24195910047518
 72
     1
 10
17.22350748384535
 20
11.24195910047518
 11
17.12720471002907
 21
11.24195910047518
 97
        0
 75
     0
 76
     1
 98
        1
 10
0.0
 20
0.0
  0
HATCH
  5
1EC
330
1F
100
AcDbEntity
  8
FORMAT
 62
     7
100
AcDbHatch
 10
0.0
 20
0.0
 30
0.0
210
0.0
220
0.0
230
1.0
  2
SOLID
 70
     1
 71
     0
 91
        2
 92
        0
 93
        1
 72
     2
 10
17.35600748384535
 20
11.27945910047518
 40
0.0474999999999993
 50
0.0
 51
360.0
 73
     1
 97
        0
 92
        0
 93
        1
 72
     2
 10
17.35600748384535
 20
11.27945910047518
 40
0.0394999999999985
 50
0.0
 51
360.0
 73
     1
 97
        0
 75
     0
 76
     1
 98
        1
 10
0.0
 20
0.0
  0
HATCH
  5
1ED
330
1F
100
AcDbEntity
  8
FORMAT
 62
     7
100
AcDbHatch
 10
0.0
 20
0.0
 30
0.0
210
0.0
220
0.0
230
1.0
  2
SOLID
 70
     1
 71
     0
 91
        2
 92
        0
 93
        9
 72
     1
 10
17.37800748384535
 20
11.25445910047518
 11
17.36533862648218
 21
11.2746413484862
 72
     2
 10
17.36300748384535
 20
11.28945910047518
 40
0.0150000000000002
 50
278.9405472038993
 51
450.0000000000008
 73
     1
 72
     1
 10
17.36300748384535
 20
11.30445910047518
 11
17.33300748384535
 21
11.30445910047518
 72
     1
 10
17.33300748384535
 20
11.30445910047518
 11
17.33300748384535
 21
11.25445910047518
 72
     1
 10
17.33300748384535
 20
11.25445910047518
 11
17.34100748384535
 21
11.25445910047518
 72
     1
 10
17.34100748384535
 20
11.25445910047518
 11
17.34100748384535
 21
11.27445910047518
 72
     1
 10
17.34100748384535
 20
11.27445910047518
 11
17.35600748384535
 21
11.27445910047518
 72
     1
 10
17.35600748384535
 20
11.27445910047518
 11
17.36856193997556
 21
11.25445910047518
 72
     1
 10
17.36856193997556
 20
11.25445910047518
 11
17.37800748384535
 21
11.25445910047518
 97
        0
 92
        0
 93
        4
 72
     2
 10
17.36300748384535
 20
11.28945910047518
 40
0.0070000000000002
 50
270.0000000000008
 51
450.0000000000008
 73
     0
 72
     1
 10
17.36300748384535
 20
11.28245910047518
 11
17.34100748384535
 21
11.28245910047518
 72
     1
 10
17.34100748384535
 20
11.28245910047518
 11
17.34100748384535
 21
11.29645910047518
 72
     1
 10
17.34100748384535
 20
11.29645910047518
 11
17.36300748384535
 21
11.29645910047518
 97
        0
 75
     0
 76
     1
 98
        1
 10
0.0
 20
0.0
  0
DIMENSION
  5
1EE
330
1F
100
AcDbEntity
  8
FORMAT
 62
     7
100
AcDbDimension
  2
_D_1
 10
18.7885074838
 20
10.7319591005
 30
0.0
 11
18.7885074838
 21
12.8556138691
 31
0.0
 70
   160
  1
<>
 71
     2
 42
-1.0
  3
SLDDIMSTYLE0
100
AcDbAlignedDimension
 13
15.5535074838
 23
15.2319591005
 33
0.0
 14
18.2285074838
 24
10.7319591005
 34
0.0
 50
90.0
100
AcDbRotatedDimension
  0
SPLINE
  5
1F9
330
1F
100
AcDbEntity
  8
0
  6
Continuous
 62
     7
370
    25
100
AcDbSpline
210
0.0
220
0.0
230
1.0
 70
     8
 71
     3
 72
     9
 73
     5
 74
     0
 42
0.00000001
 43
0.00000001
 40
0.0
 40
0.0
 40
0.0
 40
0.0
 40
0.8497912682297243
 40
1.0
 40
1.0
 40
1.0
 40
1.0
 10
20.4314120095519
 20
18.61271972309955
 30
0.0
 10
20.4324112737272
 20
18.61540910663284
 30
0.0
 10
20.43358716739975
 20
18.61857386441964
 30
0.0
 10
20.43327308857586
 20
18.62246173909736
 30
0.0
 10
20.43322591119405
 20
18.62304573182198
 30
0.0
  0
LINE
  5
1FA
330
1F
100
AcDbEntity
  8
0
  6
Continuous
 62
     7
370
    25
100
AcDbLine
 10
20.5222398558
 20
19.7789183477
 30
0.0
 11
20.5222398558
 21
19.7650003945
 31
0.0
  0
LINE
  5
1FB
330
1F
100
AcDbEntity
  8
0
  6
Continuous
 62
     7
370
    25
100
AcDbLine
 10
20.7602398558
 20
19.7650003945
 30
0.0
 11
20.7602398558
 21
19.7789183477
 31
0.0
  0
LINE
  5
1FC
330
1F
100
AcDbEntity
  8
0
  6
Continuous
 62
     7
370
    25
100
AcDbLine
 10
30.5914404199
 20
13.9660925915
 30
0.0
 11
30.5914404199
 21
13.9521746383
 31
0.0
  0
LINE
  5
1FD
330
1F
100
AcDbEntity
  8
0
  6
Continuous
 62
     7
370
    25
100
AcDbLine
 10
30.8294404199
 20
13.9521746383
 30
0.0
 11
30.8294404199
 21
13.9660925915
 31
0.0
  0
LINE
  5
1FE
330
1F
100
AcDbEntity
  8
0
  6
Continuous
 62
     7
370
    25
100
AcDbLine
 10
33.3054182304
 20
15.058305008
 30
0.0
 11
33.3054182304
 21
15.1071341485
 31
0.0
  0
LINE
  5
1FF
330
1F
100
AcDbEntity
  8
0
  6
Continuous
 62
     7
370
    25
100
AcDbLine
 10
31.5022959384
 20
16.303343966
 30
0.0
 11
31.5022959384
 21
16.3521731066
 31
0.0
  0
LINE
  5
200
330
1F
100
AcDbEntity
  8
0
  6
Continuous
 62
     7
370
    25
100
AcDbLine
 10
19.7256406505
 20
19.5055494385
 30
0.0
 11
19.7256406505
 21
19.4567202979
 31
0.0
  0
LINE
  5
201
330
1F
100
AcDbEntity
  8
0
  6
Continuous
 62
     7
370
    25
100
AcDbLine
 10
29.9926897212
 20
12.7028212069
 30
0.0
 11
29.9927604319
 21
12.7028620273
 31
0.0
  0
LINE
  5
202
330
1F
100
AcDbEntity
  8
0
  6
Continuous
 62
     7
370
    25
100
AcDbLine
 10
29.8867690462
 20
12.8864643861
 30
0.0
 11
29.8866983355
 21
12.8864235657
 31
0.0
  0
LINE
  5
203
330
1F
100
AcDbEntity
  8
0
  6
Continuous
 62
     7
370
    25
100
AcDbLine
 10
20.0931947846
 20
18.4176779897
 30
0.0
 11
20.0932654953
 21
18.4177188101
 31
0.0
  0
LINE
  5
204
330
1F
100
AcDbEntity
  8
0
  6
Continuous
 62
     7
370
    25
100
AcDbLine
 10
19.9872741096
 20
18.6013211689
 30
0.0
 11
19.9872033989
 21
18.6012803485
 31
0.0
  0
LINE
  5
205
330
1F
100
AcDbEntity
  8
0
  6
Continuous
 62
     7
370
    25
100
AcDbLine
 10
25.0429422529
 20
15.8052118418
 30
0.0
 11
25.0430129636
 21
15.8052526622
 31
0.0
  0
LINE
  5
206
330
1F
100
AcDbEntity
  8
0
  6
Continuous
 62
     7
370
    25
100
AcDbLine
 10
24.9370215779
 20
15.9888550211
 30
0.0
 11
24.9369508672
 21
15.9888142007
 31
0.0
  0
LINE
  5
207
330
1F
100
AcDbEntity
  8
0
  6
Continuous
 62
     7
370
    25
100
AcDbLine
 10
19.8254556918
 20
18.0722388621
 30
0.0
 11
30.191641104
 21
12.0879674024
 31
0.0
  0
LINE
  5
208
330
1F
100
AcDbEntity
  8
0
  6
Continuous
 62
     7
370
    25
100
AcDbLine
 10
30.2817166489
 20
12.0879674024
 30
0.0
 11
31.7878540928
 21
12.9574420415
 31
0.0
  0
LINE
  5
209
330
1F
100
AcDbEntity
  8
0
  6
Continuous
 62
     7
370
    25
100
AcDbLine
 10
33.3576311471
 20
15.1791872152
 30
0.0
 11
31.5297601177
 21
16.2343946997
 31
0.0
  0
LINE
  5
20A
330
1F
100
AcDbEntity
  8
0
  6
Continuous
 62
     7
370
    25
100
AcDbLine
 10
33.3215191545
 20
13.9020439752
 30
0.0
 11
33.36380414
 21
13.9264545777
 31
0.0
  0
LINE
  5
20B
330
1F
100
AcDbEntity
  8
0
  6
Continuous
 62
     7
370
    25
100
AcDbLine
 10
31.3080497264
 20
16.11352908
 30
0.0
 11
31.3080497264
 21
16.0646999395
 31
0.0
  0
LINE
  5
20C
330
1F
100
AcDbEntity
  8
0
  6
Continuous
 62
     7
370
    25
100
AcDbLine
 10
24.6735745292
 20
20.1923863917
 30
0.0
 11
22.8641665143
 21
21.2369354049
 31
0.0
  0
LINE
  5
20D
330
1F
100
AcDbEntity
  8
0
  6
Continuous
 62
     7
370
    25
100
AcDbLine
 10
22.6424561229
 20
21.1160697852
 30
0.0
 11
22.6424561229
 21
21.0672406446
 31
0.0
  0
LWPOLYLINE
  5
20E
330
1F
100
AcDbEntity
  8
0
  6
Continuous
 62
     7
370
    25
100
AcDbPolyline
 90
       19
 70
   128
 43
0.0
 10
20.5600190521
 20
19.7287103074
 10
20.5946635445
 20
19.7157016602
 10
20.6349258276
 20
19.7103178785
 10
20.6759496755
 20
19.7132083259
 10
20.712787007
 20
19.7240243717
 10
20.7409946961
 20
19.7414614411
 10
20.7571704792
 20
19.7634163662
 10
20.7593633182
 20
19.7872410592
 10
20.7473087243
 20
19.8100619102
 10
20.7224606595
 20
19.829126388
 10
20.687816167
 20
19.8421350352
 10
20.647553884
 20
19.8475188169
 10
20.606530036
 20
19.8446283695
 10
20.5696927045
 20
19.8338123237
 10
20.5414850154
 20
19.8163752543
 10
20.5253092323
 20
19.7944203292
 10
20.5231163933
 20
19.7705956362
 10
20.5351709872
 20
19.7477747852
 10
20.5600190521
 20
19.7287103074
  0
LINE
  5
20F
330
1F
100
AcDbEntity
  8
0
  6
Continuous
 62
     7
370
    25
100
AcDbLine
 10
20.5600190521
 20
19.7147923542
 30
0.0
 11
20.5714484942
 21
19.709358226
 31
0.0
  0
ARC
  5
210
330
1F
100
AcDbEntity
  8
0
  6
Continuous
 62
     7
370
    25
100
AcDbCircle
 10
20.6896195829
 20
19.7778747484
 30
0.0
 40
0.0717842039446704
100
AcDbArc
 50
287.3541931706
 51
349.668214613
  0
ARC
  5
211
330
1F
100
AcDbEntity
  8
0
  6
Continuous
 62
     7
370
    25
100
AcDbCircle
 10
20.5805927683
 20
19.7695906681
 30
0.0
 40
0.0585331787191449
100
AcDbArc
 50
184.4978529459
 51
249.4216385444
  0
LINE
  5
212
330
1F
100
AcDbEntity
  8
0
  6
Continuous
 62
     7
370
    25
100
AcDbLine
 10
20.5707785146
 20
19.8038719348
 30
0.0
 11
20.5933019308
 21
19.8177951728
 31
0.0
  0
LINE
  5
213
330
1F
100
AcDbEntity
  8
0
  6
Continuous
 62
     7
370
    25
100
AcDbLine
 10
20.6179189632
 20
19.7784579743
 30
0.0
 11
20.5707785146
 21
19.8038719348
 31
0.0
  0
LINE
  5
214
330
1F
100
AcDbEntity
  8
0
  6
Continuous
 62
     7
370
    25
100
AcDbLine
 10
20.5738959225
 20
19.7512443726
 30
0.0
 11
20.6179189632
 21
19.7784579743
 31
0.0
  0
LINE
  5
215
330
1F
100
AcDbEntity
  8
0
  6
Continuous
 62
     7
370
    25
100
AcDbLine
 10
20.5980142916
 20
19.7382418813
 30
0.0
 11
20.5738959225
 21
19.7512443726
 31
0.0
  0
LINE
  5
216
330
1F
100
AcDbEntity
  8
0
  6
Continuous
 62
     7
370
    25
100
AcDbLine
 10
20.6420373322
 20
19.765455483
 30
0.0
 11
20.5980142916
 21
19.7382418813
 31
0.0
  0
LINE
  5
217
330
1F
100
AcDbEntity
  8
0
  6
Continuous
 62
     7
370
    25
100
AcDbLine
 10
20.6891777808
 20
19.7400415225
 30
0.0
 11
20.6420373322
 21
19.765455483
 31
0.0
  0
LINE
  5
218
330
1F
100
AcDbEntity
  8
0
  6
Continuous
 62
     7
370
    25
100
AcDbLine
 10
20.7117011969
 20
19.7539647606
 30
0.0
 11
20.6891777808
 21
19.7400415225
 31
0.0
  0
LINE
  5
219
330
1F
100
AcDbEntity
  8
0
  6
Continuous
 62
     7
370
    25
100
AcDbLine
 10
20.6645607484
 20
19.779378721
 30
0.0
 11
20.7117011969
 21
19.7539647606
 31
0.0
  0
LINE
  5
21A
330
1F
100
AcDbEntity
  8
0
  6
Continuous
 62
     7
370
    25
100
AcDbLine
 10
20.708583789
 20
19.8065923227
 30
0.0
 11
20.6645607484
 21
19.779378721
 31
0.0
  0
LINE
  5
21B
330
1F
100
AcDbEntity
  8
0
  6
Continuous
 62
     7
370
    25
100
AcDbLine
 10
20.68446542
 20
19.8195948141
 30
0.0
 11
20.708583789
 21
19.8065923227
 31
0.0
  0
LINE
  5
21C
330
1F
100
AcDbEntity
  8
0
  6
Continuous
 62
     7
370
    25
100
AcDbLine
 10
20.6404423793
 20
19.7923812124
 30
0.0
 11
20.68446542
 21
19.8195948141
 31
0.0
  0
LINE
  5
21D
330
1F
100
AcDbEntity
  8
0
  6
Continuous
 62
     7
370
    25
100
AcDbLine
 10
20.5933019308
 20
19.8177951728
 30
0.0
 11
20.6404423793
 21
19.7923812124
 31
0.0
  0
LINE
  5
21E
330
1F
100
AcDbEntity
  8
0
  6
Continuous
 62
     7
370
    25
100
AcDbLine
 10
20.6179189632
 20
19.7784579743
 30
0.0
 11
20.6213986839
 21
19.7526973466
 31
0.0
  0
LINE
  5
21F
330
1F
100
AcDbEntity
  8
0
  6
Continuous
 62
     7
370
    25
100
AcDbLine
 10
20.6645607484
 20
19.779378721
 30
0.0
 11
20.6612950304
 21
19.7550734354
 31
0.0
  0
LINE
  5
220
330
1F
100
AcDbEntity
  8
0
  6
Continuous
 62
     7
370
    25
100
AcDbLine
 10
20.5933019308
 20
19.8177951728
 30
0.0
 11
20.6066161362
 21
19.784551459
 31
0.0
  0
LINE
  5
221
330
1F
100
AcDbEntity
  8
0
  6
Continuous
 62
     7
370
    25
100
AcDbLine
 10
20.68446542
 20
19.8195948141
 30
0.0
 11
20.671447017
 21
19.7836355868
 31
0.0
  0
LINE
  5
222
330
1F
100
AcDbEntity
  8
0
  6
Continuous
 62
     7
370
    25
100
AcDbLine
 10
20.6614062382
 20
19.755901106
 30
0.0
 11
20.6611373668
 21
19.7551584336
 31
0.0
  0
LINE
  5
223
330
1F
100
AcDbEntity
  8
0
  6
Continuous
 62
     7
370
    25
100
AcDbLine
 10
20.6405613711
 20
19.7645430922
 30
0.0
 11
20.6404423793
 21
19.7923812124
 31
0.0
  0
LINE
  5
224
330
1F
100
AcDbEntity
  8
0
  6
Continuous
 62
     7
370
    25
100
AcDbLine
 10
30.6444674275
 20
13.994846007
 30
0.0
 11
30.6692079935
 21
14.0074528974
 31
0.0
  0
LINE
  5
225
330
1F
100
AcDbEntity
  8
0
  6
Continuous
 62
     7
370
    25
100
AcDbLine
 10
30.6871510665
 20
13.9669303587
 30
0.0
 11
30.6444674275
 21
13.994846007
 31
0.0
  0
LINE
  5
226
330
1F
100
AcDbEntity
  8
0
  6
Continuous
 62
     7
370
    25
100
AcDbLine
 10
30.6387945057
 20
13.9422896184
 30
0.0
 11
30.6871510665
 21
13.9669303587
 31
0.0
  0
LINE
  5
227
330
1F
100
AcDbEntity
  8
0
  6
Continuous
 62
     7
370
    25
100
AcDbLine
 10
30.6606326465
 20
13.9280071937
 30
0.0
 11
30.6387945057
 21
13.9422896184
 31
0.0
  0
LINE
  5
228
330
1F
100
AcDbEntity
  8
0
  6
Continuous
 62
     7
370
    25
100
AcDbLine
 10
30.7089892073
 20
13.952647934
 30
0.0
 11
30.6606326465
 21
13.9280071937
 31
0.0
  0
LINE
  5
229
330
1F
100
AcDbEntity
  8
0
  6
Continuous
 62
     7
370
    25
100
AcDbLine
 10
30.7516728462
 20
13.9247322857
 30
0.0
 11
30.7089892073
 21
13.952647934
 31
0.0
  0
LINE
  5
22A
330
1F
100
AcDbEntity
  8
0
  6
Continuous
 62
     7
370
    25
100
AcDbLine
 10
30.7764134122
 20
13.937339176
 30
0.0
 11
30.7516728462
 21
13.9247322857
 31
0.0
  0
LINE
  5
22B
330
1F
100
AcDbEntity
  8
0
  6
Continuous
 62
     7
370
    25
100
AcDbLine
 10
30.7337297733
 20
13.9652548243
 30
0.0
 11
30.7764134122
 21
13.937339176
 31
0.0
  0
LINE
  5
22C
330
1F
100
AcDbEntity
  8
0
  6
Continuous
 62
     7
370
    25
100
AcDbLine
 10
30.782086334
 20
13.9898955646
 30
0.0
 11
30.7337297733
 21
13.9652548243
 31
0.0
  0
LINE
  5
22D
330
1F
100
AcDbEntity
  8
0
  6
Continuous
 62
     7
370
    25
100
AcDbLine
 10
30.7602481932
 20
14.0041779893
 30
0.0
 11
30.782086334
 21
13.9898955646
 31
0.0
  0
LINE
  5
22E
330
1F
100
AcDbEntity
  8
0
  6
Continuous
 62
     7
370
    25
100
AcDbLine
 10
30.7118916324
 20
13.9795372491
 30
0.0
 11
30.7602481932
 21
14.0041779893
 31
0.0
  0
LINE
  5
22F
330
1F
100
AcDbEntity
  8
0
  6
Continuous
 62
     7
370
    25
100
AcDbLine
 10
30.6692079935
 20
14.0074528974
 30
0.0
 11
30.7118916324
 21
13.9795372491
 31
0.0
  0
LWPOLYLINE
  5
230
330
1F
100
AcDbEntity
  8
0
  6
Continuous
 62
     7
370
    25
100
AcDbPolyline
 90
       19
 70
   128
 43
0.0
 10
30.6212244395
 20
13.9206313808
 10
30.6535387913
 20
13.905757865
 10
30.6927163192
 20
13.8981616076
 10
30.7340316353
 20
13.8987588294
 10
30.7725015026
 20
13.9074774967
 10
30.8034858874
 20
13.9232660094
 10
30.8232476156
 20
13.9442200401
 10
30.8294031312
 20
13.9678122232
 10
30.821209988
 20
13.9911969934
 10
30.7996564002
 20
14.0115538022
 10
30.7673420484
 20
14.0264273181
 10
30.7281645205
 20
14.0340235755
 10
30.6868492044
 20
14.0334263537
 10
30.6483793371
 20
14.0247076864
 10
30.6173949523
 20
14.0089191736
 10
30.5976332241
 20
13.987965143
 10
30.5914777086
 20
13.9643729598
 10
30.5996708517
 20
13.9409881896
 10
30.6212244395
 20
13.9206313808
  0
LINE
  5
231
330
1F
100
AcDbEntity
  8
0
  6
Continuous
 62
     7
370
    25
100
AcDbLine
 10
30.6212244395
 20
13.9067134276
 30
0.0
 11
30.6406490583
 21
13.8965324698
 31
0.0
  0
ARC
  5
232
330
1F
100
AcDbEntity
  8
0
  6
Continuous
 62
     7
370
    25
100
AcDbCircle
 10
30.7608373686
 20
13.9629478076
 30
0.0
 40
0.0694437889462022
100
AcDbArc
 50
284.5262184346
 51
351.0753682123
  0
ARC
  5
233
330
1F
100
AcDbEntity
  8
0
  6
Continuous
 62
     7
370
    25
100
AcDbCircle
 10
30.6447959252
 20
13.954643483
 30
0.0
 40
0.0534125935066344
100
AcDbArc
 50
182.6492777929
 51
243.8125368512
  0
LINE
  5
234
330
1F
100
AcDbEntity
  8
0
  6
Continuous
 62
     7
370
    25
100
AcDbLine
 10
30.7337297733
 20
13.9652548243
 30
0.0
 11
30.7301540845
 21
13.9388058323
 31
0.0
  0
LINE
  5
235
330
1F
100
AcDbEntity
  8
0
  6
Continuous
 62
     7
370
    25
100
AcDbLine
 10
30.6871510665
 20
13.9669303587
 30
0.0
 11
30.690335958
 21
13.9431429182
 31
0.0
  0
LINE
  5
236
330
1F
100
AcDbEntity
  8
0
  6
Continuous
 62
     7
370
    25
100
AcDbLine
 10
30.7602481932
 20
14.0041779893
 30
0.0
 11
30.7468239151
 21
13.9719271216
 31
0.0
  0
LINE
  5
237
330
1F
100
AcDbEntity
  8
0
  6
Continuous
 62
     7
370
    25
100
AcDbLine
 10
30.6692079935
 20
14.0074528974
 30
0.0
 11
30.682091895
 21
13.9702391219
 31
0.0
  0
LINE
  5
238
330
1F
100
AcDbEntity
  8
0
  6
Continuous
 62
     7
370
    25
100
AcDbLine
 10
30.6896189738
 20
13.9484979573
 30
0.0
 11
30.6913024525
 21
13.9436354086
 31
0.0
  0
LINE
  5
239
330
1F
100
AcDbEntity
  8
0
  6
Continuous
 62
     7
370
    25
100
AcDbLine
 10
30.7116688231
 20
13.9508954308
 30
0.0
 11
30.7118916324
 21
13.9795372491
 31
0.0
  0
LINE
  5
23A
330
1F
100
AcDbEntity
  8
0
  6
Continuous
 62
     7
370
    25
100
AcDbLine
 10
24.2757687111
 20
16.7045048707
 30
0.0
 11
24.2757687111
 21
16.6558792899
 31
0.0
  0
LINE
  5
23B
330
1F
100
AcDbEntity
  8
0
  6
Continuous
 62
     7
370
    25
100
AcDbLine
 10
24.2757687111
 20
16.6558792899
 30
0.0
 11
24.3111240501
 21
16.6354690872
 31
0.0
  0
LINE
  5
23C
330
1F
100
AcDbEntity
  8
0
  6
Continuous
 62
     7
370
    25
100
AcDbLine
 10
24.3111240501
 20
16.6354690872
 30
0.0
 11
24.3111240501
 21
16.4578714606
 31
0.0
  0
LINE
  5
23D
330
1F
100
AcDbEntity
  8
0
  6
Continuous
 62
     7
370
    25
100
AcDbLine
 10
24.3111240501
 20
16.4578714606
 30
0.0
 11
24.6363931695
 21
16.2700975948
 31
0.0
  0
LINE
  5
23E
330
1F
100
AcDbEntity
  8
0
  6
Continuous
 62
     7
370
    25
100
AcDbLine
 10
28.5679068729
 20
14.2267062513
 30
0.0
 11
28.5679068729
 21
14.1780806706
 31
0.0
  0
LINE
  5
23F
330
1F
100
AcDbEntity
  8
0
  6
Continuous
 62
     7
370
    25
100
AcDbLine
 10
28.5679068729
 20
14.1780806706
 30
0.0
 11
28.6032622119
 21
14.1576704678
 31
0.0
  0
LINE
  5
240
330
1F
100
AcDbEntity
  8
0
  6
Continuous
 62
     7
370
    25
100
AcDbLine
 10
28.6032622119
 20
14.1576704678
 30
0.0
 11
28.6032622119
 21
13.9800728412
 31
0.0
  0
LINE
  5
241
330
1F
100
AcDbEntity
  8
0
  6
Continuous
 62
     7
370
    25
100
AcDbLine
 10
28.6032622119
 20
13.9800728412
 30
0.0
 11
28.9285313313
 21
13.7922989755
 31
0.0
  0
LINE
  5
242
330
1F
100
AcDbEntity
  8
0
  6
Continuous
 62
     7
370
    25
100
AcDbLine
 10
27.7900894136
 20
14.1164002567
 30
0.0
 11
27.7900894136
 21
14.0677746759
 31
0.0
  0
LINE
  5
243
330
1F
100
AcDbEntity
  8
0
  6
Continuous
 62
     7
370
    25
100
AcDbLine
 10
27.7900894136
 20
14.0677746759
 30
0.0
 11
27.8254447526
 21
14.0473644731
 31
0.0
  0
LINE
  5
244
330
1F
100
AcDbEntity
  8
0
  6
Continuous
 62
     7
370
    25
100
AcDbLine
 10
27.8254447526
 20
14.0473644731
 30
0.0
 11
27.8254447526
 21
13.8697668465
 31
0.0
  0
LINE
  5
245
330
1F
100
AcDbEntity
  8
0
  6
Continuous
 62
     7
370
    25
100
AcDbLine
 10
27.8254447526
 20
13.8697668465
 30
0.0
 11
28.150713872
 21
13.6819929808
 31
0.0
  0
LINE
  5
246
330
1F
100
AcDbEntity
  8
0
  6
Continuous
 62
     7
370
    25
100
AcDbLine
 10
28.150713872
 20
14.1678347639
 30
0.0
 11
27.8254447526
 21
14.3556086296
 31
0.0
  0
LINE
  5
247
330
1F
100
AcDbEntity
  8
0
  6
Continuous
 62
     7
370
    25
100
AcDbLine
 10
27.8254447526
 20
14.3556086296
 30
0.0
 11
27.8254447526
 21
14.2280984218
 31
0.0
  0
LINE
  5
248
330
1F
100
AcDbEntity
  8
0
  6
Continuous
 62
     7
370
    25
100
AcDbLine
 10
27.7900894136
 20
14.6757307128
 30
0.0
 11
27.7900894136
 21
14.6271051321
 31
0.0
  0
LINE
  5
249
330
1F
100
AcDbEntity
  8
0
  6
Continuous
 62
     7
370
    25
100
AcDbLine
 10
27.7900894136
 20
14.6271051321
 30
0.0
 11
27.8254447526
 21
14.6066949293
 31
0.0
  0
LINE
  5
24A
330
1F
100
AcDbEntity
  8
0
  6
Continuous
 62
     7
370
    25
100
AcDbLine
 10
27.8254447526
 20
14.6066949293
 30
0.0
 11
27.8254447526
 21
14.4290973027
 31
0.0
  0
LINE
  5
24B
330
1F
100
AcDbEntity
  8
0
  6
Continuous
 62
     7
370
    25
100
AcDbLine
 10
27.8254447526
 20
14.4290973027
 30
0.0
 11
28.150713872
 21
14.241323437
 31
0.0
  0
LINE
  5
24C
330
1F
100
AcDbEntity
  8
0
  6
Continuous
 62
     7
370
    25
100
AcDbLine
 10
27.0122719543
 20
14.5654247182
 30
0.0
 11
27.0122719543
 21
14.5167991374
 31
0.0
  0
LINE
  5
24D
330
1F
100
AcDbEntity
  8
0
  6
Continuous
 62
     7
370
    25
100
AcDbLine
 10
27.0122719543
 20
14.5167991374
 30
0.0
 11
27.0476272933
 21
14.4963889346
 31
0.0
  0
LINE
  5
24E
330
1F
100
AcDbEntity
  8
0
  6
Continuous
 62
     7
370
    25
100
AcDbLine
 10
27.0476272933
 20
14.4963889346
 30
0.0
 11
27.0476272933
 21
14.318791308
 31
0.0
  0
LINE
  5
24F
330
1F
100
AcDbEntity
  8
0
  6
Continuous
 62
     7
370
    25
100
AcDbLine
 10
27.0476272933
 20
14.318791308
 30
0.0
 11
27.3728964127
 21
14.1310174423
 31
0.0
  0
LINE
  5
250
330
1F
100
AcDbEntity
  8
0
  6
Continuous
 62
     7
370
    25
100
AcDbLine
 10
27.3728964127
 20
14.6168592254
 30
0.0
 11
27.0476272933
 21
14.8046330911
 31
0.0
  0
LINE
  5
251
330
1F
100
AcDbEntity
  8
0
  6
Continuous
 62
     7
370
    25
100
AcDbLine
 10
27.0476272933
 20
14.8046330911
 30
0.0
 11
27.0476272933
 21
14.6771228833
 31
0.0
  0
LINE
  5
252
330
1F
100
AcDbEntity
  8
0
  6
Continuous
 62
     7
370
    25
100
AcDbLine
 10
29.3457243322
 20
13.2183513336
 30
0.0
 11
29.3457243322
 21
13.1697257529
 31
0.0
  0
LINE
  5
253
330
1F
100
AcDbEntity
  8
0
  6
Continuous
 62
     7
370
    25
100
AcDbLine
 10
29.3457243322
 20
13.1697257529
 30
0.0
 11
29.3810796712
 21
13.1493155501
 31
0.0
  0
LINE
  5
254
330
1F
100
AcDbEntity
  8
0
  6
Continuous
 62
     7
370
    25
100
AcDbLine
 10
29.3810796712
 20
13.1493155501
 30
0.0
 11
29.3810796712
 21
12.9717179235
 31
0.0
  0
LINE
  5
255
330
1F
100
AcDbEntity
  8
0
  6
Continuous
 62
     7
370
    25
100
AcDbLine
 10
29.3810796712
 20
12.9717179235
 30
0.0
 11
29.7063487906
 21
12.7839440578
 31
0.0
  0
LINE
  5
256
330
1F
100
AcDbEntity
  8
0
  6
Continuous
 62
     7
370
    25
100
AcDbLine
 10
29.7063487906
 20
13.2697858409
 30
0.0
 11
29.3810796712
 21
13.4575597066
 31
0.0
  0
LINE
  5
257
330
1F
100
AcDbEntity
  8
0
  6
Continuous
 62
     7
370
    25
100
AcDbLine
 10
29.3810796712
 20
13.4575597066
 30
0.0
 11
29.3810796712
 21
13.3300494988
 31
0.0
  0
LINE
  5
258
330
1F
100
AcDbEntity
  8
0
  6
Continuous
 62
     7
370
    25
100
AcDbLine
 10
29.3457243322
 20
13.7776817898
 30
0.0
 11
29.3457243322
 21
13.7290562091
 31
0.0
  0
LINE
  5
259
330
1F
100
AcDbEntity
  8
0
  6
Continuous
 62
     7
370
    25
100
AcDbLine
 10
29.3457243322
 20
13.7290562091
 30
0.0
 11
29.3810796712
 21
13.7086460063
 31
0.0
  0
LINE
  5
25A
330
1F
100
AcDbEntity
  8
0
  6
Continuous
 62
     7
370
    25
100
AcDbLine
 10
29.3810796712
 20
13.7086460063
 30
0.0
 11
29.3810796712
 21
13.5310483797
 31
0.0
  0
LINE
  5
25B
330
1F
100
AcDbEntity
  8
0
  6
Continuous
 62
     7
370
    25
100
AcDbLine
 10
29.3810796712
 20
13.5310483797
 30
0.0
 11
29.7063487906
 21
13.343274514
 31
0.0
  0
LINE
  5
25C
330
1F
100
AcDbEntity
  8
0
  6
Continuous
 62
     7
370
    25
100
AcDbLine
 10
28.5679068729
 20
13.6673757952
 30
0.0
 11
28.5679068729
 21
13.6187502144
 31
0.0
  0
LINE
  5
25D
330
1F
100
AcDbEntity
  8
0
  6
Continuous
 62
     7
370
    25
100
AcDbLine
 10
28.5679068729
 20
13.6187502144
 30
0.0
 11
28.6032622119
 21
13.5983400116
 31
0.0
  0
LINE
  5
25E
330
1F
100
AcDbEntity
  8
0
  6
Continuous
 62
     7
370
    25
100
AcDbLine
 10
28.6032622119
 20
13.5983400116
 30
0.0
 11
28.6032622119
 21
13.420742385
 31
0.0
  0
LINE
  5
25F
330
1F
100
AcDbEntity
  8
0
  6
Continuous
 62
     7
370
    25
100
AcDbLine
 10
28.6032622119
 20
13.420742385
 30
0.0
 11
28.9285313313
 21
13.2329685193
 31
0.0
  0
LINE
  5
260
330
1F
100
AcDbEntity
  8
0
  6
Continuous
 62
     7
370
    25
100
AcDbLine
 10
28.9285313313
 20
13.7188103024
 30
0.0
 11
28.6032622119
 21
13.9065841681
 31
0.0
  0
LINE
  5
261
330
1F
100
AcDbEntity
  8
0
  6
Continuous
 62
     7
370
    25
100
AcDbLine
 10
28.6032622119
 20
13.9065841681
 30
0.0
 11
28.6032622119
 21
13.7790739603
 31
0.0
  0
LINE
  5
262
330
1F
100
AcDbEntity
  8
0
  6
Continuous
 62
     7
370
    25
100
AcDbLine
 10
22.7201337925
 20
17.0432233375
 30
0.0
 11
22.7201337925
 21
16.9945977568
 31
0.0
  0
LINE
  5
263
330
1F
100
AcDbEntity
  8
0
  6
Continuous
 62
     7
370
    25
100
AcDbLine
 10
22.7201337925
 20
16.9945977568
 30
0.0
 11
22.7554891315
 21
16.974187554
 31
0.0
  0
LINE
  5
264
330
1F
100
AcDbEntity
  8
0
  6
Continuous
 62
     7
370
    25
100
AcDbLine
 10
22.7554891315
 20
16.974187554
 30
0.0
 11
22.7554891315
 21
16.7965899274
 31
0.0
  0
LINE
  5
265
330
1F
100
AcDbEntity
  8
0
  6
Continuous
 62
     7
370
    25
100
AcDbLine
 10
22.7554891315
 20
16.7965899274
 30
0.0
 11
23.0807582509
 21
16.6088160617
 31
0.0
  0
LINE
  5
266
330
1F
100
AcDbEntity
  8
0
  6
Continuous
 62
     7
370
    25
100
AcDbLine
 10
23.0807582509
 20
17.0946578448
 30
0.0
 11
22.7554891315
 21
17.2824317105
 31
0.0
  0
LINE
  5
267
330
1F
100
AcDbEntity
  8
0
  6
Continuous
 62
     7
370
    25
100
AcDbLine
 10
22.7554891315
 20
17.2824317105
 30
0.0
 11
22.7554891315
 21
17.1549215026
 31
0.0
  0
LINE
  5
268
330
1F
100
AcDbEntity
  8
0
  6
Continuous
 62
     7
370
    25
100
AcDbLine
 10
21.9423163332
 20
18.0515782552
 30
0.0
 11
21.9423163332
 21
18.0029526745
 31
0.0
  0
LINE
  5
269
330
1F
100
AcDbEntity
  8
0
  6
Continuous
 62
     7
370
    25
100
AcDbLine
 10
21.9423163332
 20
18.0029526745
 30
0.0
 11
21.9776716722
 21
17.9825424717
 31
0.0
  0
LINE
  5
26A
330
1F
100
AcDbEntity
  8
0
  6
Continuous
 62
     7
370
    25
100
AcDbLine
 10
21.9776716722
 20
17.9825424717
 30
0.0
 11
21.9776716722
 21
17.8049448451
 31
0.0
  0
LINE
  5
26B
330
1F
100
AcDbEntity
  8
0
  6
Continuous
 62
     7
370
    25
100
AcDbLine
 10
21.9776716722
 20
17.8049448451
 30
0.0
 11
22.3029407916
 21
17.6171709794
 31
0.0
  0
LINE
  5
26C
330
1F
100
AcDbEntity
  8
0
  6
Continuous
 62
     7
370
    25
100
AcDbLine
 10
21.9423163332
 20
17.492247799
 30
0.0
 11
21.9423163332
 21
17.4436222183
 31
0.0
  0
LINE
  5
26D
330
1F
100
AcDbEntity
  8
0
  6
Continuous
 62
     7
370
    25
100
AcDbLine
 10
21.9423163332
 20
17.4436222183
 30
0.0
 11
21.9776716722
 21
17.4232120155
 31
0.0
  0
LINE
  5
26E
330
1F
100
AcDbEntity
  8
0
  6
Continuous
 62
     7
370
    25
100
AcDbLine
 10
21.9776716722
 20
17.4232120155
 30
0.0
 11
21.9776716722
 21
17.2456143889
 31
0.0
  0
LINE
  5
26F
330
1F
100
AcDbEntity
  8
0
  6
Continuous
 62
     7
370
    25
100
AcDbLine
 10
21.9776716722
 20
17.2456143889
 30
0.0
 11
22.3029407916
 21
17.0578405232
 31
0.0
  0
LINE
  5
270
330
1F
100
AcDbEntity
  8
0
  6
Continuous
 62
     7
370
    25
100
AcDbLine
 10
22.3029407916
 20
17.5436823063
 30
0.0
 11
21.9776716722
 21
17.731456172
 31
0.0
  0
LINE
  5
271
330
1F
100
AcDbEntity
  8
0
  6
Continuous
 62
     7
370
    25
100
AcDbLine
 10
21.9776716722
 20
17.731456172
 30
0.0
 11
21.9776716722
 21
17.6039459641
 31
0.0
  0
LINE
  5
272
330
1F
100
AcDbEntity
  8
0
  6
Continuous
 62
     7
370
    25
100
AcDbLine
 10
21.1644988738
 20
18.5006027167
 30
0.0
 11
21.1644988738
 21
18.451977136
 31
0.0
  0
LINE
  5
273
330
1F
100
AcDbEntity
  8
0
  6
Continuous
 62
     7
370
    25
100
AcDbLine
 10
21.1644988738
 20
18.451977136
 30
0.0
 11
21.1998542129
 21
18.4315669332
 31
0.0
  0
LINE
  5
274
330
1F
100
AcDbEntity
  8
0
  6
Continuous
 62
     7
370
    25
100
AcDbLine
 10
21.1998542129
 20
18.4315669332
 30
0.0
 11
21.1998542129
 21
18.2539693066
 31
0.0
  0
LINE
  5
275
330
1F
100
AcDbEntity
  8
0
  6
Continuous
 62
     7
370
    25
100
AcDbLine
 10
21.1998542129
 20
18.2539693066
 30
0.0
 11
21.5251233323
 21
18.0661954409
 31
0.0
  0
LINE
  5
276
330
1F
100
AcDbEntity
  8
0
  6
Continuous
 62
     7
370
    25
100
AcDbLine
 10
24.2757687111
 20
16.1451744145
 30
0.0
 11
24.2757687111
 21
16.0965488338
 31
0.0
  0
LINE
  5
277
330
1F
100
AcDbEntity
  8
0
  6
Continuous
 62
     7
370
    25
100
AcDbLine
 10
24.2757687111
 20
16.0965488338
 30
0.0
 11
24.3111240501
 21
16.076138631
 31
0.0
  0
LINE
  5
278
330
1F
100
AcDbEntity
  8
0
  6
Continuous
 62
     7
370
    25
100
AcDbLine
 10
24.3111240501
 20
16.076138631
 30
0.0
 11
24.3111240501
 21
15.8985410044
 31
0.0
  0
LINE
  5
279
330
1F
100
AcDbEntity
  8
0
  6
Continuous
 62
     7
370
    25
100
AcDbLine
 10
24.3111240501
 20
15.8985410044
 30
0.0
 11
24.6363931695
 21
15.7107671387
 31
0.0
  0
LINE
  5
27A
330
1F
100
AcDbEntity
  8
0
  6
Continuous
 62
     7
370
    25
100
AcDbLine
 10
24.6363931695
 20
16.1966089218
 30
0.0
 11
24.3111240501
 21
16.3843827875
 31
0.0
  0
LINE
  5
27B
330
1F
100
AcDbEntity
  8
0
  6
Continuous
 62
     7
370
    25
100
AcDbLine
 10
24.3111240501
 20
16.3843827875
 30
0.0
 11
24.3111240501
 21
16.2568725796
 31
0.0
  0
LINE
  5
27C
330
1F
100
AcDbEntity
  8
0
  6
Continuous
 62
     7
370
    25
100
AcDbLine
 10
23.4979512518
 20
17.1535293322
 30
0.0
 11
23.4979512518
 21
17.1049037514
 31
0.0
  0
LINE
  5
27D
330
1F
100
AcDbEntity
  8
0
  6
Continuous
 62
     7
370
    25
100
AcDbLine
 10
23.4979512518
 20
17.1049037514
 30
0.0
 11
23.5333065908
 21
17.0844935487
 31
0.0
  0
LINE
  5
27E
330
1F
100
AcDbEntity
  8
0
  6
Continuous
 62
     7
370
    25
100
AcDbLine
 10
23.5333065908
 20
17.0844935487
 30
0.0
 11
23.5333065908
 21
16.9068959221
 31
0.0
  0
LINE
  5
27F
330
1F
100
AcDbEntity
  8
0
  6
Continuous
 62
     7
370
    25
100
AcDbLine
 10
23.5333065908
 20
16.9068959221
 30
0.0
 11
23.8585757102
 21
16.7191220563
 31
0.0
  0
LINE
  5
280
330
1F
100
AcDbEntity
  8
0
  6
Continuous
 62
     7
370
    25
100
AcDbLine
 10
23.4979512518
 20
16.594198876
 30
0.0
 11
23.4979512518
 21
16.5455732953
 31
0.0
  0
LINE
  5
281
330
1F
100
AcDbEntity
  8
0
  6
Continuous
 62
     7
370
    25
100
AcDbLine
 10
23.4979512518
 20
16.5455732953
 30
0.0
 11
23.5333065908
 21
16.5251630925
 31
0.0
  0
LINE
  5
282
330
1F
100
AcDbEntity
  8
0
  6
Continuous
 62
     7
370
    25
100
AcDbLine
 10
23.5333065908
 20
16.5251630925
 30
0.0
 11
23.5333065908
 21
16.3475654659
 31
0.0
  0
LINE
  5
283
330
1F
100
AcDbEntity
  8
0
  6
Continuous
 62
     7
370
    25
100
AcDbLine
 10
23.5333065908
 20
16.3475654659
 30
0.0
 11
23.8585757102
 21
16.1597916002
 31
0.0
  0
LINE
  5
284
330
1F
100
AcDbEntity
  8
0
  6
Continuous
 62
     7
370
    25
100
AcDbLine
 10
23.8585757102
 20
16.6456333833
 30
0.0
 11
23.5333065908
 21
16.833407249
 31
0.0
  0
LINE
  5
285
330
1F
100
AcDbEntity
  8
0
  6
Continuous
 62
     7
370
    25
100
AcDbLine
 10
23.5333065908
 20
16.833407249
 30
0.0
 11
23.5333065908
 21
16.7058970411
 31
0.0
  0
LINE
  5
286
330
1F
100
AcDbEntity
  8
0
  6
Continuous
 62
     7
370
    25
100
AcDbLine
 10
22.7201337925
 20
17.6025537937
 30
0.0
 11
22.7201337925
 21
17.553928213
 31
0.0
  0
LINE
  5
287
330
1F
100
AcDbEntity
  8
0
  6
Continuous
 62
     7
370
    25
100
AcDbLine
 10
22.7201337925
 20
17.553928213
 30
0.0
 11
22.7554891315
 21
17.5335180102
 31
0.0
  0
LINE
  5
288
330
1F
100
AcDbEntity
  8
0
  6
Continuous
 62
     7
370
    25
100
AcDbLine
 10
22.7554891315
 20
17.5335180102
 30
0.0
 11
22.7554891315
 21
17.3559203836
 31
0.0
  0
LINE
  5
289
330
1F
100
AcDbEntity
  8
0
  6
Continuous
 62
     7
370
    25
100
AcDbLine
 10
22.7554891315
 20
17.3559203836
 30
0.0
 11
23.0807582509
 21
17.1681465179
 31
0.0
  0
LINE
  5
28A
330
1F
100
AcDbEntity
  8
0
  6
Continuous
 62
     7
370
    25
100
AcDbLine
 10
25.4566370356
 20
15.4634736412
 30
0.0
 11
25.4566370356
 21
15.4148480604
 31
0.0
  0
LINE
  5
28B
330
1F
100
AcDbEntity
  8
0
  6
Continuous
 62
     7
370
    25
100
AcDbLine
 10
25.4566370356
 20
15.4148480604
 30
0.0
 11
25.4919923747
 21
15.3944378576
 31
0.0
  0
LINE
  5
28C
330
1F
100
AcDbEntity
  8
0
  6
Continuous
 62
     7
370
    25
100
AcDbLine
 10
25.4919923747
 20
15.3944378576
 30
0.0
 11
25.4919923747
 21
15.2168402311
 31
0.0
  0
LINE
  5
28D
330
1F
100
AcDbEntity
  8
0
  6
Continuous
 62
     7
370
    25
100
AcDbLine
 10
25.4919923747
 20
15.2168402311
 30
0.0
 11
25.8172614941
 21
15.0290663653
 31
0.0
  0
LINE
  5
28E
330
1F
100
AcDbEntity
  8
0
  6
Continuous
 62
     7
370
    25
100
AcDbLine
 10
25.8172614941
 20
15.5149081484
 30
0.0
 11
25.4919923747
 21
15.7026820141
 31
0.0
  0
LINE
  5
28F
330
1F
100
AcDbEntity
  8
0
  6
Continuous
 62
     7
370
    25
100
AcDbLine
 10
25.4919923747
 20
15.7026820141
 30
0.0
 11
25.4919923747
 21
15.5751718063
 31
0.0
  0
LINE
  5
290
330
1F
100
AcDbEntity
  8
0
  6
Continuous
 62
     7
370
    25
100
AcDbLine
 10
26.234454495
 20
15.5737796358
 30
0.0
 11
26.234454495
 21
15.5251540551
 31
0.0
  0
LINE
  5
291
330
1F
100
AcDbEntity
  8
0
  6
Continuous
 62
     7
370
    25
100
AcDbLine
 10
26.234454495
 20
15.5251540551
 30
0.0
 11
26.269809834
 21
15.5047438523
 31
0.0
  0
LINE
  5
292
330
1F
100
AcDbEntity
  8
0
  6
Continuous
 62
     7
370
    25
100
AcDbLine
 10
26.269809834
 20
15.5047438523
 30
0.0
 11
26.269809834
 21
15.3271462257
 31
0.0
  0
LINE
  5
293
330
1F
100
AcDbEntity
  8
0
  6
Continuous
 62
     7
370
    25
100
AcDbLine
 10
26.269809834
 20
15.3271462257
 30
0.0
 11
26.5950789534
 21
15.13937236
 31
0.0
  0
LINE
  5
294
330
1F
100
AcDbEntity
  8
0
  6
Continuous
 62
     7
370
    25
100
AcDbLine
 10
26.234454495
 20
15.0144491797
 30
0.0
 11
26.234454495
 21
14.9658235989
 31
0.0
  0
LINE
  5
295
330
1F
100
AcDbEntity
  8
0
  6
Continuous
 62
     7
370
    25
100
AcDbLine
 10
26.234454495
 20
14.9658235989
 30
0.0
 11
26.269809834
 21
14.9454133961
 31
0.0
  0
LINE
  5
296
330
1F
100
AcDbEntity
  8
0
  6
Continuous
 62
     7
370
    25
100
AcDbLine
 10
26.269809834
 20
14.9454133961
 30
0.0
 11
26.269809834
 21
14.7678157696
 31
0.0
  0
LINE
  5
297
330
1F
100
AcDbEntity
  8
0
  6
Continuous
 62
     7
370
    25
100
AcDbLine
 10
26.269809834
 20
14.7678157696
 30
0.0
 11
26.5950789534
 21
14.5800419038
 31
0.0
  0
LINE
  5
298
330
1F
100
AcDbEntity
  8
0
  6
Continuous
 62
     7
370
    25
100
AcDbLine
 10
26.5950789534
 20
15.0658836869
 30
0.0
 11
26.269809834
 21
15.2536575526
 31
0.0
  0
LINE
  5
299
330
1F
100
AcDbEntity
  8
0
  6
Continuous
 62
     7
370
    25
100
AcDbLine
 10
26.269809834
 20
15.2536575526
 30
0.0
 11
26.269809834
 21
15.1261473448
 31
0.0
  0
LINE
  5
29A
330
1F
100
AcDbEntity
  8
0
  6
Continuous
 62
     7
370
    25
100
AcDbLine
 10
27.0122719543
 20
15.1247551743
 30
0.0
 11
27.0122719543
 21
15.0761295936
 31
0.0
  0
LINE
  5
29B
330
1F
100
AcDbEntity
  8
0
  6
Continuous
 62
     7
370
    25
100
AcDbLine
 10
27.0122719543
 20
15.0761295936
 30
0.0
 11
27.0476272933
 21
15.0557193908
 31
0.0
  0
LINE
  5
29C
330
1F
100
AcDbEntity
  8
0
  6
Continuous
 62
     7
370
    25
100
AcDbLine
 10
27.0476272933
 20
15.0557193908
 30
0.0
 11
27.0476272933
 21
14.8781217642
 31
0.0
  0
LINE
  5
29D
330
1F
100
AcDbEntity
  8
0
  6
Continuous
 62
     7
370
    25
100
AcDbLine
 10
27.0476272933
 20
14.8781217642
 30
0.0
 11
27.3728964127
 21
14.6903478985
 31
0.0
  0
LINE
  5
29E
330
1F
100
AcDbEntity
  8
0
  6
Continuous
 62
     7
370
    25
100
AcDbLine
 10
21.1644988738
 20
17.9412722605
 30
0.0
 11
21.1644988738
 21
17.8926466798
 31
0.0
  0
LINE
  5
29F
330
1F
100
AcDbEntity
  8
0
  6
Continuous
 62
     7
370
    25
100
AcDbLine
 10
21.1644988738
 20
17.8926466798
 30
0.0
 11
21.1998542129
 21
17.872236477
 31
0.0
  0
LINE
  5
2A0
330
1F
100
AcDbEntity
  8
0
  6
Continuous
 62
     7
370
    25
100
AcDbLine
 10
21.1998542129
 20
17.872236477
 30
0.0
 11
21.1998542129
 21
17.6946388504
 31
0.0
  0
LINE
  5
2A1
330
1F
100
AcDbEntity
  8
0
  6
Continuous
 62
     7
370
    25
100
AcDbLine
 10
21.1998542129
 20
17.6946388504
 30
0.0
 11
21.5251233323
 21
17.5068649847
 31
0.0
  0
LINE
  5
2A2
330
1F
100
AcDbEntity
  8
0
  6
Continuous
 62
     7
370
    25
100
AcDbLine
 10
21.5251233323
 20
17.9927067678
 30
0.0
 11
21.1998542129
 21
18.1804806335
 31
0.0
  0
LINE
  5
2A3
330
1F
100
AcDbEntity
  8
0
  6
Continuous
 62
     7
370
    25
100
AcDbLine
 10
21.1998542129
 20
18.1804806335
 30
0.0
 11
21.1998542129
 21
18.0529704256
 31
0.0
  0
LINE
  5
2A4
330
1F
100
AcDbEntity
  8
0
  6
Continuous
 62
     7
370
    25
100
AcDbLine
 10
20.3866814145
 20
18.9496271782
 30
0.0
 11
20.3866814145
 21
18.9010015975
 31
0.0
  0
LINE
  5
2A5
330
1F
100
AcDbEntity
  8
0
  6
Continuous
 62
     7
370
    25
100
AcDbLine
 10
20.3866814145
 20
18.9010015975
 30
0.0
 11
20.4220367536
 21
18.8805913947
 31
0.0
  0
LINE
  5
2A6
330
1F
100
AcDbEntity
  8
0
  6
Continuous
 62
     7
370
    25
100
AcDbLine
 10
20.4220367536
 20
18.8805913947
 30
0.0
 11
20.4220367536
 21
18.7029937681
 31
0.0
  0
LINE
  5
2A7
330
1F
100
AcDbEntity
  8
0
  6
Continuous
 62
     7
370
    25
100
AcDbLine
 10
20.4220367536
 20
18.7029937681
 30
0.0
 11
20.7473058729
 21
18.5152199024
 31
0.0
  0
LINE
  5
2A8
330
1F
100
AcDbEntity
  8
0
  6
Continuous
 62
     7
370
    25
100
AcDbLine
 10
20.3866814145
 20
18.390296722
 30
0.0
 11
20.3866814145
 21
18.3416711413
 31
0.0
  0
LINE
  5
2A9
330
1F
100
AcDbEntity
  8
0
  6
Continuous
 62
     7
370
    25
100
AcDbLine
 10
20.3866814145
 20
18.3416711413
 30
0.0
 11
20.4220367536
 21
18.3212609385
 31
0.0
  0
LINE
  5
2AA
330
1F
100
AcDbEntity
  8
0
  6
Continuous
 62
     7
370
    25
100
AcDbLine
 10
20.4220367536
 20
18.3212609385
 30
0.0
 11
20.4220367536
 21
18.1436633119
 31
0.0
  0
LINE
  5
2AB
330
1F
100
AcDbEntity
  8
0
  6
Continuous
 62
     7
370
    25
100
AcDbLine
 10
20.4220367536
 20
18.1436633119
 30
0.0
 11
20.7473058729
 21
17.9558894462
 31
0.0
  0
LINE
  5
2AC
330
1F
100
AcDbEntity
  8
0
  6
Continuous
 62
     7
370
    25
100
AcDbLine
 10
20.7473058729
 20
18.4417312293
 30
0.0
 11
20.4220367536
 21
18.629505095
 31
0.0
  0
LINE
  5
2AD
330
1F
100
AcDbEntity
  8
0
  6
Continuous
 62
     7
370
    25
100
AcDbLine
 10
20.4220367536
 20
18.629505095
 30
0.0
 11
20.4220367536
 21
18.5019948871
 31
0.0
  0
LINE
  5
2AE
330
1F
100
AcDbEntity
  8
0
  6
Continuous
 62
     7
370
    25
100
AcDbLine
 10
25.4566370356
 20
16.0228040973
 30
0.0
 11
25.4566370356
 21
15.9741785166
 31
0.0
  0
LINE
  5
2AF
330
1F
100
AcDbEntity
  8
0
  6
Continuous
 62
     7
370
    25
100
AcDbLine
 10
25.4566370356
 20
15.9741785166
 30
0.0
 11
25.4919923747
 21
15.9537683138
 31
0.0
  0
LINE
  5
2B0
330
1F
100
AcDbEntity
  8
0
  6
Continuous
 62
     7
370
    25
100
AcDbLine
 10
25.4919923747
 20
15.9537683138
 30
0.0
 11
25.4919923747
 21
15.7761706872
 31
0.0
  0
LINE
  5
2B1
330
1F
100
AcDbEntity
  8
0
  6
Continuous
 62
     7
370
    25
100
AcDbLine
 10
25.4919923747
 20
15.7761706872
 30
0.0
 11
25.8172614941
 21
15.5883968215
 31
0.0
  0
LINE
  5
2B2
330
1F
100
AcDbEntity
  8
0
  6
Continuous
 62
     7
370
    25
100
AcDbLine
 10
29.3915448516
 20
13.5370897997
 30
0.0
 11
29.3810796712
 21
13.5310483797
 31
0.0
  0
LINE
  5
2B3
330
1F
100
AcDbEntity
  8
0
  6
Continuous
 62
     7
370
    25
100
AcDbLine
 10
29.3915448516
 20
13.5738281647
 30
0.0
 11
29.7063487906
 21
13.392095719
 31
0.0
  0
LINE
  5
2B4
330
1F
100
AcDbEntity
  8
0
  6
Continuous
 62
     7
370
    25
100
AcDbLine
 10
29.3878398837
 20
13.7533689994
 30
0.0
 11
29.3457243322
 21
13.7290562091
 31
0.0
  0
LINE
  5
2B5
330
1F
100
AcDbEntity
  8
0
  6
Continuous
 62
     7
370
    25
100
AcDbLine
 10
29.3915448516
 20
13.7146874263
 30
0.0
 11
29.3810796712
 21
13.7086460063
 31
0.0
  0
LINE
  5
2B6
330
1F
100
AcDbEntity
  8
0
  6
Continuous
 62
     7
370
    25
100
AcDbLine
 10
29.3915448516
 20
13.5370897997
 30
0.0
 11
29.3915448516
 21
13.7146874263
 31
0.0
  0
LINE
  5
2B7
330
1F
100
AcDbEntity
  8
0
  6
Continuous
 62
     7
370
    25
100
AcDbLine
 10
29.3915448516
 20
13.7146874263
 30
0.0
 11
29.3915448516
 21
13.751230167
 31
0.0
  0
LINE
  5
2B8
330
1F
100
AcDbEntity
  8
0
  6
Continuous
 62
     7
370
    25
100
AcDbLine
 10
29.3915448516
 20
12.9777593436
 30
0.0
 11
29.3810796712
 21
12.9717179235
 31
0.0
  0
LINE
  5
2B9
330
1F
100
AcDbEntity
  8
0
  6
Continuous
 62
     7
370
    25
100
AcDbLine
 10
29.3915448516
 20
13.0144977086
 30
0.0
 11
29.7063487906
 21
12.8327652629
 31
0.0
  0
LINE
  5
2BA
330
1F
100
AcDbEntity
  8
0
  6
Continuous
 62
     7
370
    25
100
AcDbLine
 10
29.3915448516
 20
13.3240080787
 30
0.0
 11
29.3915448516
 21
13.4515182866
 31
0.0
  0
LINE
  5
2BB
330
1F
100
AcDbEntity
  8
0
  6
Continuous
 62
     7
370
    25
100
AcDbLine
 10
28.6137273923
 20
13.9861142612
 30
0.0
 11
28.6032622119
 21
13.9800728412
 31
0.0
  0
LINE
  5
2BC
330
1F
100
AcDbEntity
  8
0
  6
Continuous
 62
     7
370
    25
100
AcDbLine
 10
28.6137273923
 20
14.0228526262
 30
0.0
 11
28.9285313313
 21
13.8411201806
 31
0.0
  0
LINE
  5
2BD
330
1F
100
AcDbEntity
  8
0
  6
Continuous
 62
     7
370
    25
100
AcDbLine
 10
29.3878398837
 20
13.1940385433
 30
0.0
 11
29.3457243322
 21
13.1697257529
 31
0.0
  0
LINE
  5
2BE
330
1F
100
AcDbEntity
  8
0
  6
Continuous
 62
     7
370
    25
100
AcDbLine
 10
29.3915448516
 20
13.1553569702
 30
0.0
 11
29.3915448516
 21
13.1918997108
 31
0.0
  0
LINE
  5
2BF
330
1F
100
AcDbEntity
  8
0
  6
Continuous
 62
     7
370
    25
100
AcDbLine
 10
29.3915448516
 20
13.1553569702
 30
0.0
 11
29.3810796712
 21
13.1493155501
 31
0.0
  0
LINE
  5
2C0
330
1F
100
AcDbEntity
  8
0
  6
Continuous
 62
     7
370
    25
100
AcDbLine
 10
29.3915448516
 20
12.9777593436
 30
0.0
 11
29.3915448516
 21
13.1553569702
 31
0.0
  0
LINE
  5
2C1
330
1F
100
AcDbEntity
  8
0
  6
Continuous
 62
     7
370
    25
100
AcDbLine
 10
28.6100224244
 20
14.2023934609
 30
0.0
 11
28.5679068729
 21
14.1780806706
 31
0.0
  0
LINE
  5
2C2
330
1F
100
AcDbEntity
  8
0
  6
Continuous
 62
     7
370
    25
100
AcDbLine
 10
28.6137273923
 20
14.1637118878
 30
0.0
 11
28.6137273923
 21
14.2002546285
 31
0.0
  0
LINE
  5
2C3
330
1F
100
AcDbEntity
  8
0
  6
Continuous
 62
     7
370
    25
100
AcDbLine
 10
28.6137273923
 20
14.1637118878
 30
0.0
 11
28.6032622119
 21
14.1576704678
 31
0.0
  0
LINE
  5
2C4
330
1F
100
AcDbEntity
  8
0
  6
Continuous
 62
     7
370
    25
100
AcDbLine
 10
28.6137273923
 20
13.9861142612
 30
0.0
 11
28.6137273923
 21
14.1637118878
 31
0.0
  0
LINE
  5
2C5
330
1F
100
AcDbEntity
  8
0
  6
Continuous
 62
     7
370
    25
100
AcDbLine
 10
28.6137273923
 20
13.4267838051
 30
0.0
 11
28.6032622119
 21
13.420742385
 31
0.0
  0
LINE
  5
2C6
330
1F
100
AcDbEntity
  8
0
  6
Continuous
 62
     7
370
    25
100
AcDbLine
 10
28.6137273923
 20
13.4635221701
 30
0.0
 11
28.9285313313
 21
13.2817897244
 31
0.0
  0
LINE
  5
2C7
330
1F
100
AcDbEntity
  8
0
  6
Continuous
 62
     7
370
    25
100
AcDbLine
 10
28.6137273923
 20
13.7730325402
 30
0.0
 11
28.6137273923
 21
13.9005427481
 31
0.0
  0
LINE
  5
2C8
330
1F
100
AcDbEntity
  8
0
  6
Continuous
 62
     7
370
    25
100
AcDbLine
 10
27.835909933
 20
14.4351387227
 30
0.0
 11
27.8254447526
 21
14.4290973027
 31
0.0
  0
LINE
  5
2C9
330
1F
100
AcDbEntity
  8
0
  6
Continuous
 62
     7
370
    25
100
AcDbLine
 10
27.835909933
 20
14.4718770877
 30
0.0
 11
28.150713872
 21
14.2901446421
 31
0.0
  0
LINE
  5
2CA
330
1F
100
AcDbEntity
  8
0
  6
Continuous
 62
     7
370
    25
100
AcDbLine
 10
28.6100224244
 20
13.6430630048
 30
0.0
 11
28.5679068729
 21
13.6187502144
 31
0.0
  0
LINE
  5
2CB
330
1F
100
AcDbEntity
  8
0
  6
Continuous
 62
     7
370
    25
100
AcDbLine
 10
28.6137273923
 20
13.6043814317
 30
0.0
 11
28.6032622119
 21
13.5983400116
 31
0.0
  0
LINE
  5
2CC
330
1F
100
AcDbEntity
  8
0
  6
Continuous
 62
     7
370
    25
100
AcDbLine
 10
28.6137273923
 20
13.4267838051
 30
0.0
 11
28.6137273923
 21
13.6043814317
 31
0.0
  0
LINE
  5
2CD
330
1F
100
AcDbEntity
  8
0
  6
Continuous
 62
     7
370
    25
100
AcDbLine
 10
28.6137273923
 20
13.6043814317
 30
0.0
 11
28.6137273923
 21
13.6409241723
 31
0.0
  0
LINE
  5
2CE
330
1F
100
AcDbEntity
  8
0
  6
Continuous
 62
     7
370
    25
100
AcDbLine
 10
27.8322049651
 20
14.6514179224
 30
0.0
 11
27.7900894136
 21
14.6271051321
 31
0.0
  0
LINE
  5
2CF
330
1F
100
AcDbEntity
  8
0
  6
Continuous
 62
     7
370
    25
100
AcDbLine
 10
27.835909933
 20
14.6127363493
 30
0.0
 11
27.835909933
 21
14.64927909
 31
0.0
  0
LINE
  5
2D0
330
1F
100
AcDbEntity
  8
0
  6
Continuous
 62
     7
370
    25
100
AcDbLine
 10
27.835909933
 20
14.6127363493
 30
0.0
 11
27.8254447526
 21
14.6066949293
 31
0.0
  0
LINE
  5
2D1
330
1F
100
AcDbEntity
  8
0
  6
Continuous
 62
     7
370
    25
100
AcDbLine
 10
27.835909933
 20
14.4351387227
 30
0.0
 11
27.835909933
 21
14.6127363493
 31
0.0
  0
LINE
  5
2D2
330
1F
100
AcDbEntity
  8
0
  6
Continuous
 62
     7
370
    25
100
AcDbLine
 10
27.835909933
 20
13.8758082666
 30
0.0
 11
27.8254447526
 21
13.8697668465
 31
0.0
  0
LINE
  5
2D3
330
1F
100
AcDbEntity
  8
0
  6
Continuous
 62
     7
370
    25
100
AcDbLine
 10
27.835909933
 20
13.9125466316
 30
0.0
 11
28.150713872
 21
13.7308141859
 31
0.0
  0
LINE
  5
2D4
330
1F
100
AcDbEntity
  8
0
  6
Continuous
 62
     7
370
    25
100
AcDbLine
 10
27.835909933
 20
14.2220570017
 30
0.0
 11
27.835909933
 21
14.3495672096
 31
0.0
  0
LINE
  5
2D5
330
1F
100
AcDbEntity
  8
0
  6
Continuous
 62
     7
370
    25
100
AcDbLine
 10
27.0580924737
 20
14.8841631842
 30
0.0
 11
27.0476272933
 21
14.8781217642
 31
0.0
  0
LINE
  5
2D6
330
1F
100
AcDbEntity
  8
0
  6
Continuous
 62
     7
370
    25
100
AcDbLine
 10
27.0580924737
 20
14.9209015492
 30
0.0
 11
27.3728964127
 21
14.7391691036
 31
0.0
  0
LINE
  5
2D7
330
1F
100
AcDbEntity
  8
0
  6
Continuous
 62
     7
370
    25
100
AcDbLine
 10
27.8322049651
 20
14.0920874663
 30
0.0
 11
27.7900894136
 21
14.0677746759
 31
0.0
  0
LINE
  5
2D8
330
1F
100
AcDbEntity
  8
0
  6
Continuous
 62
     7
370
    25
100
AcDbLine
 10
27.835909933
 20
14.0534058932
 30
0.0
 11
27.835909933
 21
14.0899486338
 31
0.0
  0
LINE
  5
2D9
330
1F
100
AcDbEntity
  8
0
  6
Continuous
 62
     7
370
    25
100
AcDbLine
 10
27.835909933
 20
14.0534058932
 30
0.0
 11
27.8254447526
 21
14.0473644731
 31
0.0
  0
LINE
  5
2DA
330
1F
100
AcDbEntity
  8
0
  6
Continuous
 62
     7
370
    25
100
AcDbLine
 10
27.835909933
 20
13.8758082666
 30
0.0
 11
27.835909933
 21
14.0534058932
 31
0.0
  0
LINE
  5
2DB
330
1F
100
AcDbEntity
  8
0
  6
Continuous
 62
     7
370
    25
100
AcDbLine
 10
27.0543875058
 20
15.1004423839
 30
0.0
 11
27.0122719543
 21
15.0761295936
 31
0.0
  0
LINE
  5
2DC
330
1F
100
AcDbEntity
  8
0
  6
Continuous
 62
     7
370
    25
100
AcDbLine
 10
27.0580924737
 20
15.0617608108
 30
0.0
 11
27.0580924737
 21
15.0983035515
 31
0.0
  0
LINE
  5
2DD
330
1F
100
AcDbEntity
  8
0
  6
Continuous
 62
     7
370
    25
100
AcDbLine
 10
27.0580924737
 20
15.0617608108
 30
0.0
 11
27.0476272933
 21
15.0557193908
 31
0.0
  0
LINE
  5
2DE
330
1F
100
AcDbEntity
  8
0
  6
Continuous
 62
     7
370
    25
100
AcDbLine
 10
27.0580924737
 20
14.8841631842
 30
0.0
 11
27.0580924737
 21
15.0617608108
 31
0.0
  0
LINE
  5
2DF
330
1F
100
AcDbEntity
  8
0
  6
Continuous
 62
     7
370
    25
100
AcDbLine
 10
27.0580924737
 20
14.3248327281
 30
0.0
 11
27.0476272933
 21
14.318791308
 31
0.0
  0
LINE
  5
2E0
330
1F
100
AcDbEntity
  8
0
  6
Continuous
 62
     7
370
    25
100
AcDbLine
 10
27.0580924737
 20
14.3615710931
 30
0.0
 11
27.3728964127
 21
14.1798386474
 31
0.0
  0
LINE
  5
2E1
330
1F
100
AcDbEntity
  8
0
  6
Continuous
 62
     7
370
    25
100
AcDbLine
 10
27.0580924737
 20
14.6710814632
 30
0.0
 11
27.0580924737
 21
14.7985916711
 31
0.0
  0
LINE
  5
2E2
330
1F
100
AcDbEntity
  8
0
  6
Continuous
 62
     7
370
    25
100
AcDbLine
 10
26.2802750144
 20
15.3331876457
 30
0.0
 11
26.269809834
 21
15.3271462257
 31
0.0
  0
LINE
  5
2E3
330
1F
100
AcDbEntity
  8
0
  6
Continuous
 62
     7
370
    25
100
AcDbLine
 10
26.2802750144
 20
15.3699260108
 30
0.0
 11
26.5950789534
 21
15.1881935651
 31
0.0
  0
LINE
  5
2E4
330
1F
100
AcDbEntity
  8
0
  6
Continuous
 62
     7
370
    25
100
AcDbLine
 10
27.0543875058
 20
14.5411119278
 30
0.0
 11
27.0122719543
 21
14.5167991374
 31
0.0
  0
LINE
  5
2E5
330
1F
100
AcDbEntity
  8
0
  6
Continuous
 62
     7
370
    25
100
AcDbLine
 10
27.0580924737
 20
14.5024303547
 30
0.0
 11
27.0580924737
 21
14.5389730953
 31
0.0
  0
LINE
  5
2E6
330
1F
100
AcDbEntity
  8
0
  6
Continuous
 62
     7
370
    25
100
AcDbLine
 10
27.0580924737
 20
14.5024303547
 30
0.0
 11
27.0476272933
 21
14.4963889346
 31
0.0
  0
LINE
  5
2E7
330
1F
100
AcDbEntity
  8
0
  6
Continuous
 62
     7
370
    25
100
AcDbLine
 10
27.0580924737
 20
14.3248327281
 30
0.0
 11
27.0580924737
 21
14.5024303547
 31
0.0
  0
LINE
  5
2E8
330
1F
100
AcDbEntity
  8
0
  6
Continuous
 62
     7
370
    25
100
AcDbLine
 10
26.2765700464
 20
15.5494668454
 30
0.0
 11
26.234454495
 21
15.5251540551
 31
0.0
  0
LINE
  5
2E9
330
1F
100
AcDbEntity
  8
0
  6
Continuous
 62
     7
370
    25
100
AcDbLine
 10
26.2802750144
 20
15.5107852723
 30
0.0
 11
26.2802750144
 21
15.547328013
 31
0.0
  0
LINE
  5
2EA
330
1F
100
AcDbEntity
  8
0
  6
Continuous
 62
     7
370
    25
100
AcDbLine
 10
26.2802750144
 20
15.5107852723
 30
0.0
 11
26.269809834
 21
15.5047438523
 31
0.0
  0
LINE
  5
2EB
330
1F
100
AcDbEntity
  8
0
  6
Continuous
 62
     7
370
    25
100
AcDbLine
 10
26.2802750144
 20
15.3331876457
 30
0.0
 11
26.2802750144
 21
15.5107852723
 31
0.0
  0
LINE
  5
2EC
330
1F
100
AcDbEntity
  8
0
  6
Continuous
 62
     7
370
    25
100
AcDbLine
 10
26.2802750144
 20
14.7738571896
 30
0.0
 11
26.269809834
 21
14.7678157696
 31
0.0
  0
LINE
  5
2ED
330
1F
100
AcDbEntity
  8
0
  6
Continuous
 62
     7
370
    25
100
AcDbLine
 10
26.2802750144
 20
14.8105955546
 30
0.0
 11
26.5950789534
 21
14.6288631089
 31
0.0
  0
LINE
  5
2EE
330
1F
100
AcDbEntity
  8
0
  6
Continuous
 62
     7
370
    25
100
AcDbLine
 10
26.2802750144
 20
15.1201059247
 30
0.0
 11
26.2802750144
 21
15.2476161326
 31
0.0
  0
LINE
  5
2EF
330
1F
100
AcDbEntity
  8
0
  6
Continuous
 62
     7
370
    25
100
AcDbLine
 10
25.5024575551
 20
15.7822121072
 30
0.0
 11
25.4919923747
 21
15.7761706872
 31
0.0
  0
LINE
  5
2F0
330
1F
100
AcDbEntity
  8
0
  6
Continuous
 62
     7
370
    25
100
AcDbLine
 10
25.5024575551
 20
15.8189504723
 30
0.0
 11
25.8172614941
 21
15.6372180266
 31
0.0
  0
LINE
  5
2F1
330
1F
100
AcDbEntity
  8
0
  6
Continuous
 62
     7
370
    25
100
AcDbLine
 10
26.2765700464
 20
14.9901363893
 30
0.0
 11
26.234454495
 21
14.9658235989
 31
0.0
  0
LINE
  5
2F2
330
1F
100
AcDbEntity
  8
0
  6
Continuous
 62
     7
370
    25
100
AcDbLine
 10
26.2802750144
 20
14.9514548162
 30
0.0
 11
26.269809834
 21
14.9454133961
 31
0.0
  0
LINE
  5
2F3
330
1F
100
AcDbEntity
  8
0
  6
Continuous
 62
     7
370
    25
100
AcDbLine
 10
26.2802750144
 20
14.7738571896
 30
0.0
 11
26.2802750144
 21
14.9514548162
 31
0.0
  0
LINE
  5
2F4
330
1F
100
AcDbEntity
  8
0
  6
Continuous
 62
     7
370
    25
100
AcDbLine
 10
26.2802750144
 20
14.9514548162
 30
0.0
 11
26.2802750144
 21
14.9879975568
 31
0.0
  0
LINE
  5
2F5
330
1F
100
AcDbEntity
  8
0
  6
Continuous
 62
     7
370
    25
100
AcDbLine
 10
25.4987525871
 20
15.9984913069
 30
0.0
 11
25.4566370356
 21
15.9741785166
 31
0.0
  0
LINE
  5
2F6
330
1F
100
AcDbEntity
  8
0
  6
Continuous
 62
     7
370
    25
100
AcDbLine
 10
25.5024575551
 20
15.9598097338
 30
0.0
 11
25.5024575551
 21
15.9963524745
 31
0.0
  0
LINE
  5
2F7
330
1F
100
AcDbEntity
  8
0
  6
Continuous
 62
     7
370
    25
100
AcDbLine
 10
25.5024575551
 20
15.9598097338
 30
0.0
 11
25.4919923747
 21
15.9537683138
 31
0.0
  0
LINE
  5
2F8
330
1F
100
AcDbEntity
  8
0
  6
Continuous
 62
     7
370
    25
100
AcDbLine
 10
25.5024575551
 20
15.7822121072
 30
0.0
 11
25.5024575551
 21
15.9598097338
 31
0.0
  0
LINE
  5
2F9
330
1F
100
AcDbEntity
  8
0
  6
Continuous
 62
     7
370
    25
100
AcDbLine
 10
25.5024575551
 20
15.2228816511
 30
0.0
 11
25.4919923747
 21
15.2168402311
 31
0.0
  0
LINE
  5
2FA
330
1F
100
AcDbEntity
  8
0
  6
Continuous
 62
     7
370
    25
100
AcDbLine
 10
25.5024575551
 20
15.2596200161
 30
0.0
 11
25.8172614941
 21
15.0778875704
 31
0.0
  0
LINE
  5
2FB
330
1F
100
AcDbEntity
  8
0
  6
Continuous
 62
     7
370
    25
100
AcDbLine
 10
25.5024575551
 20
15.5691303862
 30
0.0
 11
25.5024575551
 21
15.6966405941
 31
0.0
  0
LINE
  5
2FC
330
1F
100
AcDbEntity
  8
0
  6
Continuous
 62
     7
370
    25
100
AcDbLine
 10
25.4987525871
 20
15.4391608508
 30
0.0
 11
25.4566370356
 21
15.4148480604
 31
0.0
  0
LINE
  5
2FD
330
1F
100
AcDbEntity
  8
0
  6
Continuous
 62
     7
370
    25
100
AcDbLine
 10
25.5024575551
 20
15.4004792777
 30
0.0
 11
25.4919923747
 21
15.3944378576
 31
0.0
  0
LINE
  5
2FE
330
1F
100
AcDbEntity
  8
0
  6
Continuous
 62
     7
370
    25
100
AcDbLine
 10
25.5024575551
 20
15.2228816511
 30
0.0
 11
25.5024575551
 21
15.4004792777
 31
0.0
  0
LINE
  5
2FF
330
1F
100
AcDbEntity
  8
0
  6
Continuous
 62
     7
370
    25
100
AcDbLine
 10
25.5024575551
 20
15.4004792777
 30
0.0
 11
25.5024575551
 21
15.4370220183
 31
0.0
  0
LINE
  5
300
330
1F
100
AcDbEntity
  8
0
  6
Continuous
 62
     7
370
    25
100
AcDbLine
 10
24.3215892305
 20
16.4639128806
 30
0.0
 11
24.3111240501
 21
16.4578714606
 31
0.0
  0
LINE
  5
301
330
1F
100
AcDbEntity
  8
0
  6
Continuous
 62
     7
370
    25
100
AcDbLine
 10
24.3215892305
 20
16.5006512456
 30
0.0
 11
24.6363931695
 21
16.3189187999
 31
0.0
  0
LINE
  5
302
330
1F
100
AcDbEntity
  8
0
  6
Continuous
 62
     7
370
    25
100
AcDbLine
 10
24.3178842626
 20
16.6801920803
 30
0.0
 11
24.2757687111
 21
16.6558792899
 31
0.0
  0
LINE
  5
303
330
1F
100
AcDbEntity
  8
0
  6
Continuous
 62
     7
370
    25
100
AcDbLine
 10
24.3215892305
 20
16.6415105072
 30
0.0
 11
24.3111240501
 21
16.6354690872
 31
0.0
  0
LINE
  5
304
330
1F
100
AcDbEntity
  8
0
  6
Continuous
 62
     7
370
    25
100
AcDbLine
 10
24.3215892305
 20
16.4639128806
 30
0.0
 11
24.3215892305
 21
16.6415105072
 31
0.0
  0
LINE
  5
305
330
1F
100
AcDbEntity
  8
0
  6
Continuous
 62
     7
370
    25
100
AcDbLine
 10
24.3215892305
 20
16.6415105072
 30
0.0
 11
24.3215892305
 21
16.6780532479
 31
0.0
  0
LINE
  5
306
330
1F
100
AcDbEntity
  8
0
  6
Continuous
 62
     7
370
    25
100
AcDbLine
 10
24.3215892305
 20
15.9045824245
 30
0.0
 11
24.3111240501
 21
15.8985410044
 31
0.0
  0
LINE
  5
307
330
1F
100
AcDbEntity
  8
0
  6
Continuous
 62
     7
370
    25
100
AcDbLine
 10
24.3215892305
 20
15.9413207895
 30
0.0
 11
24.6363931695
 21
15.7595883438
 31
0.0
  0
LINE
  5
308
330
1F
100
AcDbEntity
  8
0
  6
Continuous
 62
     7
370
    25
100
AcDbLine
 10
24.3215892305
 20
16.2508311596
 30
0.0
 11
24.3215892305
 21
16.3783413675
 31
0.0
  0
LINE
  5
309
330
1F
100
AcDbEntity
  8
0
  6
Continuous
 62
     7
370
    25
100
AcDbLine
 10
23.5437717712
 20
16.9129373421
 30
0.0
 11
23.5333065908
 21
16.9068959221
 31
0.0
  0
LINE
  5
30A
330
1F
100
AcDbEntity
  8
0
  6
Continuous
 62
     7
370
    25
100
AcDbLine
 10
23.5437717712
 20
16.9496757071
 30
0.0
 11
23.8585757102
 21
16.7679432614
 31
0.0
  0
LINE
  5
30B
330
1F
100
AcDbEntity
  8
0
  6
Continuous
 62
     7
370
    25
100
AcDbLine
 10
24.3178842626
 20
16.1208616242
 30
0.0
 11
24.2757687111
 21
16.0965488338
 31
0.0
  0
LINE
  5
30C
330
1F
100
AcDbEntity
  8
0
  6
Continuous
 62
     7
370
    25
100
AcDbLine
 10
24.3215892305
 20
16.082180051
 30
0.0
 11
24.3215892305
 21
16.1187227917
 31
0.0
  0
LINE
  5
30D
330
1F
100
AcDbEntity
  8
0
  6
Continuous
 62
     7
370
    25
100
AcDbLine
 10
24.3215892305
 20
16.082180051
 30
0.0
 11
24.3111240501
 21
16.076138631
 31
0.0
  0
LINE
  5
30E
330
1F
100
AcDbEntity
  8
0
  6
Continuous
 62
     7
370
    25
100
AcDbLine
 10
24.3215892305
 20
15.9045824245
 30
0.0
 11
24.3215892305
 21
16.082180051
 31
0.0
  0
LINE
  5
30F
330
1F
100
AcDbEntity
  8
0
  6
Continuous
 62
     7
370
    25
100
AcDbLine
 10
23.5400668033
 20
17.1292165418
 30
0.0
 11
23.4979512518
 21
17.1049037514
 31
0.0
  0
LINE
  5
310
330
1F
100
AcDbEntity
  8
0
  6
Continuous
 62
     7
370
    25
100
AcDbLine
 10
23.5437717712
 20
17.0905349687
 30
0.0
 11
23.5437717712
 21
17.1270777094
 31
0.0
  0
LINE
  5
311
330
1F
100
AcDbEntity
  8
0
  6
Continuous
 62
     7
370
    25
100
AcDbLine
 10
23.5437717712
 20
17.0905349687
 30
0.0
 11
23.5333065908
 21
17.0844935487
 31
0.0
  0
LINE
  5
312
330
1F
100
AcDbEntity
  8
0
  6
Continuous
 62
     7
370
    25
100
AcDbLine
 10
23.5437717712
 20
16.9129373421
 30
0.0
 11
23.5437717712
 21
17.0905349687
 31
0.0
  0
LINE
  5
313
330
1F
100
AcDbEntity
  8
0
  6
Continuous
 62
     7
370
    25
100
AcDbLine
 10
23.5437717712
 20
16.353606886
 30
0.0
 11
23.5333065908
 21
16.3475654659
 31
0.0
  0
LINE
  5
314
330
1F
100
AcDbEntity
  8
0
  6
Continuous
 62
     7
370
    25
100
AcDbLine
 10
23.5437717712
 20
16.390345251
 30
0.0
 11
23.8585757102
 21
16.2086128053
 31
0.0
  0
LINE
  5
315
330
1F
100
AcDbEntity
  8
0
  6
Continuous
 62
     7
370
    25
100
AcDbLine
 10
23.5437717712
 20
16.6998556211
 30
0.0
 11
23.5437717712
 21
16.827365829
 31
0.0
  0
LINE
  5
316
330
1F
100
AcDbEntity
  8
0
  6
Continuous
 62
     7
370
    25
100
AcDbLine
 10
22.7659543119
 20
17.3619618036
 30
0.0
 11
22.7554891315
 21
17.3559203836
 31
0.0
  0
LINE
  5
317
330
1F
100
AcDbEntity
  8
0
  6
Continuous
 62
     7
370
    25
100
AcDbLine
 10
22.7659543119
 20
17.3987001686
 30
0.0
 11
23.0807582509
 21
17.2169677229
 31
0.0
  0
LINE
  5
318
330
1F
100
AcDbEntity
  8
0
  6
Continuous
 62
     7
370
    25
100
AcDbLine
 10
23.5400668033
 20
16.5698860857
 30
0.0
 11
23.4979512518
 21
16.5455732953
 31
0.0
  0
LINE
  5
319
330
1F
100
AcDbEntity
  8
0
  6
Continuous
 62
     7
370
    25
100
AcDbLine
 10
23.5437717712
 20
16.5312045125
 30
0.0
 11
23.5333065908
 21
16.5251630925
 31
0.0
  0
LINE
  5
31A
330
1F
100
AcDbEntity
  8
0
  6
Continuous
 62
     7
370
    25
100
AcDbLine
 10
23.5437717712
 20
16.353606886
 30
0.0
 11
23.5437717712
 21
16.5312045125
 31
0.0
  0
LINE
  5
31B
330
1F
100
AcDbEntity
  8
0
  6
Continuous
 62
     7
370
    25
100
AcDbLine
 10
23.5437717712
 20
16.5312045125
 30
0.0
 11
23.5437717712
 21
16.5677472532
 31
0.0
  0
LINE
  5
31C
330
1F
100
AcDbEntity
  8
0
  6
Continuous
 62
     7
370
    25
100
AcDbLine
 10
22.7622493439
 20
17.5782410033
 30
0.0
 11
22.7201337925
 21
17.553928213
 31
0.0
  0
LINE
  5
31D
330
1F
100
AcDbEntity
  8
0
  6
Continuous
 62
     7
370
    25
100
AcDbLine
 10
22.7659543119
 20
17.5395594302
 30
0.0
 11
22.7554891315
 21
17.5335180102
 31
0.0
  0
LINE
  5
31E
330
1F
100
AcDbEntity
  8
0
  6
Continuous
 62
     7
370
    25
100
AcDbLine
 10
22.7659543119
 20
17.3619618036
 30
0.0
 11
22.7659543119
 21
17.5395594302
 31
0.0
  0
LINE
  5
31F
330
1F
100
AcDbEntity
  8
0
  6
Continuous
 62
     7
370
    25
100
AcDbLine
 10
22.7659543119
 20
17.5395594302
 30
0.0
 11
22.7659543119
 21
17.5761021709
 31
0.0
  0
LINE
  5
320
330
1F
100
AcDbEntity
  8
0
  6
Continuous
 62
     7
370
    25
100
AcDbLine
 10
22.7659543119
 20
16.8026313475
 30
0.0
 11
22.7554891315
 21
16.7965899274
 31
0.0
  0
LINE
  5
321
330
1F
100
AcDbEntity
  8
0
  6
Continuous
 62
     7
370
    25
100
AcDbLine
 10
22.7659543119
 20
16.8393697125
 30
0.0
 11
23.0807582509
 21
16.6576372668
 31
0.0
  0
LINE
  5
322
330
1F
100
AcDbEntity
  8
0
  6
Continuous
 62
     7
370
    25
100
AcDbLine
 10
22.7659543119
 20
17.1488800826
 30
0.0
 11
22.7659543119
 21
17.2763902905
 31
0.0
  0
LINE
  5
323
330
1F
100
AcDbEntity
  8
0
  6
Continuous
 62
     7
370
    25
100
AcDbLine
 10
21.9881368526
 20
17.8109862651
 30
0.0
 11
21.9776716722
 21
17.8049448451
 31
0.0
  0
LINE
  5
324
330
1F
100
AcDbEntity
  8
0
  6
Continuous
 62
     7
370
    25
100
AcDbLine
 10
21.9881368526
 20
17.8477246301
 30
0.0
 11
22.3029407916
 21
17.6659921844
 31
0.0
  0
LINE
  5
325
330
1F
100
AcDbEntity
  8
0
  6
Continuous
 62
     7
370
    25
100
AcDbLine
 10
22.7622493439
 20
17.0189105472
 30
0.0
 11
22.7201337925
 21
16.9945977568
 31
0.0
  0
LINE
  5
326
330
1F
100
AcDbEntity
  8
0
  6
Continuous
 62
     7
370
    25
100
AcDbLine
 10
22.7659543119
 20
16.980228974
 30
0.0
 11
22.7659543119
 21
17.0167717147
 31
0.0
  0
LINE
  5
327
330
1F
100
AcDbEntity
  8
0
  6
Continuous
 62
     7
370
    25
100
AcDbLine
 10
22.7659543119
 20
16.980228974
 30
0.0
 11
22.7554891315
 21
16.974187554
 31
0.0
  0
LINE
  5
328
330
1F
100
AcDbEntity
  8
0
  6
Continuous
 62
     7
370
    25
100
AcDbLine
 10
22.7659543119
 20
16.8026313475
 30
0.0
 11
22.7659543119
 21
16.980228974
 31
0.0
  0
LINE
  5
329
330
1F
100
AcDbEntity
  8
0
  6
Continuous
 62
     7
370
    25
100
AcDbLine
 10
21.9844318846
 20
18.0272654648
 30
0.0
 11
21.9423163332
 21
18.0029526745
 31
0.0
  0
LINE
  5
32A
330
1F
100
AcDbEntity
  8
0
  6
Continuous
 62
     7
370
    25
100
AcDbLine
 10
21.9881368526
 20
17.9885838917
 30
0.0
 11
21.9881368526
 21
18.0251266324
 31
0.0
  0
LINE
  5
32B
330
1F
100
AcDbEntity
  8
0
  6
Continuous
 62
     7
370
    25
100
AcDbLine
 10
21.9881368526
 20
17.9885838917
 30
0.0
 11
21.9776716722
 21
17.9825424717
 31
0.0
  0
LINE
  5
32C
330
1F
100
AcDbEntity
  8
0
  6
Continuous
 62
     7
370
    25
100
AcDbLine
 10
21.9881368526
 20
17.8109862651
 30
0.0
 11
21.9881368526
 21
17.9885838917
 31
0.0
  0
LINE
  5
32D
330
1F
100
AcDbEntity
  8
0
  6
Continuous
 62
     7
370
    25
100
AcDbLine
 10
21.9881368526
 20
17.251655809
 30
0.0
 11
21.9776716722
 21
17.2456143889
 31
0.0
  0
LINE
  5
32E
330
1F
100
AcDbEntity
  8
0
  6
Continuous
 62
     7
370
    25
100
AcDbLine
 10
21.9881368526
 20
17.288394174
 30
0.0
 11
22.3029407916
 21
17.1066617283
 31
0.0
  0
LINE
  5
32F
330
1F
100
AcDbEntity
  8
0
  6
Continuous
 62
     7
370
    25
100
AcDbLine
 10
21.9881368526
 20
17.5979045441
 30
0.0
 11
21.9881368526
 21
17.725414752
 31
0.0
  0
LINE
  5
330
330
1F
100
AcDbEntity
  8
0
  6
Continuous
 62
     7
370
    25
100
AcDbLine
 10
21.2103193933
 20
18.2600107266
 30
0.0
 11
21.1998542129
 21
18.2539693066
 31
0.0
  0
LINE
  5
331
330
1F
100
AcDbEntity
  8
0
  6
Continuous
 62
     7
370
    25
100
AcDbLine
 10
21.2103193933
 20
18.2967490916
 30
0.0
 11
21.5251233323
 21
18.1150166459
 31
0.0
  0
LINE
  5
332
330
1F
100
AcDbEntity
  8
0
  6
Continuous
 62
     7
370
    25
100
AcDbLine
 10
21.9844318846
 20
17.4679350087
 30
0.0
 11
21.9423163332
 21
17.4436222183
 31
0.0
  0
LINE
  5
333
330
1F
100
AcDbEntity
  8
0
  6
Continuous
 62
     7
370
    25
100
AcDbLine
 10
21.9881368526
 20
17.4292534355
 30
0.0
 11
21.9776716722
 21
17.4232120155
 31
0.0
  0
LINE
  5
334
330
1F
100
AcDbEntity
  8
0
  6
Continuous
 62
     7
370
    25
100
AcDbLine
 10
21.9881368526
 20
17.251655809
 30
0.0
 11
21.9881368526
 21
17.4292534355
 31
0.0
  0
LINE
  5
335
330
1F
100
AcDbEntity
  8
0
  6
Continuous
 62
     7
370
    25
100
AcDbLine
 10
21.9881368526
 20
17.4292534355
 30
0.0
 11
21.9881368526
 21
17.4657961762
 31
0.0
  0
LINE
  5
336
330
1F
100
AcDbEntity
  8
0
  6
Continuous
 62
     7
370
    25
100
AcDbLine
 10
21.2066144253
 20
18.4762899263
 30
0.0
 11
21.1644988738
 21
18.451977136
 31
0.0
  0
LINE
  5
337
330
1F
100
AcDbEntity
  8
0
  6
Continuous
 62
     7
370
    25
100
AcDbLine
 10
21.2103193933
 20
18.4376083532
 30
0.0
 11
21.1998542129
 21
18.4315669332
 31
0.0
  0
LINE
  5
338
330
1F
100
AcDbEntity
  8
0
  6
Continuous
 62
     7
370
    25
100
AcDbLine
 10
21.2103193933
 20
18.2600107266
 30
0.0
 11
21.2103193933
 21
18.4376083532
 31
0.0
  0
LINE
  5
339
330
1F
100
AcDbEntity
  8
0
  6
Continuous
 62
     7
370
    25
100
AcDbLine
 10
21.2103193933
 20
18.4376083532
 30
0.0
 11
21.2103193933
 21
18.4741510939
 31
0.0
  0
LINE
  5
33A
330
1F
100
AcDbEntity
  8
0
  6
Continuous
 62
     7
370
    25
100
AcDbLine
 10
21.2103193933
 20
17.7006802705
 30
0.0
 11
21.1998542129
 21
17.6946388504
 31
0.0
  0
LINE
  5
33B
330
1F
100
AcDbEntity
  8
0
  6
Continuous
 62
     7
370
    25
100
AcDbLine
 10
21.2103193933
 20
17.7374186355
 30
0.0
 11
21.5251233323
 21
17.5556861898
 31
0.0
  0
LINE
  5
33C
330
1F
100
AcDbEntity
  8
0
  6
Continuous
 62
     7
370
    25
100
AcDbLine
 10
21.2103193933
 20
18.0469290056
 30
0.0
 11
21.2103193933
 21
18.1744392135
 31
0.0
  0
LINE
  5
33D
330
1F
100
AcDbEntity
  8
0
  6
Continuous
 62
     7
370
    25
100
AcDbLine
 10
20.432501934
 20
18.7090351881
 30
0.0
 11
20.4220367536
 21
18.7029937681
 31
0.0
  0
LINE
  5
33E
330
1F
100
AcDbEntity
  8
0
  6
Continuous
 62
     7
370
    25
100
AcDbLine
 10
20.432501934
 20
18.7457735531
 30
0.0
 11
20.7473058729
 21
18.5640411074
 31
0.0
  0
LINE
  5
33F
330
1F
100
AcDbEntity
  8
0
  6
Continuous
 62
     7
370
    25
100
AcDbLine
 10
21.2066144253
 20
17.9169594702
 30
0.0
 11
21.1644988738
 21
17.8926466798
 31
0.0
  0
LINE
  5
340
330
1F
100
AcDbEntity
  8
0
  6
Continuous
 62
     7
370
    25
100
AcDbLine
 10
21.2103193933
 20
17.878277897
 30
0.0
 11
21.1998542129
 21
17.872236477
 31
0.0
  0
LINE
  5
341
330
1F
100
AcDbEntity
  8
0
  6
Continuous
 62
     7
370
    25
100
AcDbLine
 10
21.2103193933
 20
17.7006802705
 30
0.0
 11
21.2103193933
 21
17.878277897
 31
0.0
  0
LINE
  5
342
330
1F
100
AcDbEntity
  8
0
  6
Continuous
 62
     7
370
    25
100
AcDbLine
 10
21.2103193933
 20
17.878277897
 30
0.0
 11
21.2103193933
 21
17.9148206377
 31
0.0
  0
LINE
  5
343
330
1F
100
AcDbEntity
  8
0
  6
Continuous
 62
     7
370
    25
100
AcDbLine
 10
20.428796966
 20
18.9253143878
 30
0.0
 11
20.3866814145
 21
18.9010015975
 31
0.0
  0
LINE
  5
344
330
1F
100
AcDbEntity
  8
0
  6
Continuous
 62
     7
370
    25
100
AcDbLine
 10
20.432501934
 20
18.8866328147
 30
0.0
 11
20.432501934
 21
18.9231755554
 31
0.0
  0
LINE
  5
345
330
1F
100
AcDbEntity
  8
0
  6
Continuous
 62
     7
370
    25
100
AcDbLine
 10
20.432501934
 20
18.8866328147
 30
0.0
 11
20.4220367536
 21
18.8805913947
 31
0.0
  0
LINE
  5
346
330
1F
100
AcDbEntity
  8
0
  6
Continuous
 62
     7
370
    25
100
AcDbLine
 10
20.432501934
 20
18.7090351881
 30
0.0
 11
20.432501934
 21
18.8866328147
 31
0.0
  0
LINE
  5
347
330
1F
100
AcDbEntity
  8
0
  6
Continuous
 62
     7
370
    25
100
AcDbLine
 10
20.432501934
 20
18.149704732
 30
0.0
 11
20.4220367536
 21
18.1436633119
 31
0.0
  0
LINE
  5
348
330
1F
100
AcDbEntity
  8
0
  6
Continuous
 62
     7
370
    25
100
AcDbLine
 10
20.432501934
 20
18.186443097
 30
0.0
 11
20.7473058729
 21
18.0047106513
 31
0.0
  0
LINE
  5
349
330
1F
100
AcDbEntity
  8
0
  6
Continuous
 62
     7
370
    25
100
AcDbLine
 10
20.432501934
 20
18.4959534671
 30
0.0
 11
20.432501934
 21
18.623463675
 31
0.0
  0
LINE
  5
34A
330
1F
100
AcDbEntity
  8
0
  6
Continuous
 62
     7
370
    25
100
AcDbLine
 10
20.428796966
 20
18.3659839317
 30
0.0
 11
20.3866814145
 21
18.3416711413
 31
0.0
  0
LINE
  5
34B
330
1F
100
AcDbEntity
  8
0
  6
Continuous
 62
     7
370
    25
100
AcDbLine
 10
20.432501934
 20
18.3273023585
 30
0.0
 11
20.432501934
 21
18.3638450992
 31
0.0
  0
LINE
  5
34C
330
1F
100
AcDbEntity
  8
0
  6
Continuous
 62
     7
370
    25
100
AcDbLine
 10
20.432501934
 20
18.3273023585
 30
0.0
 11
20.4220367536
 21
18.3212609385
 31
0.0
  0
LINE
  5
34D
330
1F
100
AcDbEntity
  8
0
  6
Continuous
 62
     7
370
    25
100
AcDbLine
 10
20.432501934
 20
18.149704732
 30
0.0
 11
20.432501934
 21
18.3273023585
 31
0.0
  0
LWPOLYLINE
  5
34E
330
1F
100
AcDbEntity
  8
0
  6
Continuous
 62
     7
370
    25
100
AcDbPolyline
 90
       17
 70
   128
 43
0.0
 10
29.9308551936
 20
14.0080613155
 10
29.9205584879
 20
14.0169573821
 10
29.9169427657
 20
14.0274510081
 10
29.9205584879
 20
14.0379446342
 10
29.9308551936
 20
14.0468407008
 10
29.9462653027
 20
14.0527848625
 10
29.9644427657
 20
14.0548721745
 10
29.9826202288
 20
14.0527848625
 10
29.9980303378
 20
14.0468407008
 10
30.0083270435
 20
14.0379446342
 10
30.0119427657
 20
14.0274510081
 10
30.0083270435
 20
14.0169573821
 10
29.9980303378
 20
14.0080613155
 10
29.9826202288
 20
14.0021171538
 10
29.9644427657
 20
14.0000298418
 10
29.9462653027
 20
14.0021171538
 10
29.9308551936
 20
14.0080613155
  0
LWPOLYLINE
  5
34F
330
1F
100
AcDbEntity
  8
0
  6
Continuous
 62
     7
370
    25
100
AcDbPolyline
 90
       20
 70
   128
 43
0.0
 10
20.5425984598
 20
19.7221016901
 10
20.5799719316
 20
19.7066972605
 10
20.6239847337
 20
19.6991329564
 10
20.669867396
 20
19.7002284874
 10
20.7126478201
 20
19.7098651357
 10
20.7476900833
 20
19.7269986211
 10
20.7711968126
 20
19.7497722644
 10
20.7806206891
 20
19.7757181882
 10
20.7749404896
 20
19.8020247488
 10
20.7547717518
 20
19.8258412224
 10
20.7223000715
 20
19.8445867245
 10
20.6810442591
 20
19.8562298889
 10
20.6354750219
 20
19.8595089983
 10
20.5905304939
 20
19.8540687102
 10
20.5510811121
 20
19.8404985642
 10
20.5214018291
 20
19.8202690963
 10
20.5047088558
 20
19.7955724831
 10
20.5028111349
 20
19.769084986
 10
20.5159143138
 20
19.7436769362
 10
20.5425984598
 20
19.7221016901
  0
LWPOLYLINE
  5
350
330
1F
100
AcDbEntity
  8
0
  6
Continuous
 62
     7
370
    25
100
AcDbPolyline
 90
       20
 70
   128
 43
0.0
 10
30.6117990239
 20
13.909275934
 10
30.6491724957
 20
13.8938715044
 10
30.6931852978
 20
13.8863072002
 10
30.7390679601
 20
13.8874027312
 10
30.7818483842
 20
13.8970393795
 10
30.8168906474
 20
13.9141728649
 10
30.8403973766
 20
13.9369465082
 10
30.8498212532
 20
13.962892432
 10
30.8441410537
 20
13.9891989927
 10
30.8239723159
 20
14.0130154662
 10
30.7915006356
 20
14.0317609683
 10
30.7502448231
 20
14.0434041327
 10
30.704675586
 20
14.0466832421
 10
30.659731058
 20
14.041242954
 10
30.6202816762
 20
14.027672808
 10
30.5906023932
 20
14.0074433401
 10
30.5739094199
 20
13.982746727
 10
30.572011699
 20
13.9562592298
 10
30.5851148779
 20
13.93085118
 10
30.6117990239
 20
13.909275934
  0
LINE
  5
351
330
1F
100
AcDbEntity
  8
0
  6
Continuous
 62
     7
370
    25
100
AcDbLine
 10
28.9179247296
 20
14.6458801528
 30
0.0
 11
28.9865140873
 21
14.6062843594
 31
0.0
  0
LINE
  5
352
330
1F
100
AcDbEntity
  8
0
  6
Continuous
 62
     7
370
    25
100
AcDbLine
 10
29.0487394841
 20
14.7213979032
 30
0.0
 11
28.9179247296
 21
14.6458801528
 31
0.0
  0
LINE
  5
353
330
1F
100
AcDbEntity
  8
0
  6
Continuous
 62
     7
370
    25
100
AcDbLine
 10
28.9992420094
 20
14.7499721871
 30
0.0
 11
29.0487394841
 21
14.7213979032
 31
0.0
  0
LINE
  5
354
330
1F
100
AcDbEntity
  8
0
  6
Continuous
 62
     7
370
    25
100
AcDbLine
 10
28.8224653141
 20
14.6479211731
 30
0.0
 11
28.9992420094
 21
14.7499721871
 31
0.0
  0
LINE
  5
355
330
1F
100
AcDbEntity
  8
0
  6
Continuous
 62
     7
370
    25
100
AcDbLine
 10
28.9405521466
 20
14.5797510958
 30
0.0
 11
28.8224653141
 21
14.6479211731
 31
0.0
  0
LINE
  5
356
330
1F
100
AcDbEntity
  8
0
  6
Continuous
 62
     7
370
    25
100
AcDbLine
 10
28.9865140873
 20
14.6062843594
 30
0.0
 11
28.9405521466
 21
14.5797510958
 31
0.0
  0
LINE
  5
357
330
1F
100
AcDbEntity
  8
0
  6
Continuous
 62
     7
370
    25
100
AcDbLine
 10
30.2600134002
 20
14.2531878511
 30
0.0
 11
30.0599021812
 21
14.1376661032
 31
0.0
  0
LINE
  5
358
330
1F
100
AcDbEntity
  8
0
  6
Continuous
 62
     7
370
    25
100
AcDbLine
 10
29.8949322077
 20
14.4639447374
 30
0.0
 11
30.2600134002
 21
14.2531878511
 31
0.0
  0
LINE
  5
359
330
1F
100
AcDbEntity
  8
0
  6
Continuous
 62
     7
370
    25
100
AcDbLine
 10
29.6948209887
 20
14.3484229896
 30
0.0
 11
29.8949322077
 21
14.4639447374
 31
0.0
  0
LINE
  5
35A
330
1F
100
AcDbEntity
  8
0
  6
Continuous
 62
     7
370
    25
100
AcDbLine
 10
29.5604707002
 20
14.4259817602
 30
0.0
 11
29.6948209887
 21
14.3484229896
 31
0.0
  0
LINE
  5
35B
330
1F
100
AcDbEntity
  8
0
  6
Continuous
 62
     7
370
    25
100
AcDbLine
 10
29.5145087595
 20
14.3994484966
 30
0.0
 11
29.5604707002
 21
14.4259817602
 31
0.0
  0
LINE
  5
35C
330
1F
100
AcDbEntity
  8
0
  6
Continuous
 62
     7
370
    25
100
AcDbLine
 10
29.5569351663
 20
14.3749562532
 30
0.0
 11
29.5145087595
 21
14.3994484966
 31
0.0
  0
LINE
  5
35D
330
1F
100
AcDbEntity
  8
0
  6
Continuous
 62
     7
370
    25
100
AcDbLine
 10
29.4261204118
 20
14.2994385029
 30
0.0
 11
29.5569351663
 21
14.3749562532
 31
0.0
  0
LINE
  5
35E
330
1F
100
AcDbEntity
  8
0
  6
Continuous
 62
     7
370
    25
100
AcDbLine
 10
29.4756178865
 20
14.270864219
 30
0.0
 11
29.4261204118
 21
14.2994385029
 31
0.0
  0
LINE
  5
35F
330
1F
100
AcDbEntity
  8
0
  6
Continuous
 62
     7
370
    25
100
AcDbLine
 10
29.606432641
 20
14.3463819693
 30
0.0
 11
29.4756178865
 21
14.270864219
 31
0.0
  0
LINE
  5
360
330
1F
100
AcDbEntity
  8
0
  6
Continuous
 62
     7
370
    25
100
AcDbLine
 10
29.6488590479
 20
14.321889726
 30
0.0
 11
29.606432641
 21
14.3463819693
 31
0.0
  0
LINE
  5
361
330
1F
100
AcDbEntity
  8
0
  6
Continuous
 62
     7
370
    25
100
AcDbLine
 10
29.606432641
 20
14.2973974826
 30
0.0
 11
29.6488590479
 21
14.321889726
 31
0.0
  0
ARC
  5
362
330
1F
100
AcDbEntity
  8
0
  6
Continuous
 62
     7
370
    25
100
AcDbCircle
 10
29.6257985194
 20
14.2463719756
 30
0.0
 40
0.0545769146042865
100
AcDbArc
 50
110.7834207995
 51
249.2165792005
  0
LINE
  5
363
330
1F
100
AcDbEntity
  8
0
  6
Continuous
 62
     7
370
    25
100
AcDbLine
 10
29.8831254859
 20
14.0356150893
 30
0.0
 11
29.606432641
 21
14.1953464686
 31
0.0
  0
LINE
  5
364
330
1F
100
AcDbEntity
  8
0
  6
Continuous
 62
     7
370
    25
100
AcDbLine
 10
30.0599021812
 20
14.1376661032
 30
0.0
 11
29.8831254859
 21
14.0356150893
 31
0.0
  0
LINE
  5
365
330
1F
100
AcDbEntity
  8
0
  6
Continuous
 62
     7
370
    25
100
AcDbLine
 10
29.2627787454
 20
14.5978356677
 30
0.0
 11
29.2168168046
 21
14.5713024041
 31
0.0
  0
LINE
  5
366
330
1F
100
AcDbEntity
  8
0
  6
Continuous
 62
     7
370
    25
100
AcDbLine
 10
29.1413704724
 20
14.6679231719
 30
0.0
 11
29.2627787454
 21
14.5978356677
 31
0.0
  0
LINE
  5
367
330
1F
100
AcDbEntity
  8
0
  6
Continuous
 62
     7
370
    25
100
AcDbLine
 10
28.9645937771
 20
14.5658721579
 30
0.0
 11
29.1413704724
 21
14.6679231719
 31
0.0
  0
LINE
  5
368
330
1F
100
AcDbEntity
  8
0
  6
Continuous
 62
     7
370
    25
100
AcDbLine
 10
29.0860020501
 20
14.4957846538
 30
0.0
 11
28.9645937771
 21
14.5658721579
 31
0.0
  0
LINE
  5
369
330
1F
100
AcDbEntity
  8
0
  6
Continuous
 62
     7
370
    25
100
AcDbLine
 10
29.1319639908
 20
14.5223179174
 30
0.0
 11
29.0860020501
 21
14.4957846538
 31
0.0
  0
LINE
  5
36A
330
1F
100
AcDbEntity
  8
0
  6
Continuous
 62
     7
370
    25
100
AcDbLine
 10
29.0600531926
 20
14.5638311376
 30
0.0
 11
29.1319639908
 21
14.5223179174
 31
0.0
  0
LINE
  5
36B
330
1F
100
AcDbEntity
  8
0
  6
Continuous
 62
     7
370
    25
100
AcDbLine
 10
29.0848019299
 20
14.5781182796
 30
0.0
 11
29.0600531926
 21
14.5638311376
 31
0.0
  0
LINE
  5
36C
330
1F
100
AcDbEntity
  8
0
  6
Continuous
 62
     7
370
    25
100
AcDbLine
 10
29.142784686
 20
14.544645547
 30
0.0
 11
29.0848019299
 21
14.5781182796
 31
0.0
  0
LINE
  5
36D
330
1F
100
AcDbEntity
  8
0
  6
Continuous
 62
     7
370
    25
100
AcDbLine
 10
29.178140025
 20
14.5650557498
 30
0.0
 11
29.142784686
 21
14.544645547
 31
0.0
  0
LINE
  5
36E
330
1F
100
AcDbEntity
  8
0
  6
Continuous
 62
     7
370
    25
100
AcDbLine
 10
29.120157269
 20
14.5985284824
 30
0.0
 11
29.178140025
 21
14.5650557498
 31
0.0
  0
LINE
  5
36F
330
1F
100
AcDbEntity
  8
0
  6
Continuous
 62
     7
370
    25
100
AcDbLine
 10
29.1449060063
 20
14.6128156243
 30
0.0
 11
29.120157269
 21
14.5985284824
 31
0.0
  0
LINE
  5
370
330
1F
100
AcDbEntity
  8
0
  6
Continuous
 62
     7
370
    25
100
AcDbLine
 10
29.2168168046
 20
14.5713024041
 30
0.0
 11
29.1449060063
 21
14.6128156243
 31
0.0
  0
LINE
  5
371
330
1F
100
AcDbEntity
  8
0
  6
Continuous
 62
     7
370
    25
100
AcDbLine
 10
29.3398533845
 20
14.5533414257
 30
0.0
 11
29.2691427064
 21
14.4717006145
 31
0.0
  0
LINE
  5
372
330
1F
100
AcDbEntity
  8
0
  6
Continuous
 62
     7
370
    25
100
AcDbLine
 10
29.2868203759
 20
14.5839567298
 30
0.0
 11
29.3398533845
 21
14.5533414257
 31
0.0
  0
LINE
  5
373
330
1F
100
AcDbEntity
  8
0
  6
Continuous
 62
     7
370
    25
100
AcDbLine
 10
29.1689692457
 20
14.4478887112
 30
0.0
 11
29.2868203759
 21
14.5839567298
 31
0.0
  0
LINE
  5
374
330
1F
100
AcDbEntity
  8
0
  6
Continuous
 62
     7
370
    25
100
AcDbLine
 10
29.2278948108
 20
14.4138717066
 30
0.0
 11
29.1689692457
 21
14.4478887112
 31
0.0
  0
LINE
  5
375
330
1F
100
AcDbEntity
  8
0
  6
Continuous
 62
     7
370
    25
100
AcDbLine
 10
29.4635970712
 20
14.4819057159
 30
0.0
 11
29.2278948108
 21
14.4138717066
 31
0.0
  0
LINE
  5
376
330
1F
100
AcDbEntity
  8
0
  6
Continuous
 62
     7
370
    25
100
AcDbLine
 10
29.4105640626
 20
14.5125210201
 30
0.0
 11
29.4635970712
 21
14.4819057159
 31
0.0
  0
LINE
  5
377
330
1F
100
AcDbEntity
  8
0
  6
Continuous
 62
     7
370
    25
100
AcDbLine
 10
29.2691427064
 20
14.4717006145
 30
0.0
 11
29.4105640626
 21
14.5125210201
 31
0.0
  0
LINE
  5
378
330
1F
100
AcDbEntity
  8
0
  6
Continuous
 62
     7
370
    25
100
AcDbLine
 10
29.5371361765
 20
14.4394524941
 30
0.0
 11
29.3603594812
 21
14.3374014801
 31
0.0
  0
LINE
  5
379
330
1F
100
AcDbEntity
  8
0
  6
Continuous
 62
     7
370
    25
100
AcDbLine
 10
29.4876387018
 20
14.468026778
 30
0.0
 11
29.5371361765
 21
14.4394524941
 31
0.0
  0
LINE
  5
37A
330
1F
100
AcDbEntity
  8
0
  6
Continuous
 62
     7
370
    25
100
AcDbLine
 10
29.3108620065
 20
14.365975764
 30
0.0
 11
29.4876387018
 21
14.468026778
 31
0.0
  0
LINE
  5
37B
330
1F
100
AcDbEntity
  8
0
  6
Continuous
 62
     7
370
    25
100
AcDbLine
 10
29.3603594812
 20
14.3374014801
 30
0.0
 11
29.3108620065
 21
14.365975764
 31
0.0
  0
ARC
  5
37C
330
1F
100
AcDbEntity
  8
0
  6
Continuous
 62
     7
370
    25
100
AcDbCircle
 10
31.4754267237
 20
16.3521731066
 30
0.0
 40
0.0261969190100584
100
AcDbArc
 50
290.7834207995
 51
69.2165792005
  0
LINE
  5
37D
330
1F
100
AcDbEntity
  8
0
  6
Continuous
 62
     7
370
    25
100
AcDbLine
 10
31.10392931
 20
16.1078537231
 30
0.0
 11
31.4847223453
 21
16.3276808632
 31
0.0
  0
LINE
  5
37E
330
1F
100
AcDbEntity
  8
0
  6
Continuous
 62
     7
370
    25
100
AcDbLine
 10
31.1463557168
 20
16.0833614797
 30
0.0
 11
31.10392931
 21
16.1078537231
 31
0.0
  0
LINE
  5
37F
330
1F
100
AcDbEntity
  8
0
  6
Continuous
 62
     7
370
    25
100
AcDbLine
 10
32.9954399496
 20
15.0159078735
 30
0.0
 11
31.1463557168
 21
16.0833614797
 31
0.0
  0
LINE
  5
380
330
1F
100
AcDbEntity
  8
0
  6
Continuous
 62
     7
370
    25
100
AcDbLine
 10
30.2791052833
 20
13.4478012487
 30
0.0
 11
32.9954399496
 21
15.0159078735
 31
0.0
  0
ARC
  5
381
330
1F
100
AcDbEntity
  8
0
  6
Continuous
 62
     7
370
    25
100
AcDbCircle
 10
30.2366788765
 20
13.5296839138
 30
0.0
 40
0.0922213144746959
100
AcDbArc
 50
242.6096722366
 51
297.3903277634
  0
LINE
  5
382
330
1F
100
AcDbEntity
  8
0
  6
Continuous
 62
     7
370
    25
100
AcDbLine
 10
19.7432142437
 20
19.4810571951
 30
0.0
 11
30.1942524696
 21
13.4478012487
 31
0.0
  0
ARC
  5
383
330
1F
100
AcDbEntity
  8
0
  6
Continuous
 62
     7
370
    25
100
AcDbCircle
 10
19.7525098653
 20
19.5055494385
 30
0.0
 40
0.0261969190100572
100
AcDbArc
 50
110.7834207995
 51
249.2165792005
  0
LINE
  5
384
330
1F
100
AcDbEntity
  8
0
  6
Continuous
 62
     7
370
    25
100
AcDbLine
 10
22.4595489099
 20
21.0981483066
 30
0.0
 11
19.7432142437
 21
19.5300416818
 31
0.0
  0
LINE
  5
385
330
1F
100
AcDbEntity
  8
0
  6
Continuous
 62
     7
370
    25
100
AcDbLine
 10
24.3086331428
 20
20.0306947004
 30
0.0
 11
22.4595489099
 21
21.0981483066
 31
0.0
  0
LINE
  5
386
330
1F
100
AcDbEntity
  8
0
  6
Continuous
 62
     7
370
    25
100
AcDbLine
 10
24.3510595496
 20
20.006202457
 30
0.0
 11
24.3086331428
 21
20.0306947004
 31
0.0
  0
LINE
  5
387
330
1F
100
AcDbEntity
  8
0
  6
Continuous
 62
     7
370
    25
100
AcDbLine
 10
24.7318525849
 20
20.2260295972
 30
0.0
 11
24.3510595496
 21
20.006202457
 31
0.0
  0
ARC
  5
388
330
1F
100
AcDbEntity
  8
0
  6
Continuous
 62
     7
370
    25
100
AcDbCircle
 10
24.7742789918
 20
20.1441469321
 30
0.0
 40
0.092221314474699
100
AcDbArc
 50
62.6096722366
 51
117.3903277634
  0
LINE
  5
389
330
1F
100
AcDbEntity
  8
0
  6
Continuous
 62
     7
370
    25
100
AcDbLine
 10
31.4847223453
 20
16.3766653499
 30
0.0
 11
24.8167053987
 21
20.2260295972
 31
0.0
  0
LINE
  5
38A
330
1F
100
AcDbEntity
  8
0
  6
Continuous
 62
     7
370
    25
100
AcDbLine
 10
30.1942524696
 20
13.3989721082
 30
0.0
 11
30.1942524696
 21
13.4478012487
 31
0.0
  0
LINE
  5
38B
330
1F
100
AcDbEntity
  8
0
  6
Continuous
 62
     7
370
    25
100
AcDbLine
 10
30.2791052833
 20
13.4478012487
 30
0.0
 11
30.2791052833
 21
13.3989721082
 31
0.0
  0
ARC
  5
38C
330
1F
100
AcDbEntity
  8
0
  6
Continuous
 62
     7
370
    25
100
AcDbCircle
 10
30.2366788765
 20
13.4808547733
 30
0.0
 40
0.0922213144747164
100
AcDbArc
 50
242.6096722366
 51
297.3903277634
  0
LINE
  5
38D
330
1F
100
AcDbEntity
  8
0
  6
Continuous
 62
     7
370
    25
100
AcDbLine
 10
19.7432142437
 20
19.4810571951
 30
0.0
 11
19.7432142437
 21
19.4322280546
 31
0.0
  0
LINE
  5
38E
330
1F
100
AcDbEntity
  8
0
  6
Continuous
 62
     7
370
    25
100
AcDbLine
 10
19.7432142437
 20
19.4322280546
 30
0.0
 11
30.1942524696
 21
13.3989721082
 31
0.0
  0
LINE
  5
38F
330
1F
100
AcDbEntity
  8
0
  6
Continuous
 62
     7
370
    25
100
AcDbLine
 10
32.9954399496
 20
14.967078733
 30
0.0
 11
32.9954399496
 21
15.0159078735
 31
0.0
  0
LINE
  5
390
330
1F
100
AcDbEntity
  8
0
  6
Continuous
 62
     7
370
    25
100
AcDbLine
 10
30.2791052833
 20
13.3989721082
 30
0.0
 11
32.9954399496
 21
14.967078733
 31
0.0
  0
LWPOLYLINE
  5
391
330
1F
100
AcDbEntity
  8
0
  6
Continuous
 62
     7
370
    25
100
AcDbPolyline
 90
       17
 70
   128
 43
0.0
 10
29.9365120479
 20
14.0113269479
 10
29.9279495242
 20
14.0187247296
 10
29.9249427657
 20
14.0274510081
 10
29.9279495242
 20
14.0361772866
 10
29.9365120479
 20
14.0435750683
 10
29.9493267701
 20
14.0485181081
 10
29.9644427657
 20
14.0502538728
 10
29.9795587613
 20
14.0485181081
 10
29.9923734836
 20
14.0435750683
 10
30.0009360072
 20
14.0361772866
 10
30.0039427657
 20
14.0274510081
 10
30.0009360072
 20
14.0187247296
 10
29.9923734836
 20
14.0113269479
 10
29.9795587613
 20
14.0063839082
 10
29.9644427657
 20
14.0046481435
 10
29.9493267701
 20
14.0063839082
 10
29.9365120479
 20
14.0113269479
  0
LINE
  5
392
330
1F
100
AcDbEntity
  8
0
  6
Continuous
 62
     7
370
    25
100
AcDbLine
 10
29.9361584945
 20
14.0233689676
 30
0.0
 11
29.9305016402
 21
14.0266346
 31
0.0
  0
LINE
  5
393
330
1F
100
AcDbEntity
  8
0
  6
Continuous
 62
     7
370
    25
100
AcDbLine
 10
29.9503006301
 20
14.0315330487
 30
0.0
 11
29.9361584945
 21
14.0233689676
 31
0.0
  0
LINE
  5
394
330
1F
100
AcDbEntity
  8
0
  6
Continuous
 62
     7
370
    25
100
AcDbLine
 10
29.9609072318
 20
14.0254099879
 30
0.0
 11
29.9503006301
 21
14.0315330487
 31
0.0
  0
LINE
  5
395
330
1F
100
AcDbEntity
  8
0
  6
Continuous
 62
     7
370
    25
100
AcDbLine
 10
29.9556424372
 20
14.0121211268
 30
0.0
 11
29.9609072318
 21
14.0254099879
 31
0.0
  0
LINE
  5
396
330
1F
100
AcDbEntity
  8
0
  6
Continuous
 62
     7
370
    25
100
AcDbLine
 10
29.9623214454
 20
14.0082654175
 30
0.0
 11
29.9556424372
 21
14.0121211268
 31
0.0
  0
LINE
  5
397
330
1F
100
AcDbEntity
  8
0
  6
Continuous
 62
     7
370
    25
100
AcDbLine
 10
29.9676342148
 20
14.021675372
 30
0.0
 11
29.9623214454
 21
14.0082654175
 31
0.0
  0
LWPOLYLINE
  5
398
330
1F
100
AcDbEntity
  8
0
  6
Continuous
 62
     7
370
    25
100
AcDbPolyline
 90
        9
 70
   128
 43
0.0
 10
29.9870701827
 20
14.0347986811
 10
29.9902071799
 20
14.0321448019
 10
29.9914521688
 20
14.0290133388
 10
29.9906337583
 20
14.0258353839
 10
29.9878646147
 20
14.0230484292
 10
29.9835259513
 20
14.02103614
 10
29.9782150488
 20
14.0200755376
 10
29.9726630311
 20
14.0202988629
 10
29.9676342148
 20
14.021675372
  0
LINE
  5
399
330
1F
100
AcDbEntity
  8
0
  6
Continuous
 62
     7
370
    25
100
AcDbLine
 10
29.9658569793
 20
14.0470448028
 30
0.0
 11
29.9870701827
 21
14.0347986811
 31
0.0
  0
LINE
  5
39A
330
1F
100
AcDbEntity
  8
0
  6
Continuous
 62
     7
370
    25
100
AcDbLine
 10
29.9305016402
 20
14.0266346
 30
0.0
 11
29.9658569793
 21
14.0470448028
 31
0.0
  0
LINE
  5
39B
330
1F
100
AcDbEntity
  8
0
  6
Continuous
 62
     7
370
    25
100
AcDbLine
 10
29.9658569793
 20
14.0405135379
 30
0.0
 11
29.9814133285
 21
14.0315330487
 31
0.0
  0
LINE
  5
39C
330
1F
100
AcDbEntity
  8
0
  6
Continuous
 62
     7
370
    25
100
AcDbLine
 10
29.9559574843
 20
14.0347986811
 30
0.0
 11
29.9658569793
 21
14.0405135379
 31
0.0
  0
LINE
  5
39D
330
1F
100
AcDbEntity
  8
0
  6
Continuous
 62
     7
370
    25
100
AcDbLine
 10
29.9715138335
 20
14.0258181919
 30
0.0
 11
29.9559574843
 21
14.0347986811
 31
0.0
  0
LWPOLYLINE
  5
39E
330
1F
100
AcDbEntity
  8
0
  6
Continuous
 62
     7
370
    25
100
AcDbPolyline
 90
        9
 70
   128
 43
0.0
 10
29.9814133285
 20
14.0315330487
 10
29.9829307377
 20
14.0302220494
 10
29.983463581
 20
14.0286756203
 10
29.9829307377
 20
14.0271291912
 10
29.9814133285
 20
14.0258181919
 10
29.979142365
 20
14.0249422102
 10
29.976463581
 20
14.0246346063
 10
29.973784797
 20
14.0249422102
 10
29.9715138335
 20
14.0258181919
  0
LINE
  5
39F
330
1F
100
AcDbEntity
  8
0
  6
Continuous
 62
     7
370
    25
100
AcDbLine
 10
29.8574555483
 20
14.1524850427
 30
0.0
 11
29.8442346129
 21
14.0662303935
 31
0.0
  0
LINE
  5
3A0
330
1F
100
AcDbEntity
  8
0
  6
Continuous
 62
     7
370
    25
100
AcDbLine
 10
29.7761382685
 20
14.1055415763
 30
0.0
 11
29.8574555483
 21
14.1524850427
 31
0.0
  0
LINE
  5
3A1
330
1F
100
AcDbEntity
  8
0
  6
Continuous
 62
     7
370
    25
100
AcDbLine
 10
29.8442346129
 20
14.0662303935
 30
0.0
 11
29.7761382685
 21
14.1055415763
 31
0.0
  0
LWPOLYLINE
  5
3A2
330
1F
100
AcDbEntity
  8
0
  6
Continuous
 62
     7
370
    25
100
AcDbPolyline
 90
       17
 70
   128
 43
0.0
 10
29.6523945818
 20
14.2218797323
 10
29.6393882167
 20
14.233116869
 10
29.6348209887
 20
14.2463719756
 10
29.6393882167
 20
14.2596270822
 10
29.6523945818
 20
14.270864219
 10
29.6718599827
 20
14.2783726337
 10
29.6948209887
 20
14.2810092383
 10
29.7177819946
 20
14.2783726337
 10
29.7372473955
 20
14.270864219
 10
29.7502537606
 20
14.2596270822
 10
29.7548209887
 20
14.2463719756
 10
29.7502537606
 20
14.233116869
 10
29.7372473955
 20
14.2218797323
 10
29.7177819946
 20
14.2143713175
 10
29.6948209887
 20
14.2117347129
 10
29.6718599827
 20
14.2143713175
 10
29.6523945818
 20
14.2218797323
  0
LINE
  5
3A3
330
1F
100
AcDbEntity
  8
0
  6
Continuous
 62
     7
370
    25
100
AcDbLine
 10
29.7266407938
 20
14.1341158602
 30
0.0
 11
29.648144725
 21
14.1794306762
 31
0.0
  0
LINE
  5
3A4
330
1F
100
AcDbEntity
  8
0
  6
Continuous
 62
     7
370
    25
100
AcDbLine
 10
29.8963464213
 20
14.2320848337
 30
0.0
 11
29.7266407938
 21
14.1341158602
 31
0.0
  0
LINE
  5
3A5
330
1F
100
AcDbEntity
  8
0
  6
Continuous
 62
     7
370
    25
100
AcDbLine
 10
29.9363869408
 20
14.2089699337
 30
0.0
 11
29.8963464213
 21
14.2320848337
 31
0.0
  0
LINE
  5
3A6
330
1F
100
AcDbEntity
  8
0
  6
Continuous
 62
     7
370
    25
100
AcDbLine
 10
29.9220163588
 20
14.1152148802
 30
0.0
 11
29.9363869408
 21
14.2089699337
 31
0.0
  0
LINE
  5
3A7
330
1F
100
AcDbEntity
  8
0
  6
Continuous
 62
     7
370
    25
100
AcDbLine
 10
30.0104047065
 20
14.1662403872
 30
0.0
 11
29.9220163588
 21
14.1152148802
 31
0.0
  0
LINE
  5
3A8
330
1F
100
AcDbEntity
  8
0
  6
Continuous
 62
     7
370
    25
100
AcDbLine
 10
30.0528311134
 20
14.1417481438
 30
0.0
 11
30.0104047065
 21
14.1662403872
 31
0.0
  0
LINE
  5
3A9
330
1F
100
AcDbEntity
  8
0
  6
Continuous
 62
     7
370
    25
100
AcDbLine
 10
30.2458712646
 20
14.2531878511
 30
0.0
 11
30.0528311134
 21
14.1417481438
 31
0.0
  0
LINE
  5
3AA
330
1F
100
AcDbEntity
  8
0
  6
Continuous
 62
     7
370
    25
100
AcDbLine
 10
29.8949322077
 20
14.4557806563
 30
0.0
 11
30.2458712646
 21
14.2531878511
 31
0.0
  0
LINE
  5
3AB
330
1F
100
AcDbEntity
  8
0
  6
Continuous
 62
     7
370
    25
100
AcDbLine
 10
29.648144725
 20
14.313313275
 30
0.0
 11
29.8949322077
 21
14.4557806563
 31
0.0
  0
LWPOLYLINE
  5
3AC
330
1F
100
AcDbEntity
  8
0
  6
Continuous
 62
     7
370
    25
100
AcDbPolyline
 90
       12
 70
   128
 43
0.0
 10
29.648144725
 20
14.1794306762
 10
29.6913833739
 20
14.1742383044
 10
29.7350511429
 20
14.1780504329
 10
29.7736969515
 20
14.1903911908
 10
29.8024966146
 20
14.209720072
 10
29.8178550485
 20
14.2336242379
 10
29.8178550485
 20
14.2591197134
 10
29.8024966146
 20
14.2830238792
 10
29.7736969515
 20
14.3023527604
 10
29.7350511429
 20
14.3146935183
 10
29.6913833739
 20
14.3185056468
 10
29.648144725
 20
14.313313275
  0
ARC
  5
3AD
330
1F
100
AcDbEntity
  8
0
  6
Continuous
 62
     7
370
    25
100
AcDbCircle
 10
33.0042273574
 20
14.9548128328
 30
0.0
 40
0.0150887654334683
100
AcDbArc
 50
65.6860478385
 51
125.6181726599
  0
ARC
  5
3AE
330
1F
100
AcDbEntity
  8
0
  6
Continuous
 62
     7
370
    25
100
AcDbCircle
 10
33.0217435903
 20
14.9791919457
 30
0.0
 40
0.0451657045308453
100
AcDbArc
 50
65.6860478386
 51
125.6181726599
  0
LINE
  5
3AF
330
1F
100
AcDbEntity
  8
0
  6
Continuous
 62
     7
370
    25
100
AcDbLine
 10
33.0104399496
 20
14.9685632706
 30
0.0
 11
33.0403399496
 21
15.0203515896
 31
0.0
  0
ARC
  5
3B0
330
1F
100
AcDbEntity
  8
0
  6
Continuous
 62
     7
370
    25
100
AcDbCircle
 10
31.1726593575
 20
16.0466455519
 30
0.0
 40
0.045165704530842
100
AcDbArc
 50
65.6860478386
 51
125.6181726599
  0
LINE
  5
3B1
330
1F
100
AcDbEntity
  8
0
  6
Continuous
 62
     7
370
    25
100
AcDbLine
 10
33.0403399496
 20
15.0203515896
 30
0.0
 11
31.1912557168
 21
16.0878051958
 31
0.0
  0
LINE
  5
3B2
330
1F
100
AcDbEntity
  8
0
  6
Continuous
 62
     7
370
    25
100
AcDbLine
 10
33.0403399496
 20
15.0203515896
 30
0.0
 11
33.1039169049
 21
14.9836374633
 31
0.0
  0
LINE
  5
3B3
330
1F
100
AcDbEntity
  8
0
  6
Continuous
 62
     7
370
    25
100
AcDbLine
 10
33.0740169049
 20
14.9318491443
 30
0.0
 11
33.1039169049
 21
14.9836374633
 31
0.0
  0
LINE
  5
3B4
330
1F
100
AcDbEntity
  8
0
  6
Continuous
 62
     7
370
    25
100
AcDbLine
 10
33.0104399496
 20
14.9685632706
 30
0.0
 11
33.0740169049
 21
14.9318491443
 31
0.0
  0
LINE
  5
3B5
330
1F
100
AcDbEntity
  8
0
  6
Continuous
 62
     7
370
    25
100
AcDbLine
 10
33.0740169049
 20
14.9318491443
 30
0.0
 11
33.0100398696
 21
14.9687823007
 31
0.0
  0
ARC
  5
3B6
330
1F
100
AcDbEntity
  8
0
  6
Continuous
 62
     7
370
    25
100
AcDbCircle
 10
33.0926132642
 20
14.9730087882
 30
0.0
 40
0.0451657045308255
100
AcDbArc
 50
245.6860478385
 51
305.6181726599
  0
ARC
  5
3B7
330
1F
100
AcDbEntity
  8
0
  6
Continuous
 62
     7
370
    25
100
AcDbCircle
 10
33.1101294971
 20
14.9973879012
 30
0.0
 40
0.0150887654334669
100
AcDbArc
 50
245.6860478386
 51
305.6181726599
  0
LINE
  5
3B8
330
1F
100
AcDbEntity
  8
0
  6
Continuous
 62
     7
370
    25
100
AcDbLine
 10
33.1189169049
 20
14.9362928605
 30
0.0
 11
33.1189169049
 21
14.985122001
 31
0.0
  0
ARC
  5
3B9
330
1F
100
AcDbEntity
  8
0
  6
Continuous
 62
     7
370
    25
100
AcDbCircle
 10
31.2609812956
 20
16.0650197768
 30
0.0
 40
0.015271025589966
100
AcDbArc
 50
247.8869879503
 51
305.423749229
  0
LINE
  5
3BA
330
1F
100
AcDbEntity
  8
0
  6
Continuous
 62
     7
370
    25
100
AcDbLine
 10
33.1189169049
 20
14.985122001
 30
0.0
 11
31.2698326721
 21
16.0525756072
 31
0.0
  0
ARC
  5
3BB
330
1F
100
AcDbEntity
  8
0
  6
Continuous
 62
     7
370
    25
100
AcDbCircle
 10
33.2788840044
 20
15.1069027225
 30
0.0
 40
0.0258627183678593
100
AcDbArc
 50
290.2715011807
 51
28.9763231512
  0
LINE
  5
3BC
330
1F
100
AcDbEntity
  8
0
  6
Continuous
 62
     7
370
    25
100
AcDbLine
 10
33.1189169049
 20
14.985122001
 30
0.0
 11
33.2878446373
 21
15.0826419052
 31
0.0
  0
LINE
  5
3BD
330
1F
100
AcDbEntity
  8
0
  6
Continuous
 62
     7
370
    25
100
AcDbLine
 10
31.2698326721
 20
16.0525756072
 30
0.0
 11
31.3080497264
 21
16.0746378431
 31
0.0
  0
LINE
  5
3BE
330
1F
100
AcDbEntity
  8
0
  6
Continuous
 62
     7
370
    25
100
AcDbLine
 10
33.2878446373
 20
15.0338127646
 30
0.0
 11
33.2878446373
 21
15.0826419052
 31
0.0
  0
LINE
  5
3BF
330
1F
100
AcDbEntity
  8
0
  6
Continuous
 62
     7
370
    25
100
AcDbLine
 10
33.1189169049
 20
14.9362928605
 30
0.0
 11
33.2878446373
 21
15.0338127646
 31
0.0
  0
ARC
  5
3C0
330
1F
100
AcDbEntity
  8
0
  6
Continuous
 62
     7
370
    25
100
AcDbCircle
 10
33.2753908067
 20
15.0612993906
 30
0.0
 40
0.0301763567096183
100
AcDbArc
 50
294.3746582936
 51
354.3052007488
  0
LINE
  5
3C1
330
1F
100
AcDbEntity
  8
0
  6
Continuous
 62
     7
370
    25
100
AcDbLine
 10
31.4847223453
 20
16.2788517226
 30
0.0
 11
31.4847223453
 21
16.3276808632
 31
0.0
  0
LINE
  5
3C2
330
1F
100
AcDbEntity
  8
0
  6
Continuous
 62
     7
370
    25
100
AcDbLine
 10
31.1462211685
 20
16.0834391528
 30
0.0
 11
31.4847223453
 21
16.2788517226
 31
0.0
  0
ARC
  5
3C3
330
1F
100
AcDbEntity
  8
0
  6
Continuous
 62
     7
370
    25
100
AcDbCircle
 10
31.4722685146
 20
16.3063383486
 30
0.0
 40
0.0301763567096479
100
AcDbArc
 50
294.3746582936
 51
354.3052007488
  0
ARC
  5
3C4
330
1F
100
AcDbEntity
  8
0
  6
Continuous
 62
     7
370
    25
100
AcDbCircle
 10
19.7556680743
 20
19.4597146805
 30
0.0
 40
0.0301763567096296
100
AcDbArc
 50
185.6947992512
 51
245.6253417064
  0
ARC
  5
3C5
330
1F
100
AcDbEntity
  8
0
  6
Continuous
 62
     7
370
    25
100
AcDbCircle
 10
24.3349367834
 20
19.9939787726
 30
0.0
 40
0.0451657045308521
100
AcDbArc
 50
65.6860478386
 51
125.6181726599
  0
LINE
  5
3C6
330
1F
100
AcDbEntity
  8
0
  6
Continuous
 62
     7
370
    25
100
AcDbLine
 10
24.3773544657
 20
20.021382189
 30
0.0
 11
24.3535331428
 21
20.0351384165
 31
0.0
  0
ARC
  5
3C7
330
1F
100
AcDbEntity
  8
0
  6
Continuous
 62
     7
370
    25
100
AcDbCircle
 10
22.4858525506
 20
21.0614323788
 30
0.0
 40
0.045165704530837
100
AcDbArc
 50
65.6860478385
 51
125.6181726599
  0
LINE
  5
3C8
330
1F
100
AcDbEntity
  8
0
  6
Continuous
 62
     7
370
    25
100
AcDbLine
 10
24.3535331428
 20
20.0351384165
 30
0.0
 11
22.5044489099
 21
21.1025920227
 31
0.0
  0
ARC
  5
3C9
330
1F
100
AcDbEntity
  8
0
  6
Continuous
 62
     7
370
    25
100
AcDbCircle
 10
22.5741744887
 20
21.0798066037
 30
0.0
 40
0.0152710255899622
100
AcDbArc
 50
247.8869879503
 51
305.423749229
  0
LINE
  5
3CA
330
1F
100
AcDbEntity
  8
0
  6
Continuous
 62
     7
370
    25
100
AcDbLine
 10
22.6424561229
 20
21.1016707916
 30
0.0
 11
22.5830258652
 21
21.0673624341
 31
0.0
  0
LINE
  5
3CB
330
1F
100
AcDbEntity
  8
0
  6
Continuous
 62
     7
370
    25
100
AcDbLine
 10
30.028082376
 20
12.6846681221
 30
0.0
 11
29.9396940284
 21
12.6767648719
 31
0.0
  0
LINE
  5
3CC
330
1F
100
AcDbEntity
  8
0
  6
Continuous
 62
     7
370
    25
100
AcDbLine
 10
29.9396940284
 20
12.6767648719
 30
0.0
 11
29.8513056807
 21
12.7867191361
 31
0.0
  0
LINE
  5
3CD
330
1F
100
AcDbEntity
  8
0
  6
Continuous
 62
     7
370
    25
100
AcDbLine
 10
29.8513056807
 20
12.7867191361
 30
0.0
 11
29.8513056807
 21
12.9045766505
 31
0.0
  0
LINE
  5
3CE
330
1F
100
AcDbEntity
  8
0
  6
Continuous
 62
     7
370
    25
100
AcDbLine
 10
29.8513056807
 20
12.9045766505
 30
0.0
 11
29.9396940284
 21
12.9124799007
 31
0.0
  0
LINE
  5
3CF
330
1F
100
AcDbEntity
  8
0
  6
Continuous
 62
     7
370
    25
100
AcDbLine
 10
29.9396940284
 20
12.9124799007
 30
0.0
 11
30.028082376
 21
12.8025256365
 31
0.0
  0
LINE
  5
3D0
330
1F
100
AcDbEntity
  8
0
  6
Continuous
 62
     7
370
    25
100
AcDbLine
 10
30.028082376
 20
12.8025256365
 30
0.0
 11
30.028082376
 21
12.6846681221
 31
0.0
  0
LWPOLYLINE
  5
3D1
330
1F
100
AcDbEntity
  8
0
  6
Continuous
 62
     7
370
    25
100
AcDbPolyline
 90
       18
 70
   128
 43
0.0
 10
29.9396940284
 20
12.7080690602
 10
29.9667702901
 20
12.6982830202
 10
29.9901897527
 20
12.7015081453
 10
30.0067894879
 20
12.7173088647
 10
30.0143276095
 20
12.7435512036
 10
30.0117860524
 20
12.7766909887
 10
29.999508068
 20
12.8122525084
 10
29.9791518661
 20
12.8454329824
 10
29.9534666646
 20
12.8717512039
 10
29.9259213922
 20
12.8876527511
 10
29.9002361906
 20
12.8909900321
 10
29.8798799887
 20
12.8813123286
 10
29.8676020043
 20
12.8599266679
 10
29.8650604472
 20
12.8297213022
 10
29.8725985688
 20
12.7947756334
 10
29.889198304
 20
12.7598092677
 10
29.9126177666
 20
12.7295446066
 10
29.9396940284
 20
12.7080690602
  0
ARC
  5
3D2
330
1F
100
AcDbEntity
  8
0
  6
Continuous
 62
     7
370
    25
100
AcDbCircle
 10
29.9704190382
 20
12.7474600865
 30
0.0
 40
0.0498811062076513
100
AcDbArc
 50
232.0809663325
 51
296.6085752384
  0
LWPOLYLINE
  5
3D3
330
1F
100
AcDbEntity
  8
0
  6
Continuous
 62
     7
370
    25
100
AcDbPolyline
 90
        8
 70
   128
 43
0.0
 10
29.8867690462
 20
12.8864643861
 10
29.8799506994
 20
12.881353149
 10
29.867672715
 20
12.8599674884
 10
29.8651311579
 20
12.8297621226
 10
29.8726692795
 20
12.7948164538
 10
29.8892690147
 20
12.7598500881
 10
29.9126884773
 20
12.729585427
 10
29.9397647391
 20
12.7081098807
  0
LINE
  5
3D4
330
1F
100
AcDbEntity
  8
0
  6
Continuous
 62
     7
370
    25
100
AcDbLine
 10
20.0401990918
 20
18.3916216547
 30
0.0
 11
19.9518107441
 21
18.5015759189
 31
0.0
  0
LINE
  5
3D5
330
1F
100
AcDbEntity
  8
0
  6
Continuous
 62
     7
370
    25
100
AcDbLine
 10
19.9518107441
 20
18.5015759189
 30
0.0
 11
19.9518107441
 21
18.6194334332
 31
0.0
  0
LINE
  5
3D6
330
1F
100
AcDbEntity
  8
0
  6
Continuous
 62
     7
370
    25
100
AcDbLine
 10
19.9518107441
 20
18.6194334332
 30
0.0
 11
20.0401990918
 21
18.6273366835
 31
0.0
  0
LINE
  5
3D7
330
1F
100
AcDbEntity
  8
0
  6
Continuous
 62
     7
370
    25
100
AcDbLine
 10
20.0401990918
 20
18.6273366835
 30
0.0
 11
20.1285874394
 21
18.5173824193
 31
0.0
  0
LINE
  5
3D8
330
1F
100
AcDbEntity
  8
0
  6
Continuous
 62
     7
370
    25
100
AcDbLine
 10
20.1285874394
 20
18.5173824193
 30
0.0
 11
20.1285874394
 21
18.3995249049
 31
0.0
  0
LINE
  5
3D9
330
1F
100
AcDbEntity
  8
0
  6
Continuous
 62
     7
370
    25
100
AcDbLine
 10
20.1285874394
 20
18.3995249049
 30
0.0
 11
20.0401990918
 21
18.3916216547
 31
0.0
  0
LWPOLYLINE
  5
3DA
330
1F
100
AcDbEntity
  8
0
  6
Continuous
 62
     7
370
    25
100
AcDbPolyline
 90
       18
 70
   128
 43
0.0
 10
19.9752876136
 20
18.5036751048
 10
19.9932090719
 20
18.4691739151
 10
20.0174767927
 20
18.4401161734
 10
20.044813286
 20
18.4204262886
 10
20.0715266067
 20
18.4127634887
 10
20.094008973
 20
18.4181626774
 10
20.1092240166
 20
18.4358946643
 10
20.1151168617
 20
18.4635646463
 10
20.1108916468
 20
18.497435639
 10
20.0971190106
 20
18.5329331772
 10
20.075659024
 20
18.5652631217
 10
20.049409977
 20
18.5900591342
 10
20.0219169489
 20
18.6039723759
 10
19.9968930256
 20
18.6051237864
 10
19.9777178264
 20
18.5933578614
 10
19.9669810684
 20
18.5702636542
 10
19.9661328101
 20
18.5389601654
 10
19.9752876136
 20
18.5036751048
  0
LWPOLYLINE
  5
3DB
330
1F
100
AcDbEntity
  8
0
  6
Continuous
 62
     7
370
    25
100
AcDbPolyline
 90
        6
 70
   128
 43
0.0
 10
19.9753583243
 20
18.5037159252
 10
19.9932797825
 20
18.4692147355
 10
20.0175475034
 20
18.4401569938
 10
20.0448839967
 20
18.420467109
 10
20.0715973174
 20
18.4128043091
 10
20.0932654953
 20
18.4177188101
  0
LWPOLYLINE
  5
3DC
330
1F
100
AcDbEntity
  8
0
  6
Continuous
 62
     7
370
    25
100
AcDbPolyline
 90
        5
 70
   128
 43
0.0
 10
19.9872741096
 20
18.6013211689
 10
19.9777885371
 20
18.5933986818
 10
19.9670517791
 20
18.5703044746
 10
19.9662035208
 20
18.5390009858
 10
19.9753583243
 20
18.5037159252
  0
ARC
  5
3DD
330
1F
100
AcDbEntity
  8
0
  6
Continuous
 62
     7
370
    25
100
AcDbCircle
 10
20.2041653838
 20
18.6025850202
 30
0.0
 40
0.1304574725829716
100
AcDbArc
 50
339.6270240569
 51
52.2634368039
  0
LINE
  5
3DE
330
1F
100
AcDbEntity
  8
0
  6
Continuous
 62
     7
370
    25
100
AcDbLine
 10
24.9899465601
 20
16.0148705356
 30
0.0
 11
25.0783349077
 21
15.9049162715
 31
0.0
  0
LINE
  5
3DF
330
1F
100
AcDbEntity
  8
0
  6
Continuous
 62
     7
370
    25
100
AcDbLine
 10
25.0783349077
 20
15.7870587571
 30
0.0
 11
24.9899465601
 21
15.7791555069
 31
0.0
  0
LINE
  5
3E0
330
1F
100
AcDbEntity
  8
0
  6
Continuous
 62
     7
370
    25
100
AcDbLine
 10
24.9899465601
 20
15.7791555069
 30
0.0
 11
24.9015582124
 21
15.889109771
 31
0.0
  0
LINE
  5
3E1
330
1F
100
AcDbEntity
  8
0
  6
Continuous
 62
     7
370
    25
100
AcDbLine
 10
24.9015582124
 20
15.889109771
 30
0.0
 11
24.9015582124
 21
16.0069672854
 31
0.0
  0
LINE
  5
3E2
330
1F
100
AcDbEntity
  8
0
  6
Continuous
 62
     7
370
    25
100
AcDbLine
 10
24.9015582124
 20
16.0069672854
 30
0.0
 11
24.9899465601
 21
16.0148705356
 31
0.0
  0
LINE
  5
3E3
330
1F
100
AcDbEntity
  8
0
  6
Continuous
 62
     7
370
    25
100
AcDbLine
 10
25.0783349077
 20
15.9049162715
 30
0.0
 11
25.0783349077
 21
15.7870587571
 31
0.0
  0
LWPOLYLINE
  5
3E4
330
1F
100
AcDbEntity
  8
0
  6
Continuous
 62
     7
370
    25
100
AcDbPolyline
 90
       18
 70
   128
 43
0.0
 10
24.9899465601
 20
15.8104596952
 10
25.0170228218
 20
15.8006736551
 10
25.0404422844
 20
15.8038987803
 10
25.0570420196
 20
15.8196994997
 10
25.0645801412
 20
15.8459418385
 10
25.0620385841
 20
15.8790816236
 10
25.0497605997
 20
15.9146431433
 10
25.0294043978
 20
15.9478236174
 10
25.0037191963
 20
15.9741418388
 10
24.9761739239
 20
15.9900433861
 10
24.9504887223
 20
15.9933806671
 10
24.9301325204
 20
15.9837029635
 10
24.917854536
 20
15.9623173029
 10
24.9153129789
 20
15.9321119372
 10
24.9228511005
 20
15.8971662683
 10
24.9394508357
 20
15.8621999027
 10
24.9628702983
 20
15.8319352415
 10
24.9899465601
 20
15.8104596952
  0
ARC
  5
3E5
330
1F
100
AcDbEntity
  8
0
  6
Continuous
 62
     7
370
    25
100
AcDbCircle
 10
25.0206715699
 20
15.8498507214
 30
0.0
 40
0.0498811062076672
100
AcDbArc
 50
232.0809663326
 51
296.6085752384
  0
LWPOLYLINE
  5
3E6
330
1F
100
AcDbEntity
  8
0
  6
Continuous
 62
     7
370
    25
100
AcDbPolyline
 90
        8
 70
   128
 43
0.0
 10
24.9370215779
 20
15.9888550211
 10
24.9302032311
 20
15.9837437839
 10
24.9179252467
 20
15.9623581233
 10
24.9153836896
 20
15.9321527576
 10
24.9229218112
 20
15.8972070888
 10
24.9395215464
 20
15.8622407231
 10
24.962941009
 20
15.831976062
 10
24.9900172707
 20
15.8105005156
  0
LINE
  5
3E7
330
1F
100
AcDbEntity
  8
0
  6
Continuous
 62
     7
370
    25
100
AcDbLine
 10
30.2366788765
 20
13.3888270888
 30
0.0
 11
30.2366788765
 21
12.092343501
 31
0.0
  0
LINE
  5
3E8
330
1F
100
AcDbEntity
  8
0
  6
Continuous
 62
     7
370
    25
100
AcDbLine
 10
30.2366788765
 20
12.092343501
 30
0.0
 11
30.1730392662
 21
12.129081866
 31
0.0
  0
LINE
  5
3E9
330
1F
100
AcDbEntity
  8
0
  6
Continuous
 62
     7
370
    25
100
AcDbLine
 10
19.806853854
 20
18.1133533257
 30
0.0
 11
30.1730392662
 21
12.129081866
 31
0.0
  0
LINE
  5
3EA
330
1F
100
AcDbEntity
  8
0
  6
Continuous
 62
     7
370
    25
100
AcDbLine
 10
19.7432142437
 20
18.1500916907
 30
0.0
 11
19.806853854
 21
18.1133533257
 31
0.0
  0
LINE
  5
3EB
330
1F
100
AcDbEntity
  8
0
  6
Continuous
 62
     7
370
    25
100
AcDbLine
 10
19.7432142437
 20
18.1500916907
 30
0.0
 11
19.7432142437
 21
19.4322280546
 31
0.0
  0
LINE
  5
3EC
330
1F
100
AcDbEntity
  8
0
  6
Continuous
 62
     7
370
    25
100
AcDbLine
 10
20.7473058729
 20
18.7414431097
 30
0.0
 11
20.2735443296
 21
19.0149398271
 31
0.0
  0
LINE
  5
3ED
330
1F
100
AcDbEntity
  8
0
  6
Continuous
 62
     7
370
    25
100
AcDbLine
 10
20.2735443296
 20
19.0149398271
 30
0.0
 11
20.2735443296
 21
18.5388965338
 31
0.0
  0
LINE
  5
3EE
330
1F
100
AcDbEntity
  8
0
  6
Continuous
 62
     7
370
    25
100
AcDbLine
 10
20.2735443296
 20
18.5388965338
 30
0.0
 11
20.7473058729
 21
18.2653998163
 31
0.0
  0
LINE
  5
3EF
330
1F
100
AcDbEntity
  8
0
  6
Continuous
 62
     7
370
    25
100
AcDbLine
 10
20.7473058729
 20
18.2653998163
 30
0.0
 11
20.7473058729
 21
18.7414431097
 31
0.0
  0
LINE
  5
3F0
330
1F
100
AcDbEntity
  8
0
  6
Continuous
 62
     7
370
    25
100
AcDbLine
 10
24.6363931695
 20
16.4963208022
 30
0.0
 11
24.1626316261
 21
16.7698175196
 31
0.0
  0
LINE
  5
3F1
330
1F
100
AcDbEntity
  8
0
  6
Continuous
 62
     7
370
    25
100
AcDbLine
 10
24.1626316261
 20
16.7698175196
 30
0.0
 11
24.1626316261
 21
16.2937742263
 31
0.0
  0
LINE
  5
3F2
330
1F
100
AcDbEntity
  8
0
  6
Continuous
 62
     7
370
    25
100
AcDbLine
 10
24.1626316261
 20
16.2937742263
 30
0.0
 11
24.6363931695
 21
16.0202775088
 31
0.0
  0
LINE
  5
3F3
330
1F
100
AcDbEntity
  8
0
  6
Continuous
 62
     7
370
    25
100
AcDbLine
 10
24.6363931695
 20
16.0202775088
 30
0.0
 11
24.6363931695
 21
16.4963208022
 31
0.0
  0
LINE
  5
3F4
330
1F
100
AcDbEntity
  8
0
  6
Continuous
 62
     7
370
    25
100
AcDbLine
 10
28.9285313313
 20
13.4591917266
 30
0.0
 11
28.4547697879
 21
13.7326884441
 31
0.0
  0
LINE
  5
3F5
330
1F
100
AcDbEntity
  8
0
  6
Continuous
 62
     7
370
    25
100
AcDbLine
 10
28.4547697879
 20
13.7326884441
 30
0.0
 11
28.4547697879
 21
13.2566451508
 31
0.0
  0
LINE
  5
3F6
330
1F
100
AcDbEntity
  8
0
  6
Continuous
 62
     7
370
    25
100
AcDbLine
 10
28.4547697879
 20
13.2566451508
 30
0.0
 11
28.9285313313
 21
12.9831484333
 31
0.0
  0
LINE
  5
3F7
330
1F
100
AcDbEntity
  8
0
  6
Continuous
 62
     7
370
    25
100
AcDbLine
 10
28.9285313313
 20
12.9831484333
 30
0.0
 11
28.9285313313
 21
13.4591917266
 31
0.0
  0
LINE
  5
3F8
330
1F
100
AcDbEntity
  8
0
  6
Continuous
 62
     7
370
    25
100
AcDbLine
 10
28.9285313313
 20
14.0185221828
 30
0.0
 11
28.4547697879
 21
14.2920189002
 31
0.0
  0
LINE
  5
3F9
330
1F
100
AcDbEntity
  8
0
  6
Continuous
 62
     7
370
    25
100
AcDbLine
 10
28.4547697879
 20
14.2920189002
 30
0.0
 11
28.4547697879
 21
13.8159756069
 31
0.0
  0
LINE
  5
3FA
330
1F
100
AcDbEntity
  8
0
  6
Continuous
 62
     7
370
    25
100
AcDbLine
 10
28.4547697879
 20
13.8159756069
 30
0.0
 11
28.9285313313
 21
13.5424788894
 31
0.0
  0
LINE
  5
3FB
330
1F
100
AcDbEntity
  8
0
  6
Continuous
 62
     7
370
    25
100
AcDbLine
 10
28.9285313313
 20
13.5424788894
 30
0.0
 11
28.9285313313
 21
14.0185221828
 31
0.0
  0
LINE
  5
3FC
330
1F
100
AcDbEntity
  8
0
  6
Continuous
 62
     7
370
    25
100
AcDbLine
 10
23.8585757102
 20
16.3860148075
 30
0.0
 11
23.3848141668
 21
16.659511525
 31
0.0
  0
LINE
  5
3FD
330
1F
100
AcDbEntity
  8
0
  6
Continuous
 62
     7
370
    25
100
AcDbLine
 10
23.3848141668
 20
16.659511525
 30
0.0
 11
23.3848141668
 21
16.1834682317
 31
0.0
  0
LINE
  5
3FE
330
1F
100
AcDbEntity
  8
0
  6
Continuous
 62
     7
370
    25
100
AcDbLine
 10
23.3848141668
 20
16.1834682317
 30
0.0
 11
23.8585757102
 21
15.9099715142
 31
0.0
  0
LINE
  5
3FF
330
1F
100
AcDbEntity
  8
0
  6
Continuous
 62
     7
370
    25
100
AcDbLine
 10
23.8585757102
 20
15.9099715142
 30
0.0
 11
23.8585757102
 21
16.3860148075
 31
0.0
  0
LINE
  5
400
330
1F
100
AcDbEntity
  8
0
  6
Continuous
 62
     7
370
    25
100
AcDbLine
 10
29.7063487906
 20
13.0101672651
 30
0.0
 11
29.2325872472
 21
13.2836639826
 31
0.0
  0
LINE
  5
401
330
1F
100
AcDbEntity
  8
0
  6
Continuous
 62
     7
370
    25
100
AcDbLine
 10
29.2325872472
 20
13.2836639826
 30
0.0
 11
29.2325872472
 21
12.8076206893
 31
0.0
  0
LINE
  5
402
330
1F
100
AcDbEntity
  8
0
  6
Continuous
 62
     7
370
    25
100
AcDbLine
 10
29.2325872472
 20
12.8076206893
 30
0.0
 11
29.7063487906
 21
12.5341239718
 31
0.0
  0
LINE
  5
403
330
1F
100
AcDbEntity
  8
0
  6
Continuous
 62
     7
370
    25
100
AcDbLine
 10
29.7063487906
 20
12.5341239718
 30
0.0
 11
29.7063487906
 21
13.0101672651
 31
0.0
  0
LINE
  5
404
330
1F
100
AcDbEntity
  8
0
  6
Continuous
 62
     7
370
    25
100
AcDbLine
 10
29.7063487906
 20
13.5694977213
 30
0.0
 11
29.2325872472
 21
13.8429944387
 31
0.0
  0
LINE
  5
405
330
1F
100
AcDbEntity
  8
0
  6
Continuous
 62
     7
370
    25
100
AcDbLine
 10
29.2325872472
 20
13.8429944387
 30
0.0
 11
29.2325872472
 21
13.3669511454
 31
0.0
  0
LINE
  5
406
330
1F
100
AcDbEntity
  8
0
  6
Continuous
 62
     7
370
    25
100
AcDbLine
 10
29.2325872472
 20
13.3669511454
 30
0.0
 11
29.7063487906
 21
13.0934544279
 31
0.0
  0
LINE
  5
407
330
1F
100
AcDbEntity
  8
0
  6
Continuous
 62
     7
370
    25
100
AcDbLine
 10
29.7063487906
 20
13.0934544279
 30
0.0
 11
29.7063487906
 21
13.5694977213
 31
0.0
  0
LINE
  5
408
330
1F
100
AcDbEntity
  8
0
  6
Continuous
 62
     7
370
    25
100
AcDbLine
 10
24.6363931695
 20
15.936990346
 30
0.0
 11
24.1626316261
 21
16.2104870635
 31
0.0
  0
LINE
  5
409
330
1F
100
AcDbEntity
  8
0
  6
Continuous
 62
     7
370
    25
100
AcDbLine
 10
24.1626316261
 20
16.2104870635
 30
0.0
 11
24.1626316261
 21
15.7344437701
 31
0.0
  0
LINE
  5
40A
330
1F
100
AcDbEntity
  8
0
  6
Continuous
 62
     7
370
    25
100
AcDbLine
 10
24.1626316261
 20
15.7344437701
 30
0.0
 11
24.6363931695
 21
15.4609470527
 31
0.0
  0
LINE
  5
40B
330
1F
100
AcDbEntity
  8
0
  6
Continuous
 62
     7
370
    25
100
AcDbLine
 10
24.6363931695
 20
15.4609470527
 30
0.0
 11
24.6363931695
 21
15.936990346
 31
0.0
  0
LINE
  5
40C
330
1F
100
AcDbEntity
  8
0
  6
Continuous
 62
     7
370
    25
100
AcDbLine
 10
21.5251233323
 20
17.733088192
 30
0.0
 11
21.0513617889
 21
18.0065849095
 31
0.0
  0
LINE
  5
40D
330
1F
100
AcDbEntity
  8
0
  6
Continuous
 62
     7
370
    25
100
AcDbLine
 10
21.0513617889
 20
18.0065849095
 30
0.0
 11
21.0513617889
 21
17.5305416162
 31
0.0
  0
LINE
  5
40E
330
1F
100
AcDbEntity
  8
0
  6
Continuous
 62
     7
370
    25
100
AcDbLine
 10
21.0513617889
 20
17.5305416162
 30
0.0
 11
21.5251233323
 21
17.2570448987
 31
0.0
  0
LINE
  5
40F
330
1F
100
AcDbEntity
  8
0
  6
Continuous
 62
     7
370
    25
100
AcDbLine
 10
21.5251233323
 20
17.2570448987
 30
0.0
 11
21.5251233323
 21
17.733088192
 31
0.0
  0
LINE
  5
410
330
1F
100
AcDbEntity
  8
0
  6
Continuous
 62
     7
370
    25
100
AcDbLine
 10
26.5950789534
 20
15.3655955673
 30
0.0
 11
26.12131741
 21
15.6390922847
 31
0.0
  0
LINE
  5
411
330
1F
100
AcDbEntity
  8
0
  6
Continuous
 62
     7
370
    25
100
AcDbLine
 10
26.12131741
 20
15.6390922847
 30
0.0
 11
26.12131741
 21
15.1630489914
 31
0.0
  0
LINE
  5
412
330
1F
100
AcDbEntity
  8
0
  6
Continuous
 62
     7
370
    25
100
AcDbLine
 10
26.12131741
 20
15.1630489914
 30
0.0
 11
26.5950789534
 21
14.889552274
 31
0.0
  0
LINE
  5
413
330
1F
100
AcDbEntity
  8
0
  6
Continuous
 62
     7
370
    25
100
AcDbLine
 10
26.5950789534
 20
14.889552274
 30
0.0
 11
26.5950789534
 21
15.3655955673
 31
0.0
  0
LINE
  5
414
330
1F
100
AcDbEntity
  8
0
  6
Continuous
 62
     7
370
    25
100
AcDbLine
 10
26.5950789534
 20
14.8062651111
 30
0.0
 11
26.12131741
 21
15.0797618286
 31
0.0
  0
LINE
  5
415
330
1F
100
AcDbEntity
  8
0
  6
Continuous
 62
     7
370
    25
100
AcDbLine
 10
26.12131741
 20
15.0797618286
 30
0.0
 11
26.12131741
 21
14.6037185353
 31
0.0
  0
LINE
  5
416
330
1F
100
AcDbEntity
  8
0
  6
Continuous
 62
     7
370
    25
100
AcDbLine
 10
26.12131741
 20
14.6037185353
 30
0.0
 11
26.5950789534
 21
14.3302218178
 31
0.0
  0
LINE
  5
417
330
1F
100
AcDbEntity
  8
0
  6
Continuous
 62
     7
370
    25
100
AcDbLine
 10
26.5950789534
 20
14.3302218178
 30
0.0
 11
26.5950789534
 21
14.8062651111
 31
0.0
  0
LINE
  5
418
330
1F
100
AcDbEntity
  8
0
  6
Continuous
 62
     7
370
    25
100
AcDbLine
 10
22.3029407916
 20
17.8433941867
 30
0.0
 11
21.8291792482
 21
18.1168909041
 31
0.0
  0
LINE
  5
419
330
1F
100
AcDbEntity
  8
0
  6
Continuous
 62
     7
370
    25
100
AcDbLine
 10
21.8291792482
 20
18.1168909041
 30
0.0
 11
21.8291792482
 21
17.6408476108
 31
0.0
  0
LINE
  5
41A
330
1F
100
AcDbEntity
  8
0
  6
Continuous
 62
     7
370
    25
100
AcDbLine
 10
21.8291792482
 20
17.6408476108
 30
0.0
 11
22.3029407916
 21
17.3673508933
 31
0.0
  0
LINE
  5
41B
330
1F
100
AcDbEntity
  8
0
  6
Continuous
 62
     7
370
    25
100
AcDbLine
 10
22.3029407916
 20
17.3673508933
 30
0.0
 11
22.3029407916
 21
17.8433941867
 31
0.0
  0
LINE
  5
41C
330
1F
100
AcDbEntity
  8
0
  6
Continuous
 62
     7
370
    25
100
AcDbLine
 10
20.7473058729
 20
18.1821126535
 30
0.0
 11
20.2735443296
 21
18.455609371
 31
0.0
  0
LINE
  5
41D
330
1F
100
AcDbEntity
  8
0
  6
Continuous
 62
     7
370
    25
100
AcDbLine
 10
20.2735443296
 20
18.455609371
 30
0.0
 11
20.2735443296
 21
17.9795660777
 31
0.0
  0
LINE
  5
41E
330
1F
100
AcDbEntity
  8
0
  6
Continuous
 62
     7
370
    25
100
AcDbLine
 10
20.2735443296
 20
17.9795660777
 30
0.0
 11
20.7473058729
 21
17.7060693602
 31
0.0
  0
LINE
  5
41F
330
1F
100
AcDbEntity
  8
0
  6
Continuous
 62
     7
370
    25
100
AcDbLine
 10
20.7473058729
 20
17.7060693602
 30
0.0
 11
20.7473058729
 21
18.1821126535
 31
0.0
  0
LINE
  5
420
330
1F
100
AcDbEntity
  8
0
  6
Continuous
 62
     7
370
    25
100
AcDbLine
 10
25.8172614941
 20
15.8146200288
 30
0.0
 11
25.3434999507
 21
16.0881167462
 31
0.0
  0
LINE
  5
421
330
1F
100
AcDbEntity
  8
0
  6
Continuous
 62
     7
370
    25
100
AcDbLine
 10
25.3434999507
 20
16.0881167462
 30
0.0
 11
25.3434999507
 21
15.6120734529
 31
0.0
  0
LINE
  5
422
330
1F
100
AcDbEntity
  8
0
  6
Continuous
 62
     7
370
    25
100
AcDbLine
 10
25.3434999507
 20
15.6120734529
 30
0.0
 11
25.8172614941
 21
15.3385767355
 31
0.0
  0
LINE
  5
423
330
1F
100
AcDbEntity
  8
0
  6
Continuous
 62
     7
370
    25
100
AcDbLine
 10
25.8172614941
 20
15.3385767355
 30
0.0
 11
25.8172614941
 21
15.8146200288
 31
0.0
  0
LINE
  5
424
330
1F
100
AcDbEntity
  8
0
  6
Continuous
 62
     7
370
    25
100
AcDbLine
 10
25.8172614941
 20
15.2552895726
 30
0.0
 11
25.3434999507
 21
15.5287862901
 31
0.0
  0
LINE
  5
425
330
1F
100
AcDbEntity
  8
0
  6
Continuous
 62
     7
370
    25
100
AcDbLine
 10
25.3434999507
 20
15.5287862901
 30
0.0
 11
25.3434999507
 21
15.0527429968
 31
0.0
  0
LINE
  5
426
330
1F
100
AcDbEntity
  8
0
  6
Continuous
 62
     7
370
    25
100
AcDbLine
 10
25.3434999507
 20
15.0527429968
 30
0.0
 11
25.8172614941
 21
14.7792462793
 31
0.0
  0
LINE
  5
427
330
1F
100
AcDbEntity
  8
0
  6
Continuous
 62
     7
370
    25
100
AcDbLine
 10
25.8172614941
 20
14.7792462793
 30
0.0
 11
25.8172614941
 21
15.2552895726
 31
0.0
  0
LINE
  5
428
330
1F
100
AcDbEntity
  8
0
  6
Continuous
 62
     7
370
    25
100
AcDbLine
 10
21.5251233323
 20
18.2924186482
 30
0.0
 11
21.0513617889
 21
18.5659153656
 31
0.0
  0
LINE
  5
429
330
1F
100
AcDbEntity
  8
0
  6
Continuous
 62
     7
370
    25
100
AcDbLine
 10
21.0513617889
 20
18.5659153656
 30
0.0
 11
21.0513617889
 21
18.0898720723
 31
0.0
  0
LINE
  5
42A
330
1F
100
AcDbEntity
  8
0
  6
Continuous
 62
     7
370
    25
100
AcDbLine
 10
21.0513617889
 20
18.0898720723
 30
0.0
 11
21.5251233323
 21
17.8163753548
 31
0.0
  0
LINE
  5
42B
330
1F
100
AcDbEntity
  8
0
  6
Continuous
 62
     7
370
    25
100
AcDbLine
 10
21.5251233323
 20
17.8163753548
 30
0.0
 11
21.5251233323
 21
18.2924186482
 31
0.0
  0
LINE
  5
42C
330
1F
100
AcDbEntity
  8
0
  6
Continuous
 62
     7
370
    25
100
AcDbLine
 10
23.0807582509
 20
16.835039269
 30
0.0
 11
22.6069967075
 21
17.1085359865
 31
0.0
  0
LINE
  5
42D
330
1F
100
AcDbEntity
  8
0
  6
Continuous
 62
     7
370
    25
100
AcDbLine
 10
22.6069967075
 20
17.1085359865
 30
0.0
 11
22.6069967075
 21
16.6324926932
 31
0.0
  0
LINE
  5
42E
330
1F
100
AcDbEntity
  8
0
  6
Continuous
 62
     7
370
    25
100
AcDbLine
 10
22.6069967075
 20
16.6324926932
 30
0.0
 11
23.0807582509
 21
16.3589959757
 31
0.0
  0
LINE
  5
42F
330
1F
100
AcDbEntity
  8
0
  6
Continuous
 62
     7
370
    25
100
AcDbLine
 10
23.0807582509
 20
16.3589959757
 30
0.0
 11
23.0807582509
 21
16.835039269
 31
0.0
  0
LINE
  5
430
330
1F
100
AcDbEntity
  8
0
  6
Continuous
 62
     7
370
    25
100
AcDbLine
 10
28.150713872
 20
14.4675466443
 30
0.0
 11
27.6769523286
 21
14.7410433617
 31
0.0
  0
LINE
  5
431
330
1F
100
AcDbEntity
  8
0
  6
Continuous
 62
     7
370
    25
100
AcDbLine
 10
27.6769523286
 20
14.7410433617
 30
0.0
 11
27.6769523286
 21
14.2650000684
 31
0.0
  0
LINE
  5
432
330
1F
100
AcDbEntity
  8
0
  6
Continuous
 62
     7
370
    25
100
AcDbLine
 10
27.6769523286
 20
14.2650000684
 30
0.0
 11
28.150713872
 21
13.991503351
 31
0.0
  0
LINE
  5
433
330
1F
100
AcDbEntity
  8
0
  6
Continuous
 62
     7
370
    25
100
AcDbLine
 10
28.150713872
 20
13.991503351
 30
0.0
 11
28.150713872
 21
14.4675466443
 31
0.0
  0
LINE
  5
434
330
1F
100
AcDbEntity
  8
0
  6
Continuous
 62
     7
370
    25
100
AcDbLine
 10
28.150713872
 20
13.9082161881
 30
0.0
 11
27.6769523286
 21
14.1817129056
 31
0.0
  0
LINE
  5
435
330
1F
100
AcDbEntity
  8
0
  6
Continuous
 62
     7
370
    25
100
AcDbLine
 10
27.6769523286
 20
14.1817129056
 30
0.0
 11
27.6769523286
 21
13.7056696123
 31
0.0
  0
LINE
  5
436
330
1F
100
AcDbEntity
  8
0
  6
Continuous
 62
     7
370
    25
100
AcDbLine
 10
27.6769523286
 20
13.7056696123
 30
0.0
 11
28.150713872
 21
13.4321728948
 31
0.0
  0
LINE
  5
437
330
1F
100
AcDbEntity
  8
0
  6
Continuous
 62
     7
370
    25
100
AcDbLine
 10
28.150713872
 20
13.4321728948
 30
0.0
 11
28.150713872
 21
13.9082161881
 31
0.0
  0
LINE
  5
438
330
1F
100
AcDbEntity
  8
0
  6
Continuous
 62
     7
370
    25
100
AcDbLine
 10
23.8585757102
 20
16.9453452637
 30
0.0
 11
23.3848141668
 21
17.2188419811
 31
0.0
  0
LINE
  5
439
330
1F
100
AcDbEntity
  8
0
  6
Continuous
 62
     7
370
    25
100
AcDbLine
 10
23.3848141668
 20
17.2188419811
 30
0.0
 11
23.3848141668
 21
16.7427986878
 31
0.0
  0
LINE
  5
43A
330
1F
100
AcDbEntity
  8
0
  6
Continuous
 62
     7
370
    25
100
AcDbLine
 10
23.3848141668
 20
16.7427986878
 30
0.0
 11
23.8585757102
 21
16.4693019703
 31
0.0
  0
LINE
  5
43B
330
1F
100
AcDbEntity
  8
0
  6
Continuous
 62
     7
370
    25
100
AcDbLine
 10
23.8585757102
 20
16.4693019703
 30
0.0
 11
23.8585757102
 21
16.9453452637
 31
0.0
  0
LINE
  5
43C
330
1F
100
AcDbEntity
  8
0
  6
Continuous
 62
     7
370
    25
100
AcDbLine
 10
22.3029407916
 20
17.2840637305
 30
0.0
 11
21.8291792482
 21
17.557560448
 31
0.0
  0
LINE
  5
43D
330
1F
100
AcDbEntity
  8
0
  6
Continuous
 62
     7
370
    25
100
AcDbLine
 10
21.8291792482
 20
17.557560448
 30
0.0
 11
21.8291792482
 21
17.0815171547
 31
0.0
  0
LINE
  5
43E
330
1F
100
AcDbEntity
  8
0
  6
Continuous
 62
     7
370
    25
100
AcDbLine
 10
21.8291792482
 20
17.0815171547
 30
0.0
 11
22.3029407916
 21
16.8080204372
 31
0.0
  0
LINE
  5
43F
330
1F
100
AcDbEntity
  8
0
  6
Continuous
 62
     7
370
    25
100
AcDbLine
 10
22.3029407916
 20
16.8080204372
 30
0.0
 11
22.3029407916
 21
17.2840637305
 31
0.0
  0
LINE
  5
440
330
1F
100
AcDbEntity
  8
0
  6
Continuous
 62
     7
370
    25
100
AcDbLine
 10
27.3728964127
 20
14.9165711058
 30
0.0
 11
26.8991348693
 21
15.1900678232
 31
0.0
  0
LINE
  5
441
330
1F
100
AcDbEntity
  8
0
  6
Continuous
 62
     7
370
    25
100
AcDbLine
 10
26.8991348693
 20
15.1900678232
 30
0.0
 11
26.8991348693
 21
14.7140245299
 31
0.0
  0
LINE
  5
442
330
1F
100
AcDbEntity
  8
0
  6
Continuous
 62
     7
370
    25
100
AcDbLine
 10
26.8991348693
 20
14.7140245299
 30
0.0
 11
27.3728964127
 21
14.4405278125
 31
0.0
  0
LINE
  5
443
330
1F
100
AcDbEntity
  8
0
  6
Continuous
 62
     7
370
    25
100
AcDbLine
 10
27.3728964127
 20
14.4405278125
 30
0.0
 11
27.3728964127
 21
14.9165711058
 31
0.0
  0
LINE
  5
444
330
1F
100
AcDbEntity
  8
0
  6
Continuous
 62
     7
370
    25
100
AcDbLine
 10
27.3728964127
 20
14.3572406496
 30
0.0
 11
26.8991348693
 21
14.6307373671
 31
0.0
  0
LINE
  5
445
330
1F
100
AcDbEntity
  8
0
  6
Continuous
 62
     7
370
    25
100
AcDbLine
 10
26.8991348693
 20
14.6307373671
 30
0.0
 11
26.8991348693
 21
14.1546940738
 31
0.0
  0
LINE
  5
446
330
1F
100
AcDbEntity
  8
0
  6
Continuous
 62
     7
370
    25
100
AcDbLine
 10
26.8991348693
 20
14.1546940738
 30
0.0
 11
27.3728964127
 21
13.8811973563
 31
0.0
  0
LINE
  5
447
330
1F
100
AcDbEntity
  8
0
  6
Continuous
 62
     7
370
    25
100
AcDbLine
 10
27.3728964127
 20
13.8811973563
 30
0.0
 11
27.3728964127
 21
14.3572406496
 31
0.0
  0
LINE
  5
448
330
1F
100
AcDbEntity
  8
0
  6
Continuous
 62
     7
370
    25
100
AcDbLine
 10
23.0807582509
 20
17.3943697252
 30
0.0
 11
22.6069967075
 21
17.6678664426
 31
0.0
  0
LINE
  5
449
330
1F
100
AcDbEntity
  8
0
  6
Continuous
 62
     7
370
    25
100
AcDbLine
 10
22.6069967075
 20
17.6678664426
 30
0.0
 11
22.6069967075
 21
17.1918231493
 31
0.0
  0
LINE
  5
44A
330
1F
100
AcDbEntity
  8
0
  6
Continuous
 62
     7
370
    25
100
AcDbLine
 10
22.6069967075
 20
17.1918231493
 30
0.0
 11
23.0807582509
 21
16.9183264318
 31
0.0
  0
LINE
  5
44B
330
1F
100
AcDbEntity
  8
0
  6
Continuous
 62
     7
370
    25
100
AcDbLine
 10
23.0807582509
 20
16.9183264318
 30
0.0
 11
23.0807582509
 21
17.3943697252
 31
0.0
  0
LWPOLYLINE
  5
44C
330
1F
100
AcDbEntity
  8
0
  6
Continuous
 62
     7
370
    25
100
AcDbPolyline
 90
       18
 70
   128
 43
0.0
 10
30.0150009006
 20
12.7511486544
 10
30.0099155954
 20
12.7854984906
 10
29.9953464785
 20
12.8210805594
 10
29.9732611898
 20
12.8530893054
 10
29.9466424699
 20
12.87720177
 10
29.9190853246
 20
12.8901614312
 10
29.8943114988
 20
12.890218015
 10
29.8756668352
 20
12.8773638795
 10
29.8656693988
 20
12.8533350468
 10
29.8656693988
 20
12.8213767439
 10
29.8756668352
 20
12.7858051169
 10
29.8943114988
 20
12.7514243109
 10
29.9190853246
 20
12.7228776443
 10
29.9466424699
 20
12.7040205028
 10
29.9732611898
 20
12.6973996476
 10
29.9953464785
 20
12.703909262
 10
30.0099155954
 20
12.7226701865
 10
30.0150009006
 20
12.7511486544
  0
LWPOLYLINE
  5
44D
330
1F
100
AcDbEntity
  8
0
  6
Continuous
 62
     7
370
    25
100
AcDbPolyline
 90
       18
 70
   128
 43
0.0
 10
25.0652534323
 20
15.8535392893
 10
25.0601681271
 20
15.8878891255
 10
25.0455990101
 20
15.9234711944
 10
25.0235137215
 20
15.9554799404
 10
24.9968950016
 20
15.9795924049
 10
24.9693378562
 20
15.9925520662
 10
24.9445640305
 20
15.99260865
 10
24.9259193669
 20
15.9797545144
 10
24.9159219305
 20
15.9557256817
 10
24.9159219305
 20
15.9237673789
 10
24.9259193669
 20
15.8881957518
 10
24.9445640305
 20
15.8538149458
 10
24.9693378562
 20
15.8252682793
 10
24.9968950016
 20
15.8064111377
 10
25.0235137215
 20
15.7997902825
 10
25.0455990101
 20
15.806299897
 10
25.0601681271
 20
15.8250608215
 10
25.0652534323
 20
15.8535392893
  0
LWPOLYLINE
  5
44E
330
1F
100
AcDbEntity
  8
0
  6
Continuous
 62
     7
370
    25
100
AcDbPolyline
 90
       18
 70
   128
 43
0.0
 10
20.115505964
 20
18.4660054371
 10
20.1104206588
 20
18.5003552733
 10
20.0958515418
 20
18.5359373422
 10
20.0737662532
 20
18.5679460882
 10
20.0471475333
 20
18.5920585528
 10
20.0195903879
 20
18.605018214
 10
19.9948165622
 20
18.6050747978
 10
19.9761718986
 20
18.5922206622
 10
19.9661744622
 20
18.5681918295
 10
19.9661744622
 20
18.5362335267
 10
19.9761718986
 20
18.5006618996
 10
19.9948165622
 20
18.4662810936
 10
20.0195903879
 20
18.4377344271
 10
20.0471475333
 20
18.4188772855
 10
20.0737662532
 20
18.4122564303
 10
20.0958515418
 20
18.4187660448
 10
20.1104206588
 20
18.4375269693
 10
20.115505964
 20
18.4660054371
  0
LINE
  5
44F
330
1F
100
AcDbEntity
  8
0
  6
Continuous
 62
     7
370
    25
100
AcDbLine
 10
30.278963862
 20
13.3988907386
 30
0.0
 11
30.278963862
 21
12.1167541036
 31
0.0
  0
LINE
  5
450
330
1F
100
AcDbEntity
  8
0
  6
Continuous
 62
     7
370
    25
100
AcDbLine
 10
30.278963862
 20
12.1167541036
 30
0.0
 11
30.2366788765
 21
12.092343501
 31
0.0
  0
LINE
  5
451
330
1F
100
AcDbEntity
  8
0
  6
Continuous
 62
     7
370
    25
100
AcDbLine
 10
30.3003184868
 20
12.129081866
 30
0.0
 11
31.8064559307
 21
12.9985565051
 31
0.0
  0
LINE
  5
452
330
1F
100
AcDbEntity
  8
0
  6
Continuous
 62
     7
370
    25
100
AcDbLine
 10
30.3003184868
 20
12.129081866
 30
0.0
 11
30.2796709688
 21
12.1171623076
 31
0.0
  0
LINE
  5
453
330
1F
100
AcDbEntity
  8
0
  6
Continuous
 62
     7
370
    25
100
AcDbLine
 10
30.2796709688
 20
12.1171623076
 30
0.0
 11
30.2796709688
 21
13.3992986714
 31
0.0
  0
LINE
  5
454
330
1F
100
AcDbEntity
  8
0
  6
Continuous
 62
     7
370
    25
100
AcDbLine
 10
30.7033693521
 20
13.5868960121
 30
0.0
 11
30.7033693521
 21
13.6438945417
 31
0.0
  0
LWPOLYLINE
  5
455
330
1F
100
AcDbEntity
  8
0
  6
Continuous
 62
     7
370
    25
100
AcDbPolyline
 90
        9
 70
   128
 43
0.0
 10
30.7457957589
 20
13.6113882554
 10
30.744181
 20
13.6010817757
 10
30.7395825555
 20
13.5904800031
 10
30.732700497
 20
13.5811969613
 10
30.7245825555
 20
13.5746459094
 10
30.716464614
 20
13.5718241856
 10
30.7095825555
 20
13.5731613717
 10
30.704984111
 20
13.5784538934
 10
30.7033693521
 20
13.5868960121
  0
LINE
  5
456
330
1F
100
AcDbEntity
  8
0
  6
Continuous
 62
     7
370
    25
100
AcDbLine
 10
31.0993491495
 20
13.8154902834
 30
0.0
 11
30.7457957589
 21
13.6113882554
 31
0.0
  0
LWPOLYLINE
  5
457
330
1F
100
AcDbEntity
  8
0
  6
Continuous
 62
     7
370
    25
100
AcDbPolyline
 90
        9
 70
   128
 43
0.0
 10
31.1417755564
 20
13.8399825267
 10
31.1401607974
 20
13.829676047
 10
31.135562353
 20
13.8190742744
 10
31.1286802945
 20
13.8097912326
 10
31.120562353
 20
13.8032401807
 10
31.1124444115
 20
13.8004184569
 10
31.105562353
 20
13.801755643
 10
31.1009639085
 20
13.8070481647
 10
31.0993491495
 20
13.8154902834
  0
LINE
  5
458
330
1F
100
AcDbEntity
  8
0
  6
Continuous
 62
     7
370
    25
100
AcDbLine
 10
31.1417755564
 20
13.8969810564
 30
0.0
 11
31.1417755564
 21
13.8399825267
 31
0.0
  0
ARC
  5
459
330
1F
100
AcDbEntity
  8
0
  6
Continuous
 62
     7
370
    25
100
AcDbCircle
 10
31.7703357595
 20
14.2578837134
 30
0.0
 40
0.0361597347002195
100
AcDbArc
 50
357.3195221954
 51
32.6844131562
  0
LINE
  5
45A
330
1F
100
AcDbEntity
  8
0
  6
Continuous
 62
     7
370
    25
100
AcDbLine
 10
31.8064559307
 20
14.2561926636
 30
0.0
 11
31.8064559307
 21
12.9985565051
 31
0.0
  0
LINE
  5
45B
330
1F
100
AcDbEntity
  8
0
  6
Continuous
 62
     7
370
    25
100
AcDbLine
 10
30.278963862
 20
12.1175705117
 30
0.0
 11
30.2796709688
 21
12.1171623076
 31
0.0
  0
ARC
  5
45C
330
1F
100
AcDbEntity
  8
0
  6
Continuous
 62
     7
370
    25
100
AcDbCircle
 10
30.6207331963
 20
13.6076312793
 30
0.0
 40
0.1251189811758204
100
AcDbArc
 50
1.720692051
 51
25.4549400292
  0
LINE
  5
45D
330
1F
100
AcDbEntity
  8
0
  6
Continuous
 62
     7
370
    25
100
AcDbLine
 10
30.7035107734
 20
13.635798858
 30
0.0
 11
30.7457957589
 21
13.6113882554
 31
0.0
  0
LINE
  5
45E
330
1F
100
AcDbEntity
  8
0
  6
Continuous
 62
     7
370
    25
100
AcDbLine
 10
30.7035107734
 20
13.635798858
 30
0.0
 11
30.7033693521
 21
13.6387043609
 31
0.0
  0
ARC
  5
45F
330
1F
100
AcDbEntity
  8
0
  6
Continuous
 62
     7
370
    25
100
AcDbCircle
 10
30.9742865869
 20
13.8117333073
 30
0.0
 40
0.125118981175595
100
AcDbArc
 50
1.720692051
 51
25.4549400293
  0
LINE
  5
460
330
1F
100
AcDbEntity
  8
0
  6
Continuous
 62
     7
370
    25
100
AcDbLine
 10
30.7035107734
 20
13.635798858
 30
0.0
 11
30.7033693521
 21
13.632893355
 31
0.0
  0
LINE
  5
461
330
1F
100
AcDbEntity
  8
0
  6
Continuous
 62
     7
370
    25
100
AcDbLine
 10
31.0994905709
 20
13.8643931293
 30
0.0
 11
31.1417755564
 21
13.8399825267
 31
0.0
  0
LINE
  5
462
330
1F
100
AcDbEntity
  8
0
  6
Continuous
 62
     7
370
    25
100
AcDbLine
 10
31.0994905709
 20
13.8725704539
 30
0.0
 11
31.0994905709
 21
13.8643931293
 31
0.0
  0
LWPOLYLINE
  5
463
330
1F
100
AcDbEntity
  8
0
  6
Continuous
 62
     7
370
    25
100
AcDbPolyline
 90
        3
 70
   128
 43
0.0
 10
31.0994905709
 20
13.8643931293
 10
31.0978758119
 20
13.8540866496
 10
31.0946245569
 20
13.8459725392
  0
LINE
  5
464
330
1F
100
AcDbEntity
  8
0
  6
Continuous
 62
     7
370
    25
100
AcDbLine
 10
29.2430524275
 20
13.3729925654
 30
0.0
 11
29.2325872472
 21
13.3669511454
 31
0.0
  0
LINE
  5
465
330
1F
100
AcDbEntity
  8
0
  6
Continuous
 62
     7
370
    25
100
AcDbLine
 10
29.2430524275
 20
13.4097309305
 30
0.0
 11
29.7063487906
 21
13.142275633
 31
0.0
  0
LINE
  5
466
330
1F
100
AcDbEntity
  8
0
  6
Continuous
 62
     7
370
    25
100
AcDbLine
 10
29.2430524275
 20
13.3729925654
 30
0.0
 11
29.2430524275
 21
13.8369530187
 31
0.0
  0
ARC
  5
467
330
1F
100
AcDbEntity
  8
0
  6
Continuous
 62
     7
370
    25
100
AcDbCircle
 10
19.8508560248
 20
18.1084963367
 30
0.0
 40
0.0442694181222954
100
AcDbArc
 50
173.7011524878
 51
234.9866671188
  0
ARC
  5
468
330
1F
100
AcDbEntity
  8
0
  6
Continuous
 62
     7
370
    25
100
AcDbCircle
 10
30.2117497444
 20
12.1228024038
 30
0.0
 40
0.0392164859290794
100
AcDbArc
 50
170.7859630095
 51
309.2032852357
  0
LINE
  5
469
330
1F
100
AcDbEntity
  8
0
  6
Continuous
 62
     7
370
    25
100
AcDbLine
 10
30.2365477762
 20
12.0924191836
 30
0.0
 11
30.2365374551
 21
12.0924132254
 31
0.0
  0
ARC
  5
46A
330
1F
100
AcDbEntity
  8
0
  6
Continuous
 62
     7
370
    25
100
AcDbCircle
 10
30.2616080086
 20
12.1228024038
 30
0.0
 40
0.0392164859290806
100
AcDbArc
 50
230.7967147643
 51
9.2140369905
  0
ARC
  5
46B
330
1F
100
AcDbEntity
  8
0
  6
Continuous
 62
     7
370
    25
100
AcDbCircle
 10
31.7637393678
 20
12.9931178554
 30
0.0
 40
0.0430613940685952
100
AcDbArc
 50
304.056350832
 51
7.2558295614
  0
LINE
  5
46C
330
1F
100
AcDbEntity
  8
0
  6
Continuous
 62
     7
370
    25
100
AcDbLine
 10
31.8824057722
 20
13.4037320754
 30
0.0
 11
31.8064559307
 21
13.4475769856
 31
0.0
  0
LINE
  5
46D
330
1F
100
AcDbEntity
  8
0
  6
Continuous
 62
     7
370
    25
100
AcDbLine
 10
31.9474967798
 20
13.3661558366
 30
0.0
 11
31.8824057722
 21
13.4037320754
 31
0.0
  0
LINE
  5
46E
330
1F
100
AcDbEntity
  8
0
  6
Continuous
 62
     7
370
    25
100
AcDbLine
 10
31.9474967798
 20
13.3661558366
 30
0.0
 11
32.088918136
 21
13.4477966478
 31
0.0
  0
LINE
  5
46F
330
1F
100
AcDbEntity
  8
0
  6
Continuous
 62
     7
370
    25
100
AcDbLine
 10
25.5024575551
 20
15.2925776775
 30
0.0
 11
25.6275635791
 21
15.3647998479
 31
0.0
  0
LINE
  5
470
330
1F
100
AcDbEntity
  8
0
  6
Continuous
 62
     7
370
    25
100
AcDbLine
 10
25.8172614941
 20
15.6391540167
 30
0.0
 11
25.8108589946
 21
15.6409141108
 31
0.0
  0
ARC
  5
471
330
1F
100
AcDbEntity
  8
0
  6
Continuous
 62
     7
370
    25
100
AcDbCircle
 10
25.6606388093
 20
15.3965991924
 30
0.0
 40
0.2505723693761203
100
AcDbArc
 50
103.8313747584
 51
129.1446008993
  0
LINE
  5
472
330
1F
100
AcDbEntity
  8
0
  6
Continuous
 62
     7
370
    25
100
AcDbLine
 10
21.2546549884
 20
17.7388221234
 30
0.0
 11
21.384922892
 21
17.8140241834
 31
0.0
  0
ARC
  5
473
330
1F
100
AcDbEntity
  8
0
  6
Continuous
 62
     7
370
    25
100
AcDbCircle
 10
21.4128011616
 20
17.8588243172
 30
0.0
 40
0.2367140800490826
100
AcDbArc
 50
103.3622278739
 51
134.900153726
  0
LINE
  5
474
330
1F
100
AcDbEntity
  8
0
  6
Continuous
 62
     7
370
    25
100
AcDbLine
 10
21.2116817306
 20
17.9140341771
 30
0.0
 11
21.2103193933
 21
17.9132477165
 31
0.0
  0
LINE
  5
475
330
1F
100
AcDbEntity
  8
0
  6
Continuous
 62
     7
370
    25
100
AcDbLine
 10
21.2280557121
 20
17.7271796766
 30
0.0
 11
21.2546549884
 21
17.7388221234
 31
0.0
  0
LINE
  5
476
330
1F
100
AcDbEntity
  8
0
  6
Continuous
 62
     7
370
    25
100
AcDbLine
 10
29.6969631049
 20
13.0155855062
 30
0.0
 11
29.5666952013
 21
12.9403834462
 31
0.0
  0
LINE
  5
477
330
1F
100
AcDbEntity
  8
0
  6
Continuous
 62
     7
370
    25
100
AcDbLine
 10
29.5666952013
 20
12.9403834462
 30
0.0
 11
29.5465277067
 21
12.9250280108
 31
0.0
  0
LINE
  5
478
330
1F
100
AcDbEntity
  8
0
  6
Continuous
 62
     7
370
    25
100
AcDbLine
 10
31.8064559307
 20
14.0333498059
 30
0.0
 11
31.8293957958
 21
14.0465927081
 31
0.0
  0
LWPOLYLINE
  5
479
330
1F
100
AcDbEntity
  8
0
  6
Continuous
 62
     7
370
    25
100
AcDbPolyline
 90
       16
 70
   128
 43
0.0
 10
31.8293957958
 20
14.0465927081
 10
31.8876448423
 20
14.0415670589
 10
31.9463015692
 20
14.0446287358
 10
32.0020444395
 20
14.0556043661
 10
32.0517169184
 20
14.0738724361
 10
32.0925062174
 20
14.0983984852
 10
32.122102573
 20
14.1277936843
 10
32.1388300413
 20
14.1603934803
 10
32.1417414011
 20
14.1943518541
 10
32.1306717915
 20
14.2277458553
 10
32.106248048
 20
14.2586844917
 10
32.0698532067
 20
14.2854158104
 10
32.0235481873
 20
14.3064261051
 10
31.9699550902
 20
14.320525632
 10
31.9121087158
 20
14.3269159816
 10
31.8870040521
 20
14.3271923097
  0
LINE
  5
47A
330
1F
100
AcDbEntity
  8
0
  6
Continuous
 62
     7
370
    25
100
AcDbLine
 10
20.7163748827
 20
18.331239441
 30
0.0
 11
20.7473058729
 21
18.3467838961
 31
0.0
  0
ARC
  5
47B
330
1F
100
AcDbEntity
  8
0
  6
Continuous
 62
     7
370
    25
100
AcDbCircle
 10
20.641054743
 20
18.2808611953
 30
0.0
 40
0.1997988320555873
100
AcDbArc
 50
75.5986338446
 51
125.7679918809
  0
LINE
  5
47C
330
1F
100
AcDbEntity
  8
0
  6
Continuous
 62
     7
370
    25
100
AcDbLine
 10
33.249236607
 20
13.8802732849
 30
0.0
 11
31.8064559307
 21
13.0473737292
 31
0.0
  0
ARC
  5
47D
330
1F
100
AcDbEntity
  8
0
  6
Continuous
 62
     7
370
    25
100
AcDbCircle
 10
22.080999876
 20
17.827158227
 30
0.0
 40
0.1964865746270552
100
AcDbArc
 50
243.0055536676
 51
286.7873883342
  0
ARC
  5
47E
330
1F
100
AcDbEntity
  8
0
  6
Continuous
 62
     7
370
    25
100
AcDbCircle
 10
22.106613626
 20
17.6573533025
 30
0.0
 40
0.1149209250984579
100
AcDbArc
 50
36.8146075
 51
83.1907690327
  0
LINE
  5
47F
330
1F
100
AcDbEntity
  8
0
  6
Continuous
 62
     7
370
    25
100
AcDbLine
 10
21.9881368526
 20
17.6542936451
 30
0.0
 11
21.9918138078
 21
17.6520787615
 31
0.0
  0
ARC
  5
480
330
1F
100
AcDbEntity
  8
0
  6
Continuous
 62
     7
370
    25
100
AcDbCircle
 10
29.5056210785
 20
13.54101564
 30
0.0
 40
0.1964865746270562
100
AcDbArc
 50
243.0055536676
 51
286.7873883342
  0
ARC
  5
481
330
1F
100
AcDbEntity
  8
0
  6
Continuous
 62
     7
370
    25
100
AcDbCircle
 10
29.5312348284
 20
13.3712107155
 30
0.0
 40
0.1149209250984682
100
AcDbArc
 50
36.8146075
 51
83.1907690327
  0
LINE
  5
482
330
1F
100
AcDbEntity
  8
0
  6
Continuous
 62
     7
370
    25
100
AcDbLine
 10
29.3938579502
 20
13.4501829632
 30
0.0
 11
29.3915448516
 21
13.4474705587
 31
0.0
  0
LINE
  5
483
330
1F
100
AcDbEntity
  8
0
  6
Continuous
 62
     7
370
    25
100
AcDbLine
 10
29.3915448516
 20
13.3864528041
 30
0.0
 11
29.4164350103
 21
13.3659361745
 31
0.0
  0
LINE
  5
484
330
1F
100
AcDbEntity
  8
0
  6
Continuous
 62
     7
370
    25
100
AcDbLine
 10
30.2368099767
 20
12.0924191836
 30
0.0
 11
30.2368202978
 21
12.0924132254
 31
0.0
  0
LINE
  5
485
330
1F
100
AcDbEntity
  8
0
  6
Continuous
 62
     7
370
    25
100
AcDbLine
 10
29.2430524275
 20
12.8136621093
 30
0.0
 11
29.2325872472
 21
12.8076206893
 31
0.0
  0
LINE
  5
486
330
1F
100
AcDbEntity
  8
0
  6
Continuous
 62
     7
370
    25
100
AcDbLine
 10
29.2430524275
 20
12.8504004743
 30
0.0
 11
29.7063487906
 21
12.5829451769
 31
0.0
  0
LINE
  5
487
330
1F
100
AcDbEntity
  8
0
  6
Continuous
 62
     7
370
    25
100
AcDbLine
 10
29.2430524275
 20
12.8136621093
 30
0.0
 11
29.2430524275
 21
13.2776225626
 31
0.0
  0
LINE
  5
488
330
1F
100
AcDbEntity
  8
0
  6
Continuous
 62
     7
370
    25
100
AcDbLine
 10
28.4652349682
 20
13.8220170269
 30
0.0
 11
28.4547697879
 21
13.8159756069
 31
0.0
  0
LINE
  5
489
330
1F
100
AcDbEntity
  8
0
  6
Continuous
 62
     7
370
    25
100
AcDbLine
 10
28.4652349682
 20
13.858755392
 30
0.0
 11
28.9285313313
 21
13.5913000945
 31
0.0
  0
LINE
  5
48A
330
1F
100
AcDbEntity
  8
0
  6
Continuous
 62
     7
370
    25
100
AcDbLine
 10
28.4652349682
 20
13.8220170269
 30
0.0
 11
28.4652349682
 21
14.2859774802
 31
0.0
  0
LINE
  5
48B
330
1F
100
AcDbEntity
  8
0
  6
Continuous
 62
     7
370
    25
100
AcDbLine
 10
28.4652349682
 20
13.2626865708
 30
0.0
 11
28.4547697879
 21
13.2566451508
 31
0.0
  0
LINE
  5
48C
330
1F
100
AcDbEntity
  8
0
  6
Continuous
 62
     7
370
    25
100
AcDbLine
 10
28.4652349682
 20
13.2994249358
 30
0.0
 11
28.9285313313
 21
13.0319696384
 31
0.0
  0
LINE
  5
48D
330
1F
100
AcDbEntity
  8
0
  6
Continuous
 62
     7
370
    25
100
AcDbLine
 10
28.4652349682
 20
13.2626865708
 30
0.0
 11
28.4652349682
 21
13.7266470241
 31
0.0
  0
LINE
  5
48E
330
1F
100
AcDbEntity
  8
0
  6
Continuous
 62
     7
370
    25
100
AcDbLine
 10
27.6874175089
 20
14.2710414884
 30
0.0
 11
27.6769523286
 21
14.2650000684
 31
0.0
  0
LINE
  5
48F
330
1F
100
AcDbEntity
  8
0
  6
Continuous
 62
     7
370
    25
100
AcDbLine
 10
27.6874175089
 20
14.3077798535
 30
0.0
 11
28.150713872
 21
14.040324556
 31
0.0
  0
LINE
  5
490
330
1F
100
AcDbEntity
  8
0
  6
Continuous
 62
     7
370
    25
100
AcDbLine
 10
29.7063487906
 20
12.9721746067
 30
0.0
 11
29.5856036744
 21
12.9024699348
 31
0.0
  0
LINE
  5
491
330
1F
100
AcDbEntity
  8
0
  6
Continuous
 62
     7
370
    25
100
AcDbLine
 10
27.6874175089
 20
14.2710414884
 30
0.0
 11
27.6874175089
 21
14.7350019417
 31
0.0
  0
ARC
  5
492
330
1F
100
AcDbEntity
  8
0
  6
Continuous
 62
     7
370
    25
100
AcDbCircle
 10
33.2243933274
 20
13.9191114565
 30
0.0
 40
0.0461041442271865
100
AcDbArc
 50
302.60547834
 51
357.3945215143
  0
LINE
  5
493
330
1F
100
AcDbEntity
  8
0
  6
Continuous
 62
     7
370
    25
100
AcDbLine
 10
33.2704498105
 20
13.9171789391
 30
0.0
 11
33.2704498105
 21
13.9170156309
 31
0.0
  0
ARC
  5
494
330
1F
100
AcDbEntity
  8
0
  6
Continuous
 62
     7
370
    25
100
AcDbCircle
 10
33.174701654
 20
13.9476694963
 30
0.0
 40
0.1380716902952929
100
AcDbArc
 50
302.6719252139
 51
339.7684754899
  0
LINE
  5
495
330
1F
100
AcDbEntity
  8
0
  6
Continuous
 62
     7
370
    25
100
AcDbLine
 10
31.8064559299
 20
12.9985445882
 30
0.0
 11
33.249236607
 21
13.8314441444
 31
0.0
  0
LINE
  5
496
330
1F
100
AcDbEntity
  8
0
  6
Continuous
 62
     7
370
    25
100
AcDbLine
 10
33.1534943489
 20
15.0828138388
 30
0.0
 11
33.1534943489
 21
15.0339846983
 31
0.0
  0
ARC
  5
497
330
1F
100
AcDbEntity
  8
0
  6
Continuous
 62
     7
370
    25
100
AcDbCircle
 10
33.111067942
 20
15.1158673634
 30
0.0
 40
0.0922213144746911
100
AcDbArc
 50
242.6096722366
 51
297.3903277634
  0
LINE
  5
498
330
1F
100
AcDbEntity
  8
0
  6
Continuous
 62
     7
370
    25
100
AcDbLine
 10
33.0686415351
 20
15.0339846983
 30
0.0
 11
33.0686415351
 21
15.0828138388
 31
0.0
  0
ARC
  5
499
330
1F
100
AcDbEntity
  8
0
  6
Continuous
 62
     7
370
    25
100
AcDbCircle
 10
33.111067942
 20
15.1646965039
 30
0.0
 40
0.0922213144746848
100
AcDbArc
 50
242.6096722366
 51
297.3903277634
  0
LINE
  5
49A
330
1F
100
AcDbEntity
  8
0
  6
Continuous
 62
     7
370
    25
100
AcDbLine
 10
31.4848637666
 20
16.2299488768
 30
0.0
 11
33.312734796
 21
15.1747413922
 31
0.0
  0
LINE
  5
49B
330
1F
100
AcDbEntity
  8
0
  6
Continuous
 62
     7
370
    25
100
AcDbLine
 10
33.1534943489
 20
15.0828138388
 30
0.0
 11
33.312734796
 21
15.1747413922
 31
0.0
  0
LINE
  5
49C
330
1F
100
AcDbEntity
  8
0
  6
Continuous
 62
     7
370
    25
100
AcDbLine
 10
31.3256233195
 20
16.0890368367
 30
0.0
 11
33.0686415351
 21
15.0828138388
 31
0.0
  0
ARC
  5
49D
330
1F
100
AcDbEntity
  8
0
  6
Continuous
 62
     7
370
    25
100
AcDbCircle
 10
31.3349189411
 20
16.11352908
 30
0.0
 40
0.0261969190100584
100
AcDbArc
 50
110.7834207995
 51
249.2165792005
  0
LINE
  5
49E
330
1F
100
AcDbEntity
  8
0
  6
Continuous
 62
     7
370
    25
100
AcDbLine
 10
31.4848637666
 20
16.2299488768
 30
0.0
 11
31.3256233195
 21
16.1380213234
 31
0.0
  0
LINE
  5
49F
330
1F
100
AcDbEntity
  8
0
  6
Continuous
 62
     7
370
    25
100
AcDbLine
 10
33.312734796
 20
15.1259122517
 30
0.0
 11
33.312734796
 21
15.1747413922
 31
0.0
  0
LINE
  5
4A0
330
1F
100
AcDbEntity
  8
0
  6
Continuous
 62
     7
370
    25
100
AcDbLine
 10
33.1534943489
 20
15.0339846983
 30
0.0
 11
33.312734796
 21
15.1259122517
 31
0.0
  0
LINE
  5
4A1
330
1F
100
AcDbEntity
  8
0
  6
Continuous
 62
     7
370
    25
100
AcDbLine
 10
31.3256233195
 20
16.0890368367
 30
0.0
 11
31.3256233195
 21
16.0402076961
 31
0.0
  0
LINE
  5
4A2
330
1F
100
AcDbEntity
  8
0
  6
Continuous
 62
     7
370
    25
100
AcDbLine
 10
31.3256233195
 20
16.0402076961
 30
0.0
 11
33.0686415351
 21
15.0339846983
 31
0.0
  0
ARC
  5
4A3
330
1F
100
AcDbEntity
  8
0
  6
Continuous
 62
     7
370
    25
100
AcDbCircle
 10
33.3375225067
 20
15.1443522138
 30
0.0
 40
0.0392164859290746
100
AcDbArc
 50
350.7859630095
 51
129.2032852357
  0
ARC
  5
4A4
330
1F
100
AcDbEntity
  8
0
  6
Continuous
 62
     7
370
    25
100
AcDbCircle
 10
31.5111679875
 20
16.1932313334
 30
0.0
 40
0.045167355783994
100
AcDbArc
 50
65.6928809539
 51
125.6175774752
  0
LINE
  5
4A5
330
1F
100
AcDbEntity
  8
0
  6
Continuous
 62
     7
370
    25
100
AcDbLine
 10
33.3339479994
 20
15.113662149
 30
0.0
 11
33.3762329849
 21
15.1380727515
 31
0.0
  0
ARC
  5
4A6
330
1F
100
AcDbEntity
  8
0
  6
Continuous
 62
     7
370
    25
100
AcDbCircle
 10
33.3210157684
 20
15.1157599649
 30
0.0
 40
0.013101275922852
100
AcDbArc
 50
350.7859630095
 51
129.2032852357
  0
LINE
  5
4A7
330
1F
100
AcDbEntity
  8
0
  6
Continuous
 62
     7
370
    25
100
AcDbLine
 10
27.6874175089
 20
13.7117110323
 30
0.0
 11
27.6769523286
 21
13.7056696123
 31
0.0
  0
LINE
  5
4A8
330
1F
100
AcDbEntity
  8
0
  6
Continuous
 62
     7
370
    25
100
AcDbLine
 10
27.6874175089
 20
13.7484493973
 30
0.0
 11
28.150713872
 21
13.4809940999
 31
0.0
  0
ARC
  5
4A9
330
1F
100
AcDbEntity
  8
0
  6
Continuous
 62
     7
370
    25
100
AcDbCircle
 10
33.3080835374
 20
13.9253190318
 30
0.0
 40
0.0262025518457097
100
AcDbArc
 50
230.7967147643
 51
9.2140369905
  0
LINE
  5
4AA
330
1F
100
AcDbEntity
  8
0
  6
Continuous
 62
     7
370
    25
100
AcDbLine
 10
33.2704498105
 20
13.9171789391
 30
0.0
 11
33.2915215926
 21
13.9050144582
 31
0.0
  0
LINE
  5
4AB
330
1F
100
AcDbEntity
  8
0
  6
Continuous
 62
     7
370
    25
100
AcDbLine
 10
33.3339479994
 20
13.9295146636
 30
0.0
 11
33.3339479994
 21
15.113662149
 31
0.0
  0
LINE
  5
4AC
330
1F
100
AcDbEntity
  8
0
  6
Continuous
 62
     7
370
    25
100
AcDbLine
 10
33.3762329849
 20
13.9539252661
 30
0.0
 11
33.3762329849
 21
15.1380727515
 31
0.0
  0
LINE
  5
4AD
330
1F
100
AcDbEntity
  8
0
  6
Continuous
 62
     7
370
    25
100
AcDbLine
 10
33.3339479994
 20
13.9295146636
 30
0.0
 11
33.3762329849
 21
13.9539252661
 31
0.0
  0
LINE
  5
4AE
330
1F
100
AcDbEntity
  8
0
  6
Continuous
 62
     7
370
    25
100
AcDbLine
 10
27.6874175089
 20
13.7117110323
 30
0.0
 11
27.6874175089
 21
14.1756714856
 31
0.0
  0
ARC
  5
4AF
330
1F
100
AcDbEntity
  8
0
  6
Continuous
 62
     7
370
    25
100
AcDbCircle
 10
29.4713452001
 20
13.3271761878
 30
0.0
 40
0.1071231757112981
100
AcDbArc
 50
110.7444013608
 51
138.1539536427
  0
LINE
  5
4B0
330
1F
100
AcDbEntity
  8
0
  6
Continuous
 62
     7
370
    25
100
AcDbLine
 10
31.8824057722
 20
13.4037320754
 30
0.0
 11
31.8500788355
 21
13.4668821248
 31
0.0
  0
ARC
  5
4B1
330
1F
100
AcDbEntity
  8
0
  6
Continuous
 62
     7
370
    25
100
AcDbCircle
 10
31.8101700335
 20
13.4474617846
 30
0.0
 40
0.0443831284300247
100
AcDbArc
 50
25.9483869339
 51
57.788055201
  0
LINE
  5
4B2
330
1F
100
AcDbEntity
  8
0
  6
Continuous
 62
     7
370
    25
100
AcDbLine
 10
31.8064559307
 20
13.5008154466
 30
0.0
 11
31.8338285789
 21
13.4850135531
 31
0.0
  0
LINE
  5
4B3
330
1F
100
AcDbEntity
  8
0
  6
Continuous
 62
     7
370
    25
100
AcDbLine
 10
31.8064559307
 20
13.5496445871
 30
0.0
 11
31.8338285789
 21
13.5338426937
 31
0.0
  0
ARC
  5
4B4
330
1F
100
AcDbEntity
  8
0
  6
Continuous
 62
     7
370
    25
100
AcDbCircle
 10
31.7630106664
 20
13.4214377332
 30
0.0
 40
0.1328534977670336
100
AcDbArc
 50
25.9483869339
 51
57.788055201
  0
LINE
  5
4B5
330
1F
100
AcDbEntity
  8
0
  6
Continuous
 62
     7
370
    25
100
AcDbLine
 10
31.9312465232
 20
13.3842872649
 30
0.0
 11
31.8824710137
 21
13.4795692849
 31
0.0
  0
ARC
  5
4B6
330
1F
100
AcDbEntity
  8
0
  6
Continuous
 62
     7
370
    25
100
AcDbCircle
 10
31.9711553251
 20
13.4037076051
 30
0.0
 40
0.0443831284247026
100
AcDbArc
 50
205.9483869328
 51
237.7880552033
  0
LINE
  5
4B7
330
1F
100
AcDbEntity
  8
0
  6
Continuous
 62
     7
370
    25
100
AcDbLine
 10
32.0726678794
 20
13.4659280761
 30
0.0
 11
31.9312465232
 21
13.3842872649
 31
0.0
  0
LINE
  5
4B8
330
1F
100
AcDbEntity
  8
0
  6
Continuous
 62
     7
370
    25
100
AcDbLine
 10
31.8824710137
 20
13.4795692849
 30
0.0
 11
32.0238923699
 21
13.5612100961
 31
0.0
  0
LINE
  5
4B9
330
1F
100
AcDbEntity
  8
0
  6
Continuous
 62
     7
370
    25
100
AcDbLine
 10
32.0726678794
 20
13.4659280761
 30
0.0
 11
32.0238923699
 21
13.5612100961
 31
0.0
  0
LINE
  5
4BA
330
1F
100
AcDbEntity
  8
0
  6
Continuous
 62
     7
370
    25
100
AcDbLine
 10
31.9752499351
 20
13.6154835049
 30
0.0
 11
31.8338285789
 21
13.5338426937
 31
0.0
  0
ARC
  5
4BB
330
1F
100
AcDbEntity
  8
0
  6
Continuous
 62
     7
370
    25
100
AcDbCircle
 10
31.9044320227
 20
13.5030785444
 30
0.0
 40
0.132853497767045
100
AcDbArc
 50
25.9483869339
 51
57.788055201
  0
LINE
  5
4BC
330
1F
100
AcDbEntity
  8
0
  6
Continuous
 62
     7
370
    25
100
AcDbLine
 10
26.9096000496
 20
14.7200659499
 30
0.0
 11
26.8991348693
 21
14.7140245299
 31
0.0
  0
LINE
  5
4BD
330
1F
100
AcDbEntity
  8
0
  6
Continuous
 62
     7
370
    25
100
AcDbLine
 10
26.9096000496
 20
14.756804315
 30
0.0
 11
27.3728964127
 21
14.4893490175
 31
0.0
  0
ARC
  5
4BE
330
1F
100
AcDbEntity
  8
0
  6
Continuous
 62
     7
370
    25
100
AcDbCircle
 10
32.1125766814
 20
13.4853484163
 30
0.0
 40
0.0443831284298325
100
AcDbArc
 50
205.9483869339
 51
237.788055201
  0
LINE
  5
4BF
330
1F
100
AcDbEntity
  8
0
  6
Continuous
 62
     7
370
    25
100
AcDbLine
 10
31.8064559307
 20
13.7129262095
 30
0.0
 11
31.9752499351
 21
13.6154835049
 31
0.0
  0
LINE
  5
4C0
330
1F
100
AcDbEntity
  8
0
  6
Continuous
 62
     7
370
    25
100
AcDbLine
 10
26.9096000496
 20
14.7200659499
 30
0.0
 11
26.9096000496
 21
15.1840264032
 31
0.0
  0
LINE
  5
4C1
330
1F
100
AcDbEntity
  8
0
  6
Continuous
 62
     7
370
    25
100
AcDbLine
 10
26.9096000496
 20
14.1607354938
 30
0.0
 11
26.8991348693
 21
14.1546940738
 31
0.0
  0
LINE
  5
4C2
330
1F
100
AcDbEntity
  8
0
  6
Continuous
 62
     7
370
    25
100
AcDbLine
 10
26.9096000496
 20
14.1974738588
 30
0.0
 11
27.3728964127
 21
13.9300185614
 31
0.0
  0
LINE
  5
4C3
330
1F
100
AcDbEntity
  8
0
  6
Continuous
 62
     7
370
    25
100
AcDbLine
 10
26.9096000496
 20
14.1607354938
 30
0.0
 11
26.9096000496
 21
14.6246959471
 31
0.0
  0
LINE
  5
4C4
330
1F
100
AcDbEntity
  8
0
  6
Continuous
 62
     7
370
    25
100
AcDbLine
 10
26.1317825903
 20
15.1690904114
 30
0.0
 11
26.12131741
 21
15.1630489914
 31
0.0
  0
LINE
  5
4C5
330
1F
100
AcDbEntity
  8
0
  6
Continuous
 62
     7
370
    25
100
AcDbLine
 10
26.1317825903
 20
15.2058287765
 30
0.0
 11
26.5950789534
 21
14.938373479
 31
0.0
  0
ARC
  5
4C6
330
1F
100
AcDbEntity
  8
0
  6
Continuous
 62
     7
370
    25
100
AcDbCircle
 10
33.3476918516
 20
13.9502914244
 30
0.0
 40
0.0287715327941035
100
AcDbArc
 50
304.0563508428
 51
7.2558295505
  0
LINE
  5
4C7
330
1F
100
AcDbEntity
  8
0
  6
Continuous
 62
     7
370
    25
100
AcDbLine
 10
26.1317825903
 20
15.1690904114
 30
0.0
 11
26.1317825903
 21
15.6330508647
 31
0.0
  0
LWPOLYLINE
  5
4C8
330
1F
100
AcDbEntity
  8
0
  6
Continuous
 62
     7
370
    25
100
AcDbPolyline
 90
        9
 70
   128
 43
0.0
 10
32.138704174
 20
14.1599707363
 10
32.1306717915
 20
14.1789167147
 10
32.106248048
 20
14.2098553511
 10
32.0698532067
 20
14.2365866698
 10
32.0235481873
 20
14.2575969645
 10
31.9699550902
 20
14.2716964915
 10
31.9121087158
 20
14.2780868411
 10
31.8532847132
 20
14.2764061489
 10
31.8048399322
 20
14.2686525588
  0
LINE
  5
4C9
330
1F
100
AcDbEntity
  8
0
  6
Continuous
 62
     7
370
    25
100
AcDbLine
 10
26.1317825903
 20
14.6097599553
 30
0.0
 11
26.12131741
 21
14.6037185353
 31
0.0
  0
LINE
  5
4CA
330
1F
100
AcDbEntity
  8
0
  6
Continuous
 62
     7
370
    25
100
AcDbLine
 10
26.1317825903
 20
14.6464983203
 30
0.0
 11
26.5950789534
 21
14.3790430229
 31
0.0
  0
ARC
  5
4CB
330
1F
100
AcDbEntity
  8
0
  6
Continuous
 62
     7
370
    25
100
AcDbCircle
 10
31.3380771501
 20
16.0676943221
 30
0.0
 40
0.0301763567096225
100
AcDbArc
 50
185.6947992512
 51
245.6253417064
  0
LINE
  5
4CC
330
1F
100
AcDbEntity
  8
0
  6
Continuous
 62
     7
370
    25
100
AcDbLine
 10
26.1317825903
 20
14.6097599553
 30
0.0
 11
26.1317825903
 21
15.0737204086
 31
0.0
  0
LINE
  5
4CD
330
1F
100
AcDbEntity
  8
0
  6
Continuous
 62
     7
370
    25
100
AcDbLine
 10
25.353965131
 20
15.6181148729
 30
0.0
 11
25.3434999507
 21
15.6120734529
 31
0.0
  0
LINE
  5
4CE
330
1F
100
AcDbEntity
  8
0
  6
Continuous
 62
     7
370
    25
100
AcDbLine
 10
25.353965131
 20
15.654853238
 30
0.0
 11
25.8172614941
 21
15.3873979405
 31
0.0
  0
LINE
  5
4CF
330
1F
100
AcDbEntity
  8
0
  6
Continuous
 62
     7
370
    25
100
AcDbLine
 10
25.353965131
 20
15.6181148729
 30
0.0
 11
25.353965131
 21
16.0820753262
 31
0.0
  0
LINE
  5
4D0
330
1F
100
AcDbEntity
  8
0
  6
Continuous
 62
     7
370
    25
100
AcDbLine
 10
25.353965131
 20
15.0587844168
 30
0.0
 11
25.3434999507
 21
15.0527429968
 31
0.0
  0
LINE
  5
4D1
330
1F
100
AcDbEntity
  8
0
  6
Continuous
 62
     7
370
    25
100
AcDbLine
 10
25.353965131
 20
15.0955227818
 30
0.0
 11
25.8172614941
 21
14.8280674844
 31
0.0
  0
LINE
  5
4D2
330
1F
100
AcDbEntity
  8
0
  6
Continuous
 62
     7
370
    25
100
AcDbLine
 10
25.353965131
 20
15.0587844168
 30
0.0
 11
25.353965131
 21
15.5227448701
 31
0.0
  0
LINE
  5
4D3
330
1F
100
AcDbEntity
  8
0
  6
Continuous
 62
     7
370
    25
100
AcDbLine
 10
24.1730968064
 20
16.2998156463
 30
0.0
 11
24.1626316261
 21
16.2937742263
 31
0.0
  0
LINE
  5
4D4
330
1F
100
AcDbEntity
  8
0
  6
Continuous
 62
     7
370
    25
100
AcDbLine
 10
24.1730968064
 20
16.3365540113
 30
0.0
 11
24.6363931695
 21
16.0690987139
 31
0.0
  0
LINE
  5
4D5
330
1F
100
AcDbEntity
  8
0
  6
Continuous
 62
     7
370
    25
100
AcDbLine
 10
24.1730968064
 20
16.2998156463
 30
0.0
 11
24.1730968064
 21
16.7637760996
 31
0.0
  0
LINE
  5
4D6
330
1F
100
AcDbEntity
  8
0
  6
Continuous
 62
     7
370
    25
100
AcDbLine
 10
24.1730968064
 20
15.7404851902
 30
0.0
 11
24.1626316261
 21
15.7344437701
 31
0.0
  0
LINE
  5
4D7
330
1F
100
AcDbEntity
  8
0
  6
Continuous
 62
     7
370
    25
100
AcDbLine
 10
24.1730968064
 20
15.7772235552
 30
0.0
 11
24.6363931695
 21
15.5097682578
 31
0.0
  0
LINE
  5
4D8
330
1F
100
AcDbEntity
  8
0
  6
Continuous
 62
     7
370
    25
100
AcDbLine
 10
24.1730968064
 20
15.7404851902
 30
0.0
 11
24.1730968064
 21
16.2044456435
 31
0.0
  0
ARC
  5
4D9
330
1F
100
AcDbEntity
  8
0
  6
Continuous
 62
     7
370
    25
100
AcDbCircle
 10
25.6900825872
 20
15.2809775971
 30
0.0
 40
0.3229523792342903
100
AcDbArc
 50
94.4945247496
 51
121.1690737733
  0
LINE
  5
4DA
330
1F
100
AcDbEntity
  8
0
  6
Continuous
 62
     7
370
    25
100
AcDbLine
 10
23.3952793471
 20
16.7488401078
 30
0.0
 11
23.3848141668
 21
16.7427986878
 31
0.0
  0
LINE
  5
4DB
330
1F
100
AcDbEntity
  8
0
  6
Continuous
 62
     7
370
    25
100
AcDbLine
 10
23.3952793471
 20
16.7855784729
 30
0.0
 11
23.8585757102
 21
16.5181231754
 31
0.0
  0
LINE
  5
4DC
330
1F
100
AcDbEntity
  8
0
  6
Continuous
 62
     7
370
    25
100
AcDbLine
 10
23.3952793471
 20
16.7488401078
 30
0.0
 11
23.3952793471
 21
17.2128005611
 31
0.0
  0
LINE
  5
4DD
330
1F
100
AcDbEntity
  8
0
  6
Continuous
 62
     7
370
    25
100
AcDbLine
 10
23.3952793471
 20
16.1895096517
 30
0.0
 11
23.3848141668
 21
16.1834682317
 31
0.0
  0
LINE
  5
4DE
330
1F
100
AcDbEntity
  8
0
  6
Continuous
 62
     7
370
    25
100
AcDbLine
 10
23.3952793471
 20
16.2262480167
 30
0.0
 11
23.8585757102
 21
15.9587927193
 31
0.0
  0
LINE
  5
4DF
330
1F
100
AcDbEntity
  8
0
  6
Continuous
 62
     7
370
    25
100
AcDbLine
 10
23.3952793471
 20
16.1895096517
 30
0.0
 11
23.3952793471
 21
16.653470105
 31
0.0
  0
LINE
  5
4E0
330
1F
100
AcDbEntity
  8
0
  6
Continuous
 62
     7
370
    25
100
AcDbLine
 10
22.6174618878
 20
17.1978645693
 30
0.0
 11
22.6069967075
 21
17.1918231493
 31
0.0
  0
LINE
  5
4E1
330
1F
100
AcDbEntity
  8
0
  6
Continuous
 62
     7
370
    25
100
AcDbLine
 10
22.6174618878
 20
17.2346029344
 30
0.0
 11
23.0807582509
 21
16.9671476369
 31
0.0
  0
LINE
  5
4E2
330
1F
100
AcDbEntity
  8
0
  6
Continuous
 62
     7
370
    25
100
AcDbLine
 10
22.6174618878
 20
17.1978645693
 30
0.0
 11
22.6174618878
 21
17.6618250226
 31
0.0
  0
LINE
  5
4E3
330
1F
100
AcDbEntity
  8
0
  6
Continuous
 62
     7
370
    25
100
AcDbLine
 10
22.6174618878
 20
16.6385341132
 30
0.0
 11
22.6069967075
 21
16.6324926932
 31
0.0
  0
LINE
  5
4E4
330
1F
100
AcDbEntity
  8
0
  6
Continuous
 62
     7
370
    25
100
AcDbLine
 10
22.6174618878
 20
16.6752724782
 30
0.0
 11
23.0807582509
 21
16.4078171808
 31
0.0
  0
LINE
  5
4E5
330
1F
100
AcDbEntity
  8
0
  6
Continuous
 62
     7
370
    25
100
AcDbLine
 10
22.6174618878
 20
16.6385341132
 30
0.0
 11
22.6174618878
 21
17.1024945665
 31
0.0
  0
LINE
  5
4E6
330
1F
100
AcDbEntity
  8
0
  6
Continuous
 62
     7
370
    25
100
AcDbLine
 10
21.8396444285
 20
17.6468890308
 30
0.0
 11
21.8291792482
 21
17.6408476108
 31
0.0
  0
LINE
  5
4E7
330
1F
100
AcDbEntity
  8
0
  6
Continuous
 62
     7
370
    25
100
AcDbLine
 10
21.8396444285
 20
17.6836273959
 30
0.0
 11
22.3029407916
 21
17.4161720984
 31
0.0
  0
LINE
  5
4E8
330
1F
100
AcDbEntity
  8
0
  6
Continuous
 62
     7
370
    25
100
AcDbLine
 10
21.8396444285
 20
17.6468890308
 30
0.0
 11
21.8396444285
 21
18.1108494841
 31
0.0
  0
LINE
  5
4E9
330
1F
100
AcDbEntity
  8
0
  6
Continuous
 62
     7
370
    25
100
AcDbLine
 10
21.8396444285
 20
17.0875585747
 30
0.0
 11
21.8291792482
 21
17.0815171547
 31
0.0
  0
LINE
  5
4EA
330
1F
100
AcDbEntity
  8
0
  6
Continuous
 62
     7
370
    25
100
AcDbLine
 10
21.8396444285
 20
17.1242969397
 30
0.0
 11
22.3029407916
 21
16.8568416423
 31
0.0
  0
LINE
  5
4EB
330
1F
100
AcDbEntity
  8
0
  6
Continuous
 62
     7
370
    25
100
AcDbLine
 10
21.8396444285
 20
17.0875585747
 30
0.0
 11
21.8396444285
 21
17.551519028
 31
0.0
  0
LINE
  5
4EC
330
1F
100
AcDbEntity
  8
0
  6
Continuous
 62
     7
370
    25
100
AcDbLine
 10
21.0618269692
 20
18.0959134923
 30
0.0
 11
21.0513617889
 21
18.0898720723
 31
0.0
  0
LINE
  5
4ED
330
1F
100
AcDbEntity
  8
0
  6
Continuous
 62
     7
370
    25
100
AcDbLine
 10
21.0618269692
 20
18.1326518574
 30
0.0
 11
21.5251233323
 21
17.8651965599
 31
0.0
  0
LINE
  5
4EE
330
1F
100
AcDbEntity
  8
0
  6
Continuous
 62
     7
370
    25
100
AcDbLine
 10
21.0618269692
 20
18.0959134923
 30
0.0
 11
21.0618269692
 21
18.5598739456
 31
0.0
  0
LINE
  5
4EF
330
1F
100
AcDbEntity
  8
0
  6
Continuous
 62
     7
370
    25
100
AcDbLine
 10
21.0618269692
 20
17.5365830362
 30
0.0
 11
21.0513617889
 21
17.5305416162
 31
0.0
  0
LINE
  5
4F0
330
1F
100
AcDbEntity
  8
0
  6
Continuous
 62
     7
370
    25
100
AcDbLine
 10
21.0618269692
 20
17.5733214012
 30
0.0
 11
21.5251233323
 21
17.3058661038
 31
0.0
  0
LINE
  5
4F1
330
1F
100
AcDbEntity
  8
0
  6
Continuous
 62
     7
370
    25
100
AcDbLine
 10
21.0618269692
 20
17.5365830362
 30
0.0
 11
21.0618269692
 21
18.0005434895
 31
0.0
  0
LINE
  5
4F2
330
1F
100
AcDbEntity
  8
0
  6
Continuous
 62
     7
370
    25
100
AcDbLine
 10
20.2840095099
 20
18.5449379538
 30
0.0
 11
20.2735443296
 21
18.5388965338
 31
0.0
  0
LINE
  5
4F3
330
1F
100
AcDbEntity
  8
0
  6
Continuous
 62
     7
370
    25
100
AcDbLine
 10
20.2840095099
 20
18.5816763189
 30
0.0
 11
20.7473058729
 21
18.3142210214
 31
0.0
  0
LINE
  5
4F4
330
1F
100
AcDbEntity
  8
0
  6
Continuous
 62
     7
370
    25
100
AcDbLine
 10
20.2840095099
 20
18.5449379538
 30
0.0
 11
20.2840095099
 21
19.0088984071
 31
0.0
  0
LINE
  5
4F5
330
1F
100
AcDbEntity
  8
0
  6
Continuous
 62
     7
370
    25
100
AcDbLine
 10
20.2840095099
 20
17.9856074977
 30
0.0
 11
20.2735443296
 21
17.9795660777
 31
0.0
  0
LINE
  5
4F6
330
1F
100
AcDbEntity
  8
0
  6
Continuous
 62
     7
370
    25
100
AcDbLine
 10
20.2840095099
 20
18.0223458627
 30
0.0
 11
20.7473058729
 21
17.7548905653
 31
0.0
  0
LINE
  5
4F7
330
1F
100
AcDbEntity
  8
0
  6
Continuous
 62
     7
370
    25
100
AcDbLine
 10
20.2840095099
 20
17.9856074977
 30
0.0
 11
20.2840095099
 21
18.449567951
 31
0.0
  0
LWPOLYLINE
  5
4F8
330
1F
100
AcDbEntity
  8
0
  6
Continuous
 62
     7
370
    25
100
AcDbPolyline
 90
        3
 70
   128
 43
0.0
 10
22.0087810052
 20
17.7134971363
 10
22.0085051009
 20
17.7133859292
 10
21.9881368526
 20
17.7030857514
  0
LINE
  5
4F9
330
1F
100
AcDbEntity
  8
0
  6
Continuous
 62
     7
370
    25
100
AcDbLine
 10
21.2263296119
 20
17.8736610784
 30
0.0
 11
21.2263296119
 21
17.9055781352
 31
0.0
  0
ARC
  5
4FA
330
1F
100
AcDbEntity
  8
0
  6
Continuous
 62
     7
370
    25
100
AcDbCircle
 10
21.4474419001
 20
17.7302019326
 30
0.0
 40
0.3229523792343229
100
AcDbArc
 50
94.4945247496
 51
121.1690737733
  0
LINE
  5
4FB
330
1F
100
AcDbEntity
  8
0
  6
Continuous
 62
     7
370
    25
100
AcDbLine
 10
21.2263296119
 20
17.8736610784
 30
0.0
 11
21.2103193933
 21
17.8644185759
 31
0.0
  0
LINE
  5
4FC
330
1F
100
AcDbEntity
  8
0
  6
Continuous
 62
     7
370
    25
100
AcDbLine
 10
22.8192701632
 20
21.2324895819
 30
0.0
 11
24.6471411925
 21
20.1772820974
 31
0.0
  0
LINE
  5
4FD
330
1F
100
AcDbEntity
  8
0
  6
Continuous
 62
     7
370
    25
100
AcDbLine
 10
24.4879007454
 20
20.085354544
 30
0.0
 11
24.6471411925
 21
20.1772820974
 31
0.0
  0
ARC
  5
4FE
330
1F
100
AcDbEntity
  8
0
  6
Continuous
 62
     7
370
    25
100
AcDbCircle
 10
24.4454743386
 20
20.1672372091
 30
0.0
 40
0.0922213144747132
100
AcDbArc
 50
242.6096722366
 51
297.3903277634
  0
LINE
  5
4FF
330
1F
100
AcDbEntity
  8
0
  6
Continuous
 62
     7
370
    25
100
AcDbLine
 10
22.6600297161
 20
21.0915775418
 30
0.0
 11
24.4030479317
 21
20.085354544
 31
0.0
  0
ARC
  5
500
330
1F
100
AcDbEntity
  8
0
  6
Continuous
 62
     7
370
    25
100
AcDbCircle
 10
22.6693253377
 20
21.1160697852
 30
0.0
 40
0.0261969190100584
100
AcDbArc
 50
110.7834207995
 51
249.2165792005
  0
LINE
  5
501
330
1F
100
AcDbEntity
  8
0
  6
Continuous
 62
     7
370
    25
100
AcDbLine
 10
22.8192701632
 20
21.2324895819
 30
0.0
 11
22.6600297161
 21
21.1405620286
 31
0.0
  0
LINE
  5
502
330
1F
100
AcDbEntity
  8
0
  6
Continuous
 62
     7
370
    25
100
AcDbLine
 10
24.4030479317
 20
20.0365254035
 30
0.0
 11
24.4030479317
 21
20.085354544
 31
0.0
  0
LINE
  5
503
330
1F
100
AcDbEntity
  8
0
  6
Continuous
 62
     7
370
    25
100
AcDbLine
 10
22.6600297161
 20
21.0915775418
 30
0.0
 11
22.6600297161
 21
21.0427484013
 31
0.0
  0
LINE
  5
504
330
1F
100
AcDbEntity
  8
0
  6
Continuous
 62
     7
370
    25
100
AcDbLine
 10
22.6600297161
 20
21.0427484013
 30
0.0
 11
24.4030479317
 21
20.0365254035
 31
0.0
  0
LINE
  5
505
330
1F
100
AcDbEntity
  8
0
  6
Continuous
 62
     7
370
    25
100
AcDbLine
 10
24.651272327
 20
20.1795116044
 30
0.0
 11
24.6471411925
 21
20.1772820974
 31
0.0
  0
ARC
  5
506
330
1F
100
AcDbEntity
  8
0
  6
Continuous
 62
     7
370
    25
100
AcDbCircle
 10
22.8455743841
 20
21.1957720386
 30
0.0
 40
0.0451673557839998
100
AcDbArc
 50
65.6928809539
 51
125.6175774752
  0
LWPOLYLINE
  5
507
330
1F
100
AcDbEntity
  8
0
  6
Continuous
 62
     7
370
    25
100
AcDbPolyline
 90
        9
 70
   128
 43
0.0
 10
20.7089042047
 20
18.3363898327
 10
20.7102998508
 20
18.3382144789
 10
20.7159898558
 20
18.3547281325
 10
20.7102998508
 20
18.3712417861
 10
20.6940960877
 20
18.3852413857
 10
20.6698454423
 20
18.394595619
 10
20.6412398558
 20
18.397880389
 10
20.6126342692
 20
18.394595619
 10
20.6094735468
 20
18.3937899297
  0
LWPOLYLINE
  5
508
330
1F
100
AcDbEntity
  8
0
  6
Continuous
 62
     7
370
    25
100
AcDbPolyline
 90
        6
 70
   128
 43
0.0
 10
20.7158897486
 20
18.3524955879
 10
20.7102998508
 20
18.3667766969
 10
20.6940960877
 20
18.3807762965
 10
20.6698454423
 20
18.3901305298
 10
20.6412398558
 20
18.3934152998
 10
20.6149123342
 20
18.3906501845
  0
ARC
  5
509
330
1F
100
AcDbEntity
  8
0
  6
Continuous
 62
     7
370
    25
100
AcDbCircle
 10
22.6724835467
 20
21.0702350273
 30
0.0
 40
0.0301763567096319
100
AcDbArc
 50
185.6947992512
 51
245.6253417064
  0
LINE
  5
50A
330
1F
100
AcDbEntity
  8
0
  6
Continuous
 62
     8
370
    25
100
AcDbLine
 10
29.7063487906
 20
12.7143747806
 30
0.0
 11
29.2430524275
 21
12.9818300781
 31
0.0
  0
LINE
  5
50B
330
1F
100
AcDbEntity
  8
0
  6
Continuous
 62
     8
370
    25
100
AcDbLine
 10
28.9285313313
 20
13.1633992422
 30
0.0
 11
28.4652349682
 21
13.4308545396
 31
0.0
  0
LINE
  5
50C
330
1F
100
AcDbEntity
  8
0
  6
Continuous
 62
     8
370
    25
100
AcDbLine
 10
28.150713872
 20
13.6124237037
 30
0.0
 11
27.6874175089
 21
13.8798790011
 31
0.0
  0
LINE
  5
50D
330
1F
100
AcDbEntity
  8
0
  6
Continuous
 62
     8
370
    25
100
AcDbLine
 10
27.3728964127
 20
14.0614481652
 30
0.0
 11
26.9096000496
 21
14.3289034626
 31
0.0
  0
LINE
  5
50E
330
1F
100
AcDbEntity
  8
0
  6
Continuous
 62
     8
370
    25
100
AcDbLine
 10
26.5950789534
 20
14.5104726267
 30
0.0
 11
26.1317825903
 21
14.7779279241
 31
0.0
  0
LINE
  5
50F
330
1F
100
AcDbEntity
  8
0
  6
Continuous
 62
     8
370
    25
100
AcDbLine
 10
25.8172614941
 20
14.9594970882
 30
0.0
 11
25.353965131
 21
15.2269523856
 31
0.0
  0
LINE
  5
510
330
1F
100
AcDbEntity
  8
0
  6
Continuous
 62
     8
370
    25
100
AcDbLine
 10
24.6363931695
 20
15.6411978615
 30
0.0
 11
24.1730968064
 21
15.908653159
 31
0.0
  0
LINE
  5
511
330
1F
100
AcDbEntity
  8
0
  6
Continuous
 62
     8
370
    25
100
AcDbLine
 10
23.8585757102
 20
16.090222323
 30
0.0
 11
23.3952793471
 21
16.3576776205
 31
0.0
  0
LINE
  5
512
330
1F
100
AcDbEntity
  8
0
  6
Continuous
 62
     8
370
    25
100
AcDbLine
 10
23.0807582509
 20
16.5392467845
 30
0.0
 11
22.6174618878
 21
16.806702082
 31
0.0
  0
LINE
  5
513
330
1F
100
AcDbEntity
  8
0
  6
Continuous
 62
     8
370
    25
100
AcDbLine
 10
22.3029407916
 20
16.988271246
 30
0.0
 11
21.8396444285
 21
17.2557265435
 31
0.0
  0
LINE
  5
514
330
1F
100
AcDbEntity
  8
0
  6
Continuous
 62
     8
370
    25
100
AcDbLine
 10
21.5251233323
 20
17.4372957075
 30
0.0
 11
21.0618269692
 21
17.704751005
 31
0.0
  0
LINE
  5
515
330
1F
100
AcDbEntity
  8
0
  6
Continuous
 62
     8
370
    25
100
AcDbLine
 10
20.7473058729
 20
17.886320169
 30
0.0
 11
20.2840095099
 21
18.1537754665
 31
0.0
  0
LINE
  5
516
330
1F
100
AcDbEntity
  8
0
  6
Continuous
 62
     8
370
    25
100
AcDbLine
 10
20.2840095099
 20
18.1374459772
 30
0.0
 11
20.7473058729
 21
17.8699906798
 31
0.0
  0
LINE
  5
517
330
1F
100
AcDbEntity
  8
0
  6
Continuous
 62
     8
370
    25
100
AcDbLine
 10
21.0618269692
 20
17.6884215157
 30
0.0
 11
21.5251233323
 21
17.4209662183
 31
0.0
  0
LINE
  5
518
330
1F
100
AcDbEntity
  8
0
  6
Continuous
 62
     8
370
    25
100
AcDbLine
 10
21.8396444285
 20
17.2393970542
 30
0.0
 11
22.3029407916
 21
16.9719417568
 31
0.0
  0
LINE
  5
519
330
1F
100
AcDbEntity
  8
0
  6
Continuous
 62
     8
370
    25
100
AcDbLine
 10
22.6174618878
 20
16.7903725927
 30
0.0
 11
23.0807582509
 21
16.5229172953
 31
0.0
  0
LINE
  5
51A
330
1F
100
AcDbEntity
  8
0
  6
Continuous
 62
     8
370
    25
100
AcDbLine
 10
23.3952793471
 20
16.3413481312
 30
0.0
 11
23.8585757102
 21
16.0738928338
 31
0.0
  0
LINE
  5
51B
330
1F
100
AcDbEntity
  8
0
  6
Continuous
 62
     8
370
    25
100
AcDbLine
 10
24.1730968064
 20
15.8923236697
 30
0.0
 11
24.6363931695
 21
15.6248683723
 31
0.0
  0
LINE
  5
51C
330
1F
100
AcDbEntity
  8
0
  6
Continuous
 62
     8
370
    25
100
AcDbLine
 10
25.353965131
 20
15.2106228964
 30
0.0
 11
25.8172614941
 21
14.9431675989
 31
0.0
  0
LINE
  5
51D
330
1F
100
AcDbEntity
  8
0
  6
Continuous
 62
     8
370
    25
100
AcDbLine
 10
26.1317825903
 20
14.7615984349
 30
0.0
 11
26.5950789534
 21
14.4941431374
 31
0.0
  0
LINE
  5
51E
330
1F
100
AcDbEntity
  8
0
  6
Continuous
 62
     8
370
    25
100
AcDbLine
 10
26.9096000496
 20
14.3125739734
 30
0.0
 11
27.3728964127
 21
14.0451186759
 31
0.0
  0
LINE
  5
51F
330
1F
100
AcDbEntity
  8
0
  6
Continuous
 62
     8
370
    25
100
AcDbLine
 10
27.6874175089
 20
13.8635495118
 30
0.0
 11
28.150713872
 21
13.5960942144
 31
0.0
  0
LINE
  5
520
330
1F
100
AcDbEntity
  8
0
  6
Continuous
 62
     8
370
    25
100
AcDbLine
 10
28.4652349682
 20
13.4145250503
 30
0.0
 11
28.9285313313
 21
13.1470697529
 31
0.0
  0
LINE
  5
521
330
1F
100
AcDbEntity
  8
0
  6
Continuous
 62
     8
370
    25
100
AcDbLine
 10
29.2430524275
 20
12.9655005888
 30
0.0
 11
29.7063487906
 21
12.6980452914
 31
0.0
  0
LINE
  5
522
330
1F
100
AcDbEntity
  8
0
  6
Continuous
 62
     8
370
    25
100
AcDbLine
 10
24.3861337905
 20
20.0264503853
 30
0.0
 11
22.5830258652
 21
21.0673624341
 31
0.0
  0
LINE
  5
523
330
1F
100
AcDbEntity
  8
0
  6
Continuous
 62
     8
370
    25
100
AcDbLine
 10
30.2368202978
 20
12.0924251418
 30
0.0
 11
30.2368202978
 21
12.0924132254
 31
0.0
  0
LINE
  5
524
330
1F
100
AcDbEntity
  8
0
  6
Continuous
 62
     8
370
    25
100
AcDbLine
 10
32.1810351592
 20
14.4969328548
 30
0.0
 11
33.249236607
 21
13.8802732849
 31
0.0
  0
LINE
  5
525
330
1F
100
AcDbEntity
  8
0
  6
Continuous
 62
     8
370
    25
100
AcDbLine
 10
20.4721304714
 20
18.4730763994
 30
0.0
 11
20.582569517
 21
18.5368315033
 31
0.0
  0
LINE
  5
526
330
1F
100
AcDbEntity
  8
0
  6
Continuous
 62
     8
370
    25
100
AcDbLine
 10
20.6885044569
 20
18.5979864424
 30
0.0
 11
20.7473058729
 21
18.6319317773
 31
0.0
  0
LINE
  5
527
330
1F
100
AcDbEntity
  8
0
  6
Continuous
 62
     8
370
    25
100
AcDbLine
 10
29.5666952013
 20
12.913385564
 30
0.0
 11
29.5666952013
 21
12.9403834462
 31
0.0
  0
LINE
  5
528
330
1F
100
AcDbEntity
  8
0
  6
Continuous
 62
     8
370
    25
100
AcDbLine
 10
33.312731348
 20
15.1259102612
 30
0.0
 11
33.3339479994
 21
15.113662149
 31
0.0
  0
LINE
  5
529
330
1F
100
AcDbEntity
  8
0
  6
Continuous
 62
     8
370
    25
100
AcDbLine
 10
33.2704498105
 20
13.9170156309
 30
0.0
 11
32.2234650141
 21
14.5214270886
 31
0.0
  0
LINE
  5
52A
330
1F
100
AcDbEntity
  8
0
  6
Continuous
 62
     8
370
    25
100
AcDbLine
 10
20.7473058729
 20
18.680920245
 30
0.0
 11
20.646074602
 21
18.6224806762
 31
0.0
  0
LINE
  5
52B
330
1F
100
AcDbEntity
  8
0
  6
Continuous
 62
     8
370
    25
100
AcDbLine
 10
20.5401396621
 20
18.5613257372
 30
0.0
 11
20.432501934
 21
18.4991877994
 31
0.0
  0
LINE
  5
52C
330
1F
100
AcDbEntity
  8
0
  6
Continuous
 62
     8
370
    25
100
AcDbLine
 10
24.4879007454
 20
20.085354544
 30
0.0
 11
24.4879007454
 21
20.0851991979
 31
0.0
  0
LINE
  5
52D
330
1F
100
AcDbEntity
  8
0
  6
Continuous
 62
     8
370
    25
100
AcDbLine
 10
24.6471411925
 20
20.1771267513
 30
0.0
 11
24.6471411925
 21
20.1772820974
 31
0.0
  0
HATCH
  5
52F
330
1F
100
AcDbEntity
  8
FORMAT
 62
     7
100
AcDbHatch
 10
0.0
 20
0.0
 30
0.0
210
0.0
220
0.0
230
1.0
  2
SOLID
 70
     1
 71
     0
 91
        1
 92
        0
 93
        4
 72
     1
 10
29.36035948116155
 20
14.33740148007682
 11
29.53713617645818
 21
14.43945249405466
 72
     1
 10
29.53713617645818
 20
14.43945249405466
 11
29.48763870177512
 21
14.46802677796846
 72
     1
 10
29.48763870177512
 20
14.46802677796846
 11
29.31086200647848
 21
14.36597576399062
 72
     1
 10
29.31086200647848
 20
14.36597576399062
 11
29.36035948116155
 21
14.33740148007682
 97
        0
 75
     0
 76
     1
 98
        1
 10
0.0
 20
0.0
  0
HATCH
  5
530
330
1F
100
AcDbEntity
  8
FORMAT
 62
     7
100
AcDbHatch
 10
0.0
 20
0.0
 30
0.0
210
0.0
220
0.0
230
1.0
  2
SOLID
 70
     1
 71
     0
 91
        1
 92
        0
 93
        7
 72
     1
 10
29.16896924572038
 20
14.44788871121017
 11
29.22789481081927
 21
14.41387170655089
 72
     1
 10
29.22789481081927
 20
14.41387170655089
 11
29.46359707121478
 21
14.48190571586945
 72
     1
 10
29.46359707121478
 20
14.48190571586945
 11
29.41056406262579
 21
14.5125210200628
 72
     1
 10
29.41056406262579
 20
14.5125210200628
 11
29.26914270638848
 21
14.47170061447166
 72
     1
 10
29.26914270638848
 20
14.47170061447166
 11
29.33985338450713
 21
14.55334142565393
 72
     1
 10
29.33985338450713
 20
14.55334142565393
 11
29.28682037591814
 21
14.58395672984728
 72
     1
 10
29.28682037591814
 20
14.58395672984728
 11
29.16896924572038
 21
14.44788871121017
 97
        0
 75
     0
 76
     1
 98
        1
 10
0.0
 20
0.0
  0
HATCH
  5
531
330
1F
100
AcDbEntity
  8
FORMAT
 62
     7
100
AcDbHatch
 10
0.0
 20
0.0
 30
0.0
210
0.0
220
0.0
230
1.0
  2
SOLID
 70
     1
 71
     0
 91
        1
 92
        0
 93
       12
 72
     1
 10
29.14278468597474
 20
14.54464554697996
 11
29.17814002503407
 21
14.56505574977554
 72
     1
 10
29.17814002503407
 20
14.56505574977554
 11
29.12015726897677
 21
14.59852848236026
 72
     1
 10
29.12015726897677
 20
14.59852848236026
 11
29.1449060063183
 21
14.61281562431716
 72
     1
 10
29.1449060063183
 20
14.61281562431716
 11
29.21681680458068
 21
14.57130240411403
 72
     1
 10
29.21681680458068
 20
14.57130240411403
 11
29.26277874535781
 21
14.59783566774827
 72
     1
 10
29.26277874535781
 20
14.59783566774827
 11
29.14137047241237
 21
14.6679231718652
 72
     1
 10
29.14137047241237
 20
14.6679231718652
 11
28.96459377711573
 21
14.56587215788735
 72
     1
 10
28.96459377711573
 20
14.56587215788735
 11
29.08600205006116
 21
14.49578465377043
 72
     1
 10
29.08600205006116
 20
14.49578465377043
 11
29.13196399083829
 21
14.52231791740467
 72
     1
 10
29.13196399083829
 20
14.52231791740467
 11
29.06005319257592
 21
14.5638311376078
 72
     1
 10
29.06005319257592
 20
14.5638311376078
 11
29.08480192991745
 21
14.5781182795647
 72
     1
 10
29.08480192991745
 20
14.5781182795647
 11
29.14278468597474
 21
14.54464554697996
 97
        0
 75
     0
 76
     1
 98
        1
 10
0.0
 20
0.0
  0
HATCH
  5
532
330
1F
100
AcDbEntity
  8
FORMAT
 62
     7
100
AcDbHatch
 10
0.0
 20
0.0
 30
0.0
210
0.0
220
0.0
230
1.0
  2
SOLID
 70
     1
 71
     0
 91
        1
 92
        0
 93
        6
 72
     1
 10
29.04873948407693
 20
14.72139790318958
 11
28.99924200939387
 21
14.74997218710337
 72
     1
 10
28.99924200939387
 20
14.74997218710337
 11
28.82246531409724
 21
14.64792117312554
 72
     1
 10
28.82246531409724
 20
14.64792117312554
 11
28.94055214655539
 21
14.57975109578834
 72
     1
 10
28.94055214655539
 20
14.57975109578834
 11
28.98651408733252
 21
14.60628435942258
 72
     1
 10
28.98651408733252
 20
14.60628435942258
 11
28.91792472955742
 21
14.64588015284598
 72
     1
 10
28.91792472955742
 20
14.64588015284598
 11
29.04873948407693
 21
14.72139790318958
 97
        0
 75
     0
 76
     1
 98
        1
 10
0.0
 20
0.0
  0
HATCH
  5
533
330
1F
100
AcDbEntity
  8
FORMAT
 62
     7
100
AcDbHatch
 10
0.0
 20
0.0
 30
0.0
210
0.0
220
0.0
230
1.0
  2
SOLID
 70
     1
 71
     0
 91
        2
 92
        0
 93
        9
 72
     1
 10
29.96232144536996
 20
14.00826541751244
 11
29.96763421484675
 21
14.02167537196736
 72
     3
 10
29.97646358099368
 20
14.02867562030801
 11
-0.01500000000000025
 21
0.0
 40
0.5772877120855563
 50
38.40868327736764
 51
209.9973117336526
 73
     1
 72
     1
 10
29.98707018271148
 20
14.03479868114668
 11
29.96585697927588
 21
14.04704480282402
 72
     1
 10
29.96585697927588
 20
14.04704480282402
 11
29.93050164021655
 21
14.02663460002845
 72
     1
 10
29.93050164021655
 20
14.02663460002845
 11
29.93615849446605
 21
14.02336896758116
 72
     1
 10
29.93615849446605
 20
14.02336896758116
 11
29.95030063008978
 21
14.03153304869939
 72
     1
 10
29.95030063008978
 20
14.03153304869939
 11
29.96090723180757
 21
14.02540998786072
 72
     1
 10
29.96090723180757
 20
14.02540998786072
 11
29.95564243724763
 21
14.01212112683038
 72
     1
 10
29.95564243724763
 20
14.01212112683038
 11
29.96232144536996
 21
14.00826541751244
 97
        0
 92
        0
 93
        4
 72
     3
 10
29.97646358099368
 20
14.02867562030801
 11
-0.007000000000000226
 21
0.0
 40
0.5772877120855421
 50
150.0026882663467
 51
330.0026882663782
 73
     0
 72
     1
 10
29.97151383352537
 20
14.02581819191663
 11
29.95595748433927
 21
14.03479868114668
 72
     1
 10
29.95595748433927
 20
14.03479868114668
 11
29.96585697927588
 21
14.04051353792944
 72
     1
 10
29.96585697927588
 20
14.04051353792944
 11
29.98141332846199
 21
14.03153304869939
 97
        0
 75
     0
 76
     1
 98
        1
 10
0.0
 20
0.0
  0
LINE
  5
535
330
1F
100
AcDbEntity
  8
0
  6
Continuous
 62
     7
370
    25
100
AcDbLine
 10
24.2793903972
 20
5.782903462
 30
0.0
 11
24.2793903972
 21
5.772903462
 31
0.0
  0
LINE
  5
536
330
1F
100
AcDbEntity
  8
0
  6
Continuous
 62
     7
370
    25
100
AcDbLine
 10
24.4173903972
 20
5.772903462
 30
0.0
 11
24.4173903972
 21
5.782903462
 31
0.0
  0
LINE
  5
537
330
1F
100
AcDbEntity
  8
0
  6
Continuous
 62
     7
370
    25
100
AcDbLine
 10
27.3783903972
 20
5.668853462
 30
0.0
 11
27.3941403972
 21
5.653103462
 31
0.0
  0
LINE
  5
538
330
1F
100
AcDbEntity
  8
0
  6
Continuous
 62
     7
370
    25
100
AcDbLine
 10
27.6426403972
 20
5.653103462
 30
0.0
 11
27.6474403972
 21
5.657903462
 31
0.0
  0
LINE
  5
539
330
1F
100
AcDbEntity
  8
0
  6
Continuous
 62
     7
370
    25
100
AcDbLine
 10
27.3783903972
 20
5.670639723
 30
0.0
 11
27.3783903972
 21
5.668853462
 31
0.0
  0
LINE
  5
53A
330
1F
100
AcDbEntity
  8
0
  6
Continuous
 62
     7
370
    25
100
AcDbLine
 10
27.6583903972
 20
5.717703462
 30
0.0
 11
27.6583903972
 21
5.723103462
 31
0.0
  0
LINE
  5
53B
330
1F
100
AcDbEntity
  8
0
  6
Continuous
 62
     7
370
    25
100
AcDbLine
 10
23.4381903972
 20
4.726803462
 30
0.0
 11
23.4391903972
 21
4.726803462
 31
0.0
  0
LINE
  5
53C
330
1F
100
AcDbEntity
  8
0
  6
Continuous
 62
     7
370
    25
100
AcDbLine
 10
23.4391903972
 20
4.938803462
 30
0.0
 11
23.4381903972
 21
4.938803462
 31
0.0
  0
LINE
  5
53D
330
1F
100
AcDbEntity
  8
0
  6
Continuous
 62
     7
370
    25
100
AcDbLine
 10
23.4381903972
 20
5.026803462
 30
0.0
 11
23.4391903972
 21
5.026803462
 31
0.0
  0
LINE
  5
53E
330
1F
100
AcDbEntity
  8
0
  6
Continuous
 62
     7
370
    25
100
AcDbLine
 10
23.4391903972
 20
5.238803462
 30
0.0
 11
23.4381903972
 21
5.238803462
 31
0.0
  0
ARC
  5
53F
330
1F
100
AcDbEntity
  8
0
  6
Continuous
 62
     7
370
    25
100
AcDbCircle
 10
27.2498677222
 20
5.752903462
 30
0.0
 40
0.0300000000000011
100
AcDbArc
 50
45.0
 51
90.0
  0
LINE
  5
540
330
1F
100
AcDbEntity
  8
0
  6
Continuous
 62
     7
370
    25
100
AcDbLine
 10
27.2498677222
 20
5.782903462
 30
0.0
 11
27.2498677222
 21
5.842703462
 31
0.0
  0
ARC
  5
541
330
1F
100
AcDbEntity
  8
0
  6
Continuous
 62
     7
370
    25
100
AcDbCircle
 10
27.2498677222
 20
5.752903462
 30
0.0
 40
0.0898000000000003
100
AcDbArc
 50
45.0
 51
90.0
  0
LINE
  5
542
330
1F
100
AcDbEntity
  8
0
  6
Continuous
 62
     7
370
    25
100
AcDbLine
 10
27.2710809256
 20
5.7741166655
 30
0.0
 11
27.3133659111
 21
5.816401651
 31
0.0
  0
LINE
  5
543
330
1F
100
AcDbEntity
  8
0
  6
Continuous
 62
     7
370
    25
100
AcDbLine
 10
23.3483903972
 20
5.782903462
 30
0.0
 11
23.3483903972
 21
5.842703462
 31
0.0
  0
LINE
  5
544
330
1F
100
AcDbEntity
  8
0
  6
Continuous
 62
     7
370
    25
100
AcDbLine
 10
23.3483903972
 20
5.842703462
 30
0.0
 11
23.4083903972
 21
5.842703462
 31
0.0
  0
LINE
  5
545
330
1F
100
AcDbEntity
  8
0
  6
Continuous
 62
     7
370
    25
100
AcDbLine
 10
23.4083903972
 20
5.842703462
 30
0.0
 11
23.4083903972
 21
5.782903462
 31
0.0
  0
LINE
  5
546
330
1F
100
AcDbEntity
  8
0
  6
Continuous
 62
     7
370
    25
100
AcDbLine
 10
23.4083903972
 20
5.782903462
 30
0.0
 11
23.3483903972
 21
5.782903462
 31
0.0
  0
LINE
  5
547
330
1F
100
AcDbEntity
  8
0
  6
Continuous
 62
     7
370
    25
100
AcDbLine
 10
27.4244905069
 20
5.657903462
 30
0.0
 11
27.4244905069
 21
5.717703462
 31
0.0
  0
LINE
  5
548
330
1F
100
AcDbEntity
  8
0
  6
Continuous
 62
     7
370
    25
100
AcDbLine
 10
27.6633903972
 20
5.657903462
 30
0.0
 11
27.6633903972
 21
5.717703462
 31
0.0
  0
LINE
  5
549
330
1F
100
AcDbEntity
  8
0
  6
Continuous
 62
     7
370
    25
100
AcDbLine
 10
27.4244905069
 20
5.717703462
 30
0.0
 11
27.6633903972
 21
5.717703462
 31
0.0
  0
LINE
  5
54A
330
1F
100
AcDbEntity
  8
0
  6
Continuous
 62
     7
370
    25
100
AcDbLine
 10
27.4244905069
 20
5.657903462
 30
0.0
 11
27.6633903972
 21
5.657903462
 31
0.0
  0
LINE
  5
54B
330
1F
100
AcDbEntity
  8
0
  6
Continuous
 62
     7
370
    25
100
AcDbLine
 10
27.3133659111
 20
5.816401651
 30
0.0
 11
27.4032773035
 21
5.7264902586
 31
0.0
  0
LINE
  5
54C
330
1F
100
AcDbEntity
  8
0
  6
Continuous
 62
     7
370
    25
100
AcDbLine
 10
27.360992318
 20
5.6842052731
 30
0.0
 11
27.4032773035
 21
5.7264902586
 31
0.0
  0
LINE
  5
54D
330
1F
100
AcDbEntity
  8
0
  6
Continuous
 62
     7
370
    25
100
AcDbLine
 10
27.2710809256
 20
5.7741166655
 30
0.0
 11
27.360992318
 21
5.6842052731
 31
0.0
  0
LINE
  5
54E
330
1F
100
AcDbEntity
  8
0
  6
Continuous
 62
     7
370
    25
100
AcDbLine
 10
23.4083903972
 20
5.842703462
 30
0.0
 11
27.2498677222
 21
5.842703462
 31
0.0
  0
LINE
  5
54F
330
1F
100
AcDbEntity
  8
0
  6
Continuous
 62
     7
370
    25
100
AcDbLine
 10
23.4083903972
 20
5.782903462
 30
0.0
 11
27.2498677222
 21
5.782903462
 31
0.0
  0
LINE
  5
550
330
1F
100
AcDbEntity
  8
0
  6
Continuous
 62
     7
370
    25
100
AcDbLine
 10
27.7233903972
 20
5.717703462
 30
0.0
 11
27.7233903972
 21
5.657903462
 31
0.0
  0
LINE
  5
551
330
1F
100
AcDbEntity
  8
0
  6
Continuous
 62
     7
370
    25
100
AcDbLine
 10
27.6633903972
 20
5.717703462
 30
0.0
 11
27.7233903972
 21
5.717703462
 31
0.0
  0
LINE
  5
552
330
1F
100
AcDbEntity
  8
0
  6
Continuous
 62
     7
370
    25
100
AcDbLine
 10
27.7233903972
 20
5.657903462
 30
0.0
 11
27.6633903972
 21
5.657903462
 31
0.0
  0
ARC
  5
553
330
1F
100
AcDbEntity
  8
0
  6
Continuous
 62
     7
370
    25
100
AcDbCircle
 10
27.4244905069
 20
5.747703462
 30
0.0
 40
0.0300000000000036
100
AcDbArc
 50
225.0
 51
270.0
  0
ARC
  5
554
330
1F
100
AcDbEntity
  8
0
  6
Continuous
 62
     7
370
    25
100
AcDbCircle
 10
27.4244905069
 20
5.747703462
 30
0.0
 40
0.0898000000000003
100
AcDbArc
 50
225.0
 51
270.0
  0
LINE
  5
555
330
1F
100
AcDbEntity
  8
0
  6
Continuous
 62
     7
370
    25
100
AcDbLine
 10
27.7883903972
 20
5.782903462
 30
0.0
 11
27.7883903972
 21
5.842703462
 31
0.0
  0
LINE
  5
556
330
1F
100
AcDbEntity
  8
0
  6
Continuous
 62
     7
370
    25
100
AcDbLine
 10
27.8483903972
 20
5.842703462
 30
0.0
 11
27.8483903972
 21
5.782903462
 31
0.0
  0
LINE
  5
557
330
1F
100
AcDbEntity
  8
0
  6
Continuous
 62
     7
370
    25
100
AcDbLine
 10
27.7883903972
 20
5.842703462
 30
0.0
 11
27.8483903972
 21
5.842703462
 31
0.0
  0
LINE
  5
558
330
1F
100
AcDbEntity
  8
0
  6
Continuous
 62
     7
370
    25
100
AcDbLine
 10
27.8483903972
 20
5.782903462
 30
0.0
 11
27.7883903972
 21
5.782903462
 31
0.0
  0
LINE
  5
559
330
1F
100
AcDbEntity
  8
0
  6
Continuous
 62
     7
370
    25
100
AcDbLine
 10
27.2498677222
 20
5.842703462
 30
0.0
 11
27.7883903972
 21
5.842703462
 31
0.0
  0
LINE
  5
55A
330
1F
100
AcDbEntity
  8
0
  6
Continuous
 62
     7
370
    25
100
AcDbLine
 10
27.3468641001
 20
5.782903462
 30
0.0
 11
27.4433903972
 21
5.782903462
 31
0.0
  0
LINE
  5
55B
330
1F
100
AcDbEntity
  8
0
  6
Continuous
 62
     7
370
    25
100
AcDbLine
 10
27.7285903972
 20
5.782903462
 30
0.0
 11
27.7883903972
 21
5.782903462
 31
0.0
  0
LINE
  5
55C
330
1F
100
AcDbEntity
  8
0
  6
Continuous
 62
     7
370
    25
100
AcDbLine
 10
27.3783903972
 20
5.668853462
 30
0.0
 11
27.3815170558
 21
5.668853462
 31
0.0
  0
LINE
  5
55D
330
1F
100
AcDbEntity
  8
0
  6
Continuous
 62
     7
370
    25
100
AcDbLine
 10
27.6224086584
 20
5.653103462
 30
0.0
 11
27.3941403972
 21
5.653103462
 31
0.0
  0
LINE
  5
55E
330
1F
100
AcDbEntity
  8
0
  6
Continuous
 62
     7
370
    25
100
AcDbLine
 10
27.6426403972
 20
5.653103462
 30
0.0
 11
27.6224086584
 21
5.653103462
 31
0.0
  0
LINE
  5
55F
330
1F
100
AcDbEntity
  8
0
  6
Continuous
 62
     7
370
    25
100
AcDbLine
 10
23.4683903972
 20
4.182703462
 30
0.0
 11
25.5983903972
 21
4.182703462
 31
0.0
  0
LINE
  5
560
330
1F
100
AcDbEntity
  8
0
  6
Continuous
 62
     7
370
    25
100
AcDbLine
 10
23.4683903972
 20
4.182703462
 30
0.0
 11
23.4391903972
 21
4.182703462
 31
0.0
  0
LINE
  5
561
330
1F
100
AcDbEntity
  8
0
  6
Continuous
 62
     7
370
    25
100
AcDbLine
 10
24.5983903972
 20
5.683103462
 30
0.0
 11
24.0983903972
 21
5.683103462
 31
0.0
  0
LINE
  5
562
330
1F
100
AcDbEntity
  8
0
  6
Continuous
 62
     7
370
    25
100
AcDbLine
 10
24.6583903972
 20
5.782903462
 30
0.0
 11
24.6583903972
 21
5.683103462
 31
0.0
  0
ARC
  5
563
330
1F
100
AcDbEntity
  8
0
  6
Continuous
 62
     7
370
    25
100
AcDbCircle
 10
25.5383903972
 20
5.722903462
 30
0.0
 40
0.0599999999999996
100
AcDbArc
 50
0.0
 51
90.0
  0
LINE
  5
564
330
1F
100
AcDbEntity
  8
0
  6
Continuous
 62
     7
370
    25
100
AcDbLine
 10
25.5983903972
 20
5.722903462
 30
0.0
 11
25.5983903972
 21
4.182703462
 31
0.0
  0
LINE
  5
565
330
1F
100
AcDbEntity
  8
0
  6
Continuous
 62
     7
370
    25
100
AcDbLine
 10
23.4391903972
 20
4.182703462
 30
0.0
 11
23.4391903972
 21
5.782903462
 31
0.0
  0
LINE
  5
566
330
1F
100
AcDbEntity
  8
0
  6
Continuous
 62
     7
370
    25
100
AcDbLine
 10
24.0383903972
 20
5.683103462
 30
0.0
 11
24.0383903972
 21
5.782903462
 31
0.0
  0
ARC
  5
567
330
1F
100
AcDbEntity
  8
0
  6
Continuous
 62
     7
370
    25
100
AcDbCircle
 10
24.0683903972
 20
5.683103462
 30
0.0
 40
0.0300000000000011
100
AcDbArc
 50
180.0
 51
0.0
  0
ARC
  5
568
330
1F
100
AcDbEntity
  8
0
  6
Continuous
 62
     7
370
    25
100
AcDbCircle
 10
24.6283903972
 20
5.683103462
 30
0.0
 40
0.0300000000000047
100
AcDbArc
 50
180.0
 51
0.0
  0
LINE
  5
569
330
1F
100
AcDbEntity
  8
0
  6
Continuous
 62
     7
370
    25
100
AcDbLine
 10
24.5983903972
 20
5.772903462
 30
0.0
 11
24.0983903972
 21
5.772903462
 31
0.0
  0
LINE
  5
56A
330
1F
100
AcDbEntity
  8
0
  6
Continuous
 62
     7
370
    25
100
AcDbLine
 10
24.0983903972
 20
5.683103462
 30
0.0
 11
24.0983903972
 21
5.772903462
 31
0.0
  0
LINE
  5
56B
330
1F
100
AcDbEntity
  8
0
  6
Continuous
 62
     7
370
    25
100
AcDbLine
 10
24.5983903972
 20
5.772903462
 30
0.0
 11
24.5983903972
 21
5.683103462
 31
0.0
  0
LINE
  5
56C
330
1F
100
AcDbEntity
  8
0
  6
Continuous
 62
     7
370
    25
100
AcDbLine
 10
23.4683903972
 20
4.092903462
 30
0.0
 11
23.4683903972
 21
4.182703462
 31
0.0
  0
LINE
  5
56D
330
1F
100
AcDbEntity
  8
0
  6
Continuous
 62
     7
370
    25
100
AcDbLine
 10
25.5983903972
 20
4.182703462
 30
0.0
 11
25.5983903972
 21
4.092903462
 31
0.0
  0
LINE
  5
56E
330
1F
100
AcDbEntity
  8
0
  6
Continuous
 62
     7
370
    25
100
AcDbLine
 10
25.5983903972
 20
4.092903462
 30
0.0
 11
23.4683903972
 21
4.092903462
 31
0.0
  0
LINE
  5
56F
330
1F
100
AcDbEntity
  8
0
  6
Continuous
 62
     7
370
    25
100
AcDbLine
 10
27.8183903972
 20
4.182903462
 30
0.0
 11
27.7585903972
 21
4.182903462
 31
0.0
  0
LINE
  5
570
330
1F
100
AcDbEntity
  8
0
  6
Continuous
 62
     7
370
    25
100
AcDbLine
 10
27.7585903972
 20
4.242903462
 30
0.0
 11
27.8183903972
 21
4.242903462
 31
0.0
  0
LINE
  5
571
330
1F
100
AcDbEntity
  8
0
  6
Continuous
 62
     7
370
    25
100
AcDbLine
 10
27.8183903972
 20
4.242903462
 30
0.0
 11
27.8183903972
 21
4.182903462
 31
0.0
  0
LINE
  5
572
330
1F
100
AcDbEntity
  8
0
  6
Continuous
 62
     7
370
    25
100
AcDbLine
 10
27.7585903972
 20
4.182903462
 30
0.0
 11
27.7585903972
 21
4.242903462
 31
0.0
  0
LINE
  5
573
330
1F
100
AcDbEntity
  8
0
  6
Continuous
 62
     7
370
    25
100
AcDbLine
 10
27.7285903972
 20
5.723103462
 30
0.0
 11
27.7285903972
 21
5.782903462
 31
0.0
  0
LINE
  5
574
330
1F
100
AcDbEntity
  8
0
  6
Continuous
 62
     7
370
    25
100
AcDbLine
 10
27.5033903972
 20
5.782903462
 30
0.0
 11
27.5033903972
 21
5.723103462
 31
0.0
  0
LINE
  5
575
330
1F
100
AcDbEntity
  8
0
  6
Continuous
 62
     7
370
    25
100
AcDbLine
 10
27.5033903972
 20
5.723103462
 30
0.0
 11
27.7285903972
 21
5.723103462
 31
0.0
  0
LINE
  5
576
330
1F
100
AcDbEntity
  8
0
  6
Continuous
 62
     7
370
    25
100
AcDbLine
 10
27.5033903972
 20
5.782903462
 30
0.0
 11
27.7285903972
 21
5.782903462
 31
0.0
  0
LINE
  5
577
330
1F
100
AcDbEntity
  8
0
  6
Continuous
 62
     7
370
    25
100
AcDbLine
 10
27.8183903972
 20
4.242903462
 30
0.0
 11
27.8183903972
 21
5.693103462
 31
0.0
  0
LINE
  5
578
330
1F
100
AcDbEntity
  8
0
  6
Continuous
 62
     7
370
    25
100
AcDbLine
 10
27.7585903972
 20
5.693103462
 30
0.0
 11
27.8183903972
 21
5.693103462
 31
0.0
  0
LINE
  5
579
330
1F
100
AcDbEntity
  8
0
  6
Continuous
 62
     7
370
    25
100
AcDbLine
 10
27.7585903972
 20
4.242903462
 30
0.0
 11
27.7585903972
 21
5.693103462
 31
0.0
  0
LINE
  5
57A
330
1F
100
AcDbEntity
  8
0
  6
Continuous
 62
     7
370
    25
100
AcDbLine
 10
27.4433903972
 20
5.723103462
 30
0.0
 11
27.4433903972
 21
5.782903462
 31
0.0
  0
LINE
  5
57B
330
1F
100
AcDbEntity
  8
0
  6
Continuous
 62
     7
370
    25
100
AcDbLine
 10
27.5033903972
 20
5.723103462
 30
0.0
 11
27.4433903972
 21
5.723103462
 31
0.0
  0
LINE
  5
57C
330
1F
100
AcDbEntity
  8
0
  6
Continuous
 62
     7
370
    25
100
AcDbLine
 10
27.4433903972
 20
5.782903462
 30
0.0
 11
27.5033903972
 21
5.782903462
 31
0.0
  0
LINE
  5
57D
330
1F
100
AcDbEntity
  8
0
  6
Continuous
 62
     7
370
    25
100
AcDbLine
 10
23.4381903972
 20
5.782903462
 30
0.0
 11
23.4381903972
 21
4.182703462
 31
0.0
  0
LINE
  5
57E
330
1F
100
AcDbEntity
  8
0
  6
Continuous
 62
     7
370
    25
100
AcDbLine
 10
23.3783903972
 20
5.782903462
 30
0.0
 11
23.3783903972
 21
4.182703462
 31
0.0
  0
LINE
  5
57F
330
1F
100
AcDbEntity
  8
0
  6
Continuous
 62
     7
370
    25
100
AcDbLine
 10
23.4381903972
 20
4.182703462
 30
0.0
 11
23.3783903972
 21
4.182703462
 31
0.0
  0
ARC
  5
580
330
1F
100
AcDbEntity
  8
0
  6
Continuous
 62
     7
370
    25
100
AcDbCircle
 10
27.7285903972
 20
5.693103462
 30
0.0
 40
0.0898000000000039
100
AcDbArc
 50
0.0
 51
90.0
  0
ARC
  5
581
330
1F
100
AcDbEntity
  8
0
  6
Continuous
 62
     7
370
    25
100
AcDbCircle
 10
27.7285903972
 20
5.693103462
 30
0.0
 40
0.0300000000000047
100
AcDbArc
 50
0.0
 51
90.0
  0
LINE
  5
582
330
1F
100
AcDbEntity
  8
0
  6
Continuous
 62
     7
370
    25
100
AcDbLine
 10
27.7285903972
 20
4.152703462
 30
0.0
 11
25.5983903972
 21
4.152703462
 31
0.0
  0
LINE
  5
583
330
1F
100
AcDbEntity
  8
0
  6
Continuous
 62
     7
370
    25
100
AcDbLine
 10
25.5983903972
 20
4.092903462
 30
0.0
 11
27.7285903972
 21
4.092903462
 31
0.0
  0
ARC
  5
584
330
1F
100
AcDbEntity
  8
0
  6
Continuous
 62
     7
370
    25
100
AcDbCircle
 10
27.7285903972
 20
4.182703462
 30
0.0
 40
0.0300000000000047
100
AcDbArc
 50
270.0
 51
0.0
  0
ARC
  5
585
330
1F
100
AcDbEntity
  8
0
  6
Continuous
 62
     7
370
    25
100
AcDbCircle
 10
27.7285903972
 20
4.182703462
 30
0.0
 40
0.0898000000000039
100
AcDbArc
 50
270.0
 51
0.0
  0
LINE
  5
586
330
1F
100
AcDbEntity
  8
0
  6
Continuous
 62
     7
370
    25
100
AcDbLine
 10
27.8183903972
 20
4.182903462
 30
0.0
 11
27.8183903972
 21
4.182703462
 31
0.0
  0
LINE
  5
587
330
1F
100
AcDbEntity
  8
0
  6
Continuous
 62
     7
370
    25
100
AcDbLine
 10
27.7585903972
 20
4.182903462
 30
0.0
 11
27.7585903972
 21
4.182703462
 31
0.0
  0
ARC
  5
588
330
1F
100
AcDbEntity
  8
0
  6
Continuous
 62
     7
370
    25
100
AcDbCircle
 10
23.4681903972
 20
4.182703462
 30
0.0
 40
0.0898000000000003
100
AcDbArc
 50
180.0
 51
270.0
  0
ARC
  5
589
330
1F
100
AcDbEntity
  8
0
  6
Continuous
 62
     7
370
    25
100
AcDbCircle
 10
23.4681903972
 20
4.182703462
 30
0.0
 40
0.0300000000000011
100
AcDbArc
 50
180.0
 51
270.0
  0
LINE
  5
58A
330
1F
100
AcDbEntity
  8
0
  6
Continuous
 62
     7
370
    25
100
AcDbLine
 10
23.4683903972
 20
4.152703462
 30
0.0
 11
23.4681903972
 21
4.152703462
 31
0.0
  0
LINE
  5
58B
330
1F
100
AcDbEntity
  8
0
  6
Continuous
 62
     7
370
    25
100
AcDbLine
 10
23.4683903972
 20
4.092903462
 30
0.0
 11
23.4681903972
 21
4.092903462
 31
0.0
  0
LINE
  5
58C
330
1F
100
AcDbEntity
  8
0
  6
Continuous
 62
     7
370
    25
100
AcDbLine
 10
26.3783903972
 20
4.1634198337
 30
0.0
 11
26.1783903972
 21
4.1634198337
 31
0.0
  0
LINE
  5
58D
330
1F
100
AcDbEntity
  8
0
  6
Continuous
 62
     7
370
    25
100
AcDbLine
 10
26.3783903972
 20
4.152703462
 30
0.0
 11
26.3783903972
 21
4.1634198337
 31
0.0
  0
LINE
  5
58E
330
1F
100
AcDbEntity
  8
0
  6
Continuous
 62
     7
370
    25
100
AcDbLine
 10
26.1783903972
 20
4.1634198337
 30
0.0
 11
26.1783903972
 21
4.152703462
 31
0.0
  0
LINE
  5
58F
330
1F
100
AcDbEntity
  8
0
  6
Continuous
 62
     7
370
    25
100
AcDbLine
 10
26.1783903972
 20
4.2456257894
 30
0.0
 11
26.3783903972
 21
4.2456257894
 31
0.0
  0
LINE
  5
590
330
1F
100
AcDbEntity
  8
0
  6
Continuous
 62
     7
370
    25
100
AcDbLine
 10
26.3783903972
 20
4.1634198337
 30
0.0
 11
26.3783903972
 21
4.2456257894
 31
0.0
  0
LINE
  5
591
330
1F
100
AcDbEntity
  8
0
  6
Continuous
 62
     7
370
    25
100
AcDbLine
 10
26.1783903972
 20
4.1634198337
 30
0.0
 11
26.1783903972
 21
4.2456257894
 31
0.0
  0
LINE
  5
592
330
1F
100
AcDbEntity
  8
0
  6
Continuous
 62
     7
370
    25
100
AcDbLine
 10
26.3783903972
 20
4.277703462
 30
0.0
 11
26.1783903972
 21
4.277703462
 31
0.0
  0
LINE
  5
593
330
1F
100
AcDbEntity
  8
0
  6
Continuous
 62
     7
370
    25
100
AcDbLine
 10
26.3783903972
 20
4.2456257894
 30
0.0
 11
26.3783903972
 21
4.277703462
 31
0.0
  0
LINE
  5
594
330
1F
100
AcDbEntity
  8
0
  6
Continuous
 62
     7
370
    25
100
AcDbLine
 10
26.1783903972
 20
4.277703462
 30
0.0
 11
26.1783903972
 21
4.2456257894
 31
0.0
  0
LINE
  5
595
330
1F
100
AcDbEntity
  8
0
  6
Continuous
 62
     7
370
    25
100
AcDbLine
 10
26.5955996931
 20
4.152703462
 30
0.0
 11
26.5498825007
 21
4.2071870903
 31
0.0
  0
ARC
  5
596
330
1F
100
AcDbEntity
  8
0
  6
Continuous
 62
     7
370
    25
100
AcDbCircle
 10
25.9298796269
 20
4.187903462
 30
0.0
 40
0.030000000000002
100
AcDbArc
 50
90.0
 51
140.0
  0
LINE
  5
597
330
1F
100
AcDbEntity
  8
0
  6
Continuous
 62
     7
370
    25
100
AcDbLine
 10
25.8611811012
 20
4.152703462
 30
0.0
 11
25.9068982936
 21
4.2071870903
 31
0.0
  0
ARC
  5
598
330
1F
100
AcDbEntity
  8
0
  6
Continuous
 62
     7
370
    25
100
AcDbCircle
 10
25.7691285156
 20
4.182703462
 30
0.0
 40
0.030000000000002
100
AcDbArc
 50
270.0
 51
320.0
  0
LINE
  5
599
330
1F
100
AcDbEntity
  8
0
  6
Continuous
 62
     7
370
    25
100
AcDbLine
 10
25.7921098489
 20
4.1634198337
 30
0.0
 11
25.8610888359
 21
4.2456257894
 31
0.0
  0
LINE
  5
59A
330
1F
100
AcDbEntity
  8
0
  6
Continuous
 62
     7
370
    25
100
AcDbLine
 10
26.5269011674
 20
4.277703462
 30
0.0
 11
26.3783903972
 21
4.277703462
 31
0.0
  0
LINE
  5
59B
330
1F
100
AcDbEntity
  8
0
  6
Continuous
 62
     7
370
    25
100
AcDbLine
 10
26.1783903972
 20
4.277703462
 30
0.0
 11
25.9298796269
 21
4.277703462
 31
0.0
  0
ARC
  5
59C
330
1F
100
AcDbEntity
  8
0
  6
Continuous
 62
     7
370
    25
100
AcDbCircle
 10
26.5269011674
 20
4.187903462
 30
0.0
 40
0.0898000000000014
100
AcDbArc
 50
40.0
 51
90.0
  0
LINE
  5
59D
330
1F
100
AcDbEntity
  8
0
  6
Continuous
 62
     7
370
    25
100
AcDbLine
 10
26.6646709455
 20
4.1634198337
 30
0.0
 11
26.5956919584
 21
4.2456257894
 31
0.0
  0
ARC
  5
59E
330
1F
100
AcDbEntity
  8
0
  6
Continuous
 62
     7
370
    25
100
AcDbCircle
 10
26.6876522788
 20
4.182703462
 30
0.0
 40
0.030000000000002
100
AcDbArc
 50
220.0
 51
270.0
  0
ARC
  5
59F
330
1F
100
AcDbEntity
  8
0
  6
Continuous
 62
     7
370
    25
100
AcDbCircle
 10
25.9298796269
 20
4.187903462
 30
0.0
 40
0.0897999999999994
100
AcDbArc
 50
90.0
 51
140.0
  0
ARC
  5
5A0
330
1F
100
AcDbEntity
  8
0
  6
Continuous
 62
     7
370
    25
100
AcDbCircle
 10
26.5269011674
 20
4.187903462
 30
0.0
 40
0.0300000000000002
100
AcDbArc
 50
40.0
 51
90.0
  0
LINE
  5
5A1
330
1F
100
AcDbEntity
  8
0
  6
Continuous
 62
     7
370
    25
100
AcDbLine
 10
26.5269011674
 20
4.217903462
 30
0.0
 11
26.3783903972
 21
4.217903462
 31
0.0
  0
LINE
  5
5A2
330
1F
100
AcDbEntity
  8
0
  6
Continuous
 62
     7
370
    25
100
AcDbLine
 10
26.1783903972
 20
4.217903462
 30
0.0
 11
25.9298796269
 21
4.217903462
 31
0.0
  0
LINE
  5
5A3
330
1F
100
AcDbEntity
  8
0
  6
Continuous
 62
     7
370
    25
100
AcDbLine
 10
27.322094129
 20
5.723103462
 30
0.0
 11
27.2683903972
 21
5.723103462
 31
0.0
  0
LINE
  5
5A4
330
1F
100
AcDbEntity
  8
0
  6
Continuous
 62
     7
370
    25
100
AcDbLine
 10
27.2683903972
 20
5.723103462
 30
0.0
 11
27.2683903972
 21
5.7765024135
 31
0.0
  0
LINE
  5
5A5
330
1F
100
AcDbEntity
  8
0
  6
Continuous
 62
     7
370
    25
100
AcDbLine
 10
27.4433903972
 20
5.723103462
 30
0.0
 11
27.4073196013
 21
5.723103462
 31
0.0
  0
DIMENSION
  5
5A6
330
1F
100
AcDbEntity
  8
FORMAT
 62
     7
100
AcDbDimension
  2
_D_2
 10
22.8483903972
 20
4.092903462
 30
0.0
 11
22.8483903972
 21
4.9070647539
 31
0.0
 70
   160
  1
<>
 71
     2
 42
-1.0
  3
SLDDIMSTYLE1
100
AcDbAlignedDimension
 13
23.3483903972
 23
5.842703462
 33
0.0
 14
23.4683903972
 24
4.092903462
 34
0.0
 50
90.0
100
AcDbRotatedDimension
  0
ENDSEC
  0
SECTION
  2
OBJECTS
  0
DICTIONARY
  5
C
330
0
100
AcDbDictionary
281
     1
  3
ACAD_GROUP
350
D
  3
ACAD_LAYOUT
350
1A
  3
ACAD_MLINESTYLE
350
17
  3
ACAD_PLOTSETTINGS
350
19
  3
ACAD_PLOTSTYLENAME
350
E
  3
ACAD_SCALELIST
350
47
  3
DWGPROPS
350
5B2
  0
DICTIONARY
  5
D
102
{ACAD_REACTORS
330
C
102
}
330
C
100
AcDbDictionary
281
     1
  0
DICTIONARY
  5
1A
102
{ACAD_REACTORS
330
C
102
}
330
C
100
AcDbDictionary
281
     1
  3
Layout1
350
1E
  3
Layout2
350
26
  3
Model
350
22
  0
DICTIONARY
  5
17
102
{ACAD_REACTORS
330
C
102
}
330
C
100
AcDbDictionary
281
     1
  3
Standard
350
18
  0
DICTIONARY
  5
19
102
{ACAD_REACTORS
330
C
102
}
330
C
100
AcDbDictionary
281
     1
  0
ACDBDICTIONARYWDFLT
  5
E
102
{ACAD_REACTORS
330
C
102
}
330
C
100
AcDbDictionary
281
     1
  3
Normal
350
F
100
AcDbDictionaryWithDefault
340
F
  0
DICTIONARY
  5
47
102
{ACAD_REACTORS
330
C
102
}
330
C
100
AcDbDictionary
281
     1
  3
A0
350
48
  3
A1
350
49
  3
A2
350
4A
  3
A3
350
4B
  3
A4
350
4C
  3
A5
350
4D
  3
A6
350
4E
  3
A7
350
4F
  3
A8
350
50
  3
A9
350
51
  3
B0
350
52
  3
B1
350
53
  3
B2
350
54
  3
B3
350
55
  3
B4
350
56
  3
B5
350
57
  3
B6
350
58
  3
B7
350
59
  3
B8
350
5A
  3
B9
350
5B
  3
C0
350
5C
  3
C1
350
5D
  3
C2
350
5E
  3
C3
350
5F
  3
C4
350
60
  3
C5
350
61
  3
C6
350
62
  3
C7
350
63
  3
C8
350
64
  3
C9
350
65
  3
D0
350
66
  3
D1
350
67
  3
D2
350
68
  0
XRECORD
  5
5B2
102
{ACAD_REACTORS
330
C
102
}
330
C
100
AcDbXrecord
280
     1
  1
DWGPROPS COOKIE
  2

  3

  4

  6

  7

  8
ELM
  9

300
=
301
=
302
=
303
=
304
=
305
=
306
=
307
=
308
=
309
=
 40
0.0
 41
2459268.918111574
 42
2459268.918112523
  1

 90
        0
  0
LAYOUT
  5
1E
102
{ACAD_REACTORS
330
1A
102
}
330
1A
100
AcDbPlotSettings
  1

  2
none_device
  4

  6

 40
0.0
 41
0.0
 42
0.0
 43
0.0
 44
0.0
 45
0.0
 46
0.0
 47
0.0
 48
0.0
 49
0.0
140
0.0
141
0.0
142
1.0
143
1.0
 70
   688
 72
     0
 73
     0
 74
     5
  7

 75
    16
147
1.0
148
0.0
149
0.0
100
AcDbLayout
  1
Layout1
 70
     1
 71
     1
 10
0.0
 20
0.0
 11
12.0
 21
9.0
 12
0.0
 22
0.0
 32
0.0
 14
1.0000000000E+20
 24
1.0000000000E+20
 34
1.0000000000E+20
 15
-1.0000000000E+20
 25
-1.0000000000E+20
 35
-1.0000000000E+20
146
0.0
 13
0.0
 23
0.0
 33
0.0
 16
1.0
 26
0.0
 36
0.0
 17
0.0
 27
1.0
 37
0.0
 76
     0
330
1B
  0
LAYOUT
  5
26
102
{ACAD_REACTORS
330
1A
102
}
330
1A
100
AcDbPlotSettings
  1

  2
none_device
  4

  6

 40
0.0
 41
0.0
 42
0.0
 43
0.0
 44
0.0
 45
0.0
 46
0.0
 47
0.0
 48
0.0
 49
0.0
140
0.0
141
0.0
142
1.0
143
1.0
 70
   688
 72
     0
 73
     0
 74
     5
  7

 75
    16
147
1.0
148
0.0
149
0.0
100
AcDbLayout
  1
Layout2
 70
     1
 71
     2
 10
0.0
 20
0.0
 11
0.0
 21
0.0
 12
0.0
 22
0.0
 32
0.0
 14
0.0
 24
0.0
 34
0.0
 15
0.0
 25
0.0
 35
0.0
146
0.0
 13
0.0
 23
0.0
 33
0.0
 16
1.0
 26
0.0
 36
0.0
 17
0.0
 27
1.0
 37
0.0
 76
     0
330
23
  0
LAYOUT
  5
22
102
{ACAD_REACTORS
330
1A
102
}
330
1A
100
AcDbPlotSettings
  1

  2
none_device
  4
Letter_(8.50_x_11.00_Inches)
  6

 40
6.35
 41
6.35
 42
6.35000508
 43
6.35000508
 44
215.9
 45
279.4
 46
0.0
 47
0.0
 48
0.0
 49
0.0
140
0.0
141
0.0
142
1.0
143
1.0
 70
  1712
 72
     0
 73
     0
 74
     0
  7

 75
     0
147
1.0
148
0.0
149
0.0
100
AcDbLayout
  1
Model
 70
     1
 71
     0
 10
0.0
 20
0.0
 11
34.0
 21
22.0
 12
0.0
 22
0.0
 32
0.0
 14
0.0
 24
0.0
 34
0.0
 15
34.0
 25
22.0
 35
0.0
146
0.0
 13
0.0
 23
0.0
 33
0.0
 16
1.0
 26
0.0
 36
0.0
 17
0.0
 27
1.0
 37
0.0
 76
     0
330
1F
331
29
  0
MLINESTYLE
  5
18
102
{ACAD_REACTORS
330
17
102
}
330
17
100
AcDbMlineStyle
  2
Standard
 70
     0
  3

 62
   256
 51
90.0
 52
90.0
 71
     2
 49
0.5
 62
   256
  6
BYLAYER
 49
-0.5
 62
   256
  6
BYLAYER
  0
ACDBPLACEHOLDER
  5
F
102
{ACAD_REACTORS
330
E
102
}
330
E
  0
SCALE
  5
48
102
{ACAD_REACTORS
330
47
102
}
330
47
100
AcDbScale
 70
     0
300
1:1
140
1.0
141
1.0
290
     1
  0
SCALE
  5
49
102
{ACAD_REACTORS
330
47
102
}
330
47
100
AcDbScale
 70
     0
300
1:2
140
1.0
141
2.0
290
     0
  0
SCALE
  5
4A
102
{ACAD_REACTORS
330
47
102
}
330
47
100
AcDbScale
 70
     0
300
1:4
140
1.0
141
4.0
290
     0
  0
SCALE
  5
4B
102
{ACAD_REACTORS
330
47
102
}
330
47
100
AcDbScale
 70
     0
300
1:5
140
1.0
141
5.0
290
     0
  0
SCALE
  5
4C
102
{ACAD_REACTORS
330
47
102
}
330
47
100
AcDbScale
 70
     0
300
1:8
140
1.0
141
8.0
290
     0
  0
SCALE
  5
4D
102
{ACAD_REACTORS
330
47
102
}
330
47
100
AcDbScale
 70
     0
300
1:10
140
1.0
141
10.0
290
     0
  0
SCALE
  5
4E
102
{ACAD_REACTORS
330
47
102
}
330
47
100
AcDbScale
 70
     0
300
1:16
140
1.0
141
16.0
290
     0
  0
SCALE
  5
4F
102
{ACAD_REACTORS
330
47
102
}
330
47
100
AcDbScale
 70
     0
300
1:20
140
1.0
141
20.0
290
     0
  0
SCALE
  5
50
102
{ACAD_REACTORS
330
47
102
}
330
47
100
AcDbScale
 70
     0
300
1:30
140
1.0
141
30.0
290
     0
  0
SCALE
  5
51
102
{ACAD_REACTORS
330
47
102
}
330
47
100
AcDbScale
 70
     0
300
1:40
140
1.0
141
40.0
290
     0
  0
SCALE
  5
52
102
{ACAD_REACTORS
330
47
102
}
330
47
100
AcDbScale
 70
     0
300
1:50
140
1.0
141
50.0
290
     0
  0
SCALE
  5
53
102
{ACAD_REACTORS
330
47
102
}
330
47
100
AcDbScale
 70
     0
300
1:100
140
1.0
141
100.0
290
     0
  0
SCALE
  5
54
102
{ACAD_REACTORS
330
47
102
}
330
47
100
AcDbScale
 70
     0
300
2:1
140
2.0
141
1.0
290
     0
  0
SCALE
  5
55
102
{ACAD_REACTORS
330
47
102
}
330
47
100
AcDbScale
 70
     0
300
4:1
140
4.0
141
1.0
290
     0
  0
SCALE
  5
56
102
{ACAD_REACTORS
330
47
102
}
330
47
100
AcDbScale
 70
     0
300
8:1
140
8.0
141
1.0
290
     0
  0
SCALE
  5
57
102
{ACAD_REACTORS
330
47
102
}
330
47
100
AcDbScale
 70
     0
300
10:1
140
10.0
141
1.0
290
     0
  0
SCALE
  5
58
102
{ACAD_REACTORS
330
47
102
}
330
47
100
AcDbScale
 70
     0
300
100:1
140
100.0
141
1.0
290
     0
  0
SCALE
  5
59
102
{ACAD_REACTORS
330
47
102
}
330
47
100
AcDbScale
 70
     0
300
1/128" = 1'-0"
140
0.0078125
141
12.0
290
     0
  0
SCALE
  5
5A
102
{ACAD_REACTORS
330
47
102
}
330
47
100
AcDbScale
 70
     0
300
1/64" = 1'-0"
140
0.015625
141
12.0
290
     0
  0
SCALE
  5
5B
102
{ACAD_REACTORS
330
47
102
}
330
47
100
AcDbScale
 70
     0
300
1/32" = 1'-0"
140
0.03125
141
12.0
290
     0
  0
SCALE
  5
5C
102
{ACAD_REACTORS
330
47
102
}
330
47
100
AcDbScale
 70
     0
300
1/16" = 1'-0"
140
0.0625
141
12.0
290
     0
  0
SCALE
  5
5D
102
{ACAD_REACTORS
330
47
102
}
330
47
100
AcDbScale
 70
     0
300
3/32" = 1'-0"
140
0.09375
141
12.0
290
     0
  0
SCALE
  5
5E
102
{ACAD_REACTORS
330
47
102
}
330
47
100
AcDbScale
 70
     0
300
1/8" = 1'-0"
140
0.125
141
12.0
290
     0
  0
SCALE
  5
5F
102
{ACAD_REACTORS
330
47
102
}
330
47
100
AcDbScale
 70
     0
300
3/16" = 1'-0"
140
0.1875
141
12.0
290
     0
  0
SCALE
  5
60
102
{ACAD_REACTORS
330
47
102
}
330
47
100
AcDbScale
 70
     0
300
1/4" = 1'-0"
140
0.25
141
12.0
290
     0
  0
SCALE
  5
61
102
{ACAD_REACTORS
330
47
102
}
330
47
100
AcDbScale
 70
     0
300
3/8" = 1'-0"
140
0.375
141
12.0
290
     0
  0
SCALE
  5
62
102
{ACAD_REACTORS
330
47
102
}
330
47
100
AcDbScale
 70
     0
300
1/2" = 1'-0"
140
0.5
141
12.0
290
     0
  0
SCALE
  5
63
102
{ACAD_REACTORS
330
47
102
}
330
47
100
AcDbScale
 70
     0
300
3/4" = 1'-0"
140
0.75
141
12.0
290
     0
  0
SCALE
  5
64
102
{ACAD_REACTORS
330
47
102
}
330
47
100
AcDbScale
 70
     0
300
1" = 1'-0"
140
1.0
141
12.0
290
     0
  0
SCALE
  5
65
102
{ACAD_REACTORS
330
47
102
}
330
47
100
AcDbScale
 70
     0
300
1-1/2" = 1'-0"
140
1.5
141
12.0
290
     0
  0
SCALE
  5
66
102
{ACAD_REACTORS
330
47
102
}
330
47
100
AcDbScale
 70
     0
300
3" = 1'-0"
140
3.0
141
12.0
290
     0
  0
SCALE
  5
67
102
{ACAD_REACTORS
330
47
102
}
330
47
100
AcDbScale
 70
     0
300
6" = 1'-0"
140
6.0
141
12.0
290
     0
  0
SCALE
  5
68
102
{ACAD_REACTORS
330
47
102
}
330
47
100
AcDbScale
 70
     0
300
1'-0" = 1'-0"
140
12.0
141
12.0
290
     0
  0
ENDSEC
  0
EOF
