  0
SECTION
  2
HEADER
  9
$ACADVER
  1
AC1015
  9
$ACADMAINTVER
 70
     6
  9
$DWGCODEPAGE
  3
ANSI_1252
  9
$INSBASE
 10
0.0
 20
0.0
 30
0.0
  9
$EXTMIN
 10
0.0
 20
0.0
 30
0.0
  9
$EXTMAX
 10
17.0
 20
11.0
 30
0.0
  9
$LIMMIN
 10
0.0
 20
0.0
  9
$LIMMAX
 10
17.0
 20
11.0
  9
$ORTHOMODE
 70
     0
  9
$REGENMODE
 70
     1
  9
$FILLMODE
 70
     1
  9
$QTEXTMODE
 70
     0
  9
$MIRRTEXT
 70
     1
  9
$LTSCALE
 40
1.0
  9
$ATTMODE
 70
     1
  9
$TEXTSIZE
 40
0.125
  9
$TRACEWID
 40
0.05
  9
$TEXTSTYLE
  7
Standard
  9
$CLAYER
  8
0
  9
$CELTYPE
  6
ByLayer
  9
$CECOLOR
 62
   256
  9
$CELTSCALE
 40
1.0
  9
$DISPSILH
 70
     0
  9
$DIMSCALE
 40
1.0
  9
$DIMASZ
 40
0.15
  9
$DIMEXO
 40
0.05
  9
$DIMDLI
 40
0.38
  9
$DIMRND
 40
0.0
  9
$DIMDLE
 40
0.0
  9
$DIMEXE
 40
0.075
  9
$DIMTP
 40
0.0
  9
$DIMTM
 40
0.0
  9
$DIMTXT
 40
0.125
  9
$DIMCEN
 40
0.09
  9
$DIMTSZ
 40
0.0
  9
$DIMTOL
 70
     0
  9
$DIMLIM
 70
     0
  9
$DIMTIH
 70
     1
  9
$DIMTOH
 70
     1
  9
$DIMSE1
 70
     0
  9
$DIMSE2
 70
     0
  9
$DIMTAD
 70
     0
  9
$DIMZIN
 70
     0
  9
$DIMBLK
  1

  9
$DIMASO
 70
     1
  9
$DIMSHO
 70
     1
  9
$DIMPOST
  1

  9
$DIMAPOST
  1

  9
$DIMALT
 70
     0
  9
$DIMALTD
 70
     2
  9
$DIMALTF
 40
25.4
  9
$DIMLFAC
 40
1.0
  9
$DIMTOFL
 70
     0
  9
$DIMTVP
 40
0.0
  9
$DIMTIX
 70
     0
  9
$DIMSOXD
 70
     0
  9
$DIMSAH
 70
     0
  9
$DIMBLK1
  1

  9
$DIMBLK2
  1

  9
$DIMSTYLE
  2
Standard
  9
$DIMCLRD
 70
     0
  9
$DIMCLRE
 70
     0
  9
$DIMCLRT
 70
     0
  9
$DIMTFAC
 40
1.0
  9
$DIMGAP
 40
0.06
  9
$DIMJUST
 70
     0
  9
$DIMSD1
 70
     0
  9
$DIMSD2
 70
     0
  9
$DIMTOLJ
 70
     1
  9
$DIMTZIN
 70
     0
  9
$DIMALTZ
 70
     0
  9
$DIMALTTZ
 70
     0
  9
$DIMUPT
 70
     0
  9
$DIMDEC
 70
     3
  9
$DIMTDEC
 70
     3
  9
$DIMALTU
 70
     2
  9
$DIMALTTD
 70
     2
  9
$DIMTXSTY
  7
Standard
  9
$DIMAUNIT
 70
     0
  9
$DIMADEC
 70
     2
  9
$DIMALTRND
 40
0.0
  9
$DIMAZIN
 70
     0
  9
$DIMDSEP
 70
    46
  9
$DIMATFIT
 70
     3
  9
$DIMFRAC
 70
     0
  9
$DIMLDRBLK
  1

  9
$DIMLUNIT
 70
     2
  9
$DIMLWD
 70
    -2
  9
$DIMLWE
 70
    -2
  9
$DIMTMOVE
 70
     0
  9
$LUNITS
 70
     2
  9
$LUPREC
 70
     4
  9
$SKETCHINC
 40
0.1
  9
$FILLETRAD
 40
0.5
  9
$AUNITS
 70
     0
  9
$AUPREC
 70
     2
  9
$MENU
  1
.
  9
$ELEVATION
 40
0.0
  9
$PELEVATION
 40
0.0
  9
$THICKNESS
 40
0.0
  9
$LIMCHECK
 70
     0
  9
$CHAMFERA
 40
0.0
  9
$CHAMFERB
 40
0.0
  9
$CHAMFERC
 40
0.0
  9
$CHAMFERD
 40
0.0
  9
$SKPOLY
 70
     0
  9
$TDCREATE
 40
2458667.530520556
  9
$TDUCREATE
 40
2458667.822187222
  9
$TDUPDATE
 40
2458667.530521366
  9
$TDUUPDATE
 40
2458667.822188032
  9
$TDINDWG
 40
0.0000000116
  9
$TDUSRTIMER
 40
0.0000000116
  9
$USRTIMER
 70
     1
  9
$ANGBASE
 50
0.0
  9
$ANGDIR
 70
     0
  9
$PDMODE
 70
     0
  9
$PDSIZE
 40
-1.0
  9
$PLINEWID
 40
0.0
  9
$SPLFRAME
 70
     0
  9
$SPLINETYPE
 70
     6
  9
$SPLINESEGS
 70
     8
  9
$HANDSEED
  5
28E
  9
$SURFTAB1
 70
     6
  9
$SURFTAB2
 70
     6
  9
$SURFTYPE
 70
     6
  9
$SURFU
 70
     6
  9
$SURFV
 70
     6
  9
$UCSBASE
  2

  9
$UCSNAME
  2

  9
$UCSORG
 10
0.0
 20
0.0
 30
0.0
  9
$UCSXDIR
 10
1.0
 20
0.0
 30
0.0
  9
$UCSYDIR
 10
0.0
 20
1.0
 30
0.0
  9
$UCSORTHOREF
  2

  9
$UCSORTHOVIEW
 70
     0
  9
$UCSORGTOP
 10
0.0
 20
0.0
 30
0.0
  9
$UCSORGBOTTOM
 10
0.0
 20
0.0
 30
0.0
  9
$UCSORGLEFT
 10
0.0
 20
0.0
 30
0.0
  9
$UCSORGRIGHT
 10
0.0
 20
0.0
 30
0.0
  9
$UCSORGFRONT
 10
0.0
 20
0.0
 30
0.0
  9
$UCSORGBACK
 10
0.0
 20
0.0
 30
0.0
  9
$PUCSBASE
  2

  9
$PUCSNAME
  2

  9
$PUCSORG
 10
0.0
 20
0.0
 30
0.0
  9
$PUCSXDIR
 10
1.0
 20
0.0
 30
0.0
  9
$PUCSYDIR
 10
0.0
 20
1.0
 30
0.0
  9
$PUCSORTHOREF
  2

  9
$PUCSORTHOVIEW
 70
     0
  9
$PUCSORGTOP
 10
0.0
 20
0.0
 30
0.0
  9
$PUCSORGBOTTOM
 10
0.0
 20
0.0
 30
0.0
  9
$PUCSORGLEFT
 10
0.0
 20
0.0
 30
0.0
  9
$PUCSORGRIGHT
 10
0.0
 20
0.0
 30
0.0
  9
$PUCSORGFRONT
 10
0.0
 20
0.0
 30
0.0
  9
$PUCSORGBACK
 10
0.0
 20
0.0
 30
0.0
  9
$USERI1
 70
     0
  9
$USERI2
 70
     0
  9
$USERI3
 70
     0
  9
$USERI4
 70
     0
  9
$USERI5
 70
     0
  9
$USERR1
 40
0.0
  9
$USERR2
 40
0.0
  9
$USERR3
 40
0.0
  9
$USERR4
 40
0.0
  9
$USERR5
 40
0.0
  9
$WORLDVIEW
 70
     1
  9
$SHADEDGE
 70
     3
  9
$SHADEDIF
 70
    70
  9
$TILEMODE
 70
     1
  9
$MAXACTVP
 70
    64
  9
$PINSBASE
 10
0.0
 20
0.0
 30
0.0
  9
$PLIMCHECK
 70
     0
  9
$PEXTMIN
 10
1.0000000000E+20
 20
1.0000000000E+20
 30
1.0000000000E+20
  9
$PEXTMAX
 10
-1.0000000000E+20
 20
-1.0000000000E+20
 30
-1.0000000000E+20
  9
$PLIMMIN
 10
0.0
 20
0.0
  9
$PLIMMAX
 10
12.0
 20
9.0
  9
$UNITMODE
 70
     0
  9
$VISRETAIN
 70
     1
  9
$PLINEGEN
 70
     0
  9
$PSLTSCALE
 70
     1
  9
$TREEDEPTH
 70
  3020
  9
$CMLSTYLE
  2
Standard
  9
$CMLJUST
 70
     0
  9
$CMLSCALE
 40
1.0
  9
$PROXYGRAPHICS
 70
     1
  9
$MEASUREMENT
 70
     0
  9
$CELWEIGHT
370
    -1
  9
$ENDCAPS
280
     0
  9
$JOINSTYLE
280
     0
  9
$LWDISPLAY
290
     1
  9
$INSUNITS
 70
     1
  9
$HYPERLINKBASE
  1

  9
$STYLESHEET
  1

  9
$XEDIT
290
     1
  9
$CEPSNTYPE
380
     0
  9
$PSTYLEMODE
290
     1
  9
$FINGERPRINTGUID
  2
{866B163C-3041-495C-AC35-260B3B4448C8}
  9
$VERSIONGUID
  2
{FAEB1C32-E019-11D5-929B-00C0DF256EC4}
  9
$EXTNAMES
290
     1
  9
$PSVPSCALE
 40
0.0
  9
$OLESTARTUP
290
     0
  0
ENDSEC
  0
SECTION
  2
CLASSES
  0
CLASS
  1
ACDBDICTIONARYWDFLT
  2
AcDbDictionaryWithDefault
  3
ObjectDBX Classes
 90
        0
280
     0
281
     0
  0
CLASS
  1
VISUALSTYLE
  2
AcDbVisualStyle
  3
ObjectDBX Classes
 90
     4095
280
     0
281
     0
  0
CLASS
  1
MATERIAL
  2
AcDbMaterial
  3
ObjectDBX Classes
 90
     1153
280
     0
281
     0
  0
CLASS
  1
SCALE
  2
AcDbScale
  3
ObjectDBX Classes
 90
     1153
280
     0
281
     0
  0
CLASS
  1
TABLESTYLE
  2
AcDbTableStyle
  3
ObjectDBX Classes
 90
     4095
280
     0
281
     0
  0
CLASS
  1
MLEADERSTYLE
  2
AcDbMLeaderStyle
  3
ACDB_MLEADERSTYLE_CLASS
 90
     4095
280
     0
281
     0
  0
CLASS
  1
SUN
  2
AcDbSun
  3
SCENEOE
 90
     1153
280
     0
281
     0
  0
CLASS
  1
ACDBPLACEHOLDER
  2
AcDbPlaceHolder
  3
ObjectDBX Classes
 90
        0
280
     0
281
     0
  0
CLASS
  1
LAYOUT
  2
AcDbLayout
  3
ObjectDBX Classes
 90
        0
280
     0
281
     0
  0
ENDSEC
  0
SECTION
  2
TABLES
  0
TABLE
  2
VPORT
  5
8
330
0
100
AcDbSymbolTable
 70
     1
  0
VPORT
  5
29
330
8
100
AcDbSymbolTableRecord
100
AcDbViewportTableRecord
  2
*Active
 70
     0
 10
0.0
 20
0.0
 11
1.0
 21
1.0
 12
8.5
 22
5.5
 13
0.0
 23
0.0
 14
0.5
 24
0.5
 15
0.5
 25
0.5
 16
0.0
 26
0.0
 36
1.0
 17
0.0
 27
0.0
 37
0.0
 40
11.0
 41
1.5454545455
 42
50.0
 43
0.0
 44
0.0
 50
0.0
 51
0.0
 71
     0
 72
  2000
 73
     1
 74
     3
 75
     0
 76
     0
 77
     0
 78
     0
281
     0
 65
     1
110
0.0
120
0.0
130
0.0
111
1.0
121
0.0
131
0.0
112
0.0
122
1.0
132
0.0
 79
     0
146
0.0
  0
ENDTAB
  0
TABLE
  2
LTYPE
  5
5
330
0
100
AcDbSymbolTable
 70
     6
  0
LTYPE
  5
14
330
5
100
AcDbSymbolTableRecord
100
AcDbLinetypeTableRecord
  2
ByBlock
 70
     0
  3

 72
    65
 73
     0
 40
0.0
  0
LTYPE
  5
15
330
5
100
AcDbSymbolTableRecord
100
AcDbLinetypeTableRecord
  2
ByLayer
 70
     0
  3

 72
    65
 73
     0
 40
0.0
  0
LTYPE
  5
16
330
5
100
AcDbSymbolTableRecord
100
AcDbLinetypeTableRecord
  2
Continuous
 70
     0
  3
Solid line
 72
    65
 73
     0
 40
0.0
  0
LTYPE
  5
6E
330
5
100
AcDbSymbolTableRecord
100
AcDbLinetypeTableRecord
  2
HIDDEN
 70
     0
  3
Hidden __ __ __ __ __ __ __ __ __ __ __ __ __ __
 72
    65
 73
     2
 40
0.075
 49
0.05
 74
     0
 49
-0.025
 74
     0
  0
LTYPE
  5
6F
330
5
100
AcDbSymbolTableRecord
100
AcDbLinetypeTableRecord
  2
PHANTOM
 70
     0
  3
Phantom ______  __  __  ______  __  __  ______
 72
    65
 73
     6
 40
0.5
 49
0.25
 74
     0
 49
-0.05
 74
     0
 49
0.05
 74
     0
 49
-0.05
 74
     0
 49
0.05
 74
     0
 49
-0.05
 74
     0
  0
LTYPE
  5
70
330
5
100
AcDbSymbolTableRecord
100
AcDbLinetypeTableRecord
  2
CENTER
 70
     0
  3
Center ____ _ ____ _ ____ _ ____ _ ____ _ ____
 72
    65
 73
     4
 40
0.4
 49
0.25
 74
     0
 49
-0.05
 74
     0
 49
0.05
 74
     0
 49
-0.05
 74
     0
  0
LTYPE
  5
71
330
5
100
AcDbSymbolTableRecord
100
AcDbLinetypeTableRecord
  2
CENTERX2
 70
     0
  3
Center (2x) ________  __  ________  __  _____
 72
    65
 73
     4
 40
0.8
 49
0.5
 74
     0
 49
-0.1
 74
     0
 49
0.1
 74
     0
 49
-0.1
 74
     0
  0
LTYPE
  5
72
330
5
100
AcDbSymbolTableRecord
100
AcDbLinetypeTableRecord
  2
DOT2
 70
     0
  3
Dot (.5x) ........................................
 72
    65
 73
     2
 40
0.025
 49
0.0
 74
     0
 49
-0.025
 74
     0
  0
ENDTAB
  0
TABLE
  2
LAYER
  5
2
330
0
100
AcDbSymbolTable
 70
     3
  0
LAYER
  5
10
330
2
100
AcDbSymbolTableRecord
100
AcDbLayerTableRecord
  2
0
 70
     0
 62
     7
  6
Continuous
370
    -3
390
F
  0
LAYER
  5
73
330
2
100
AcDbSymbolTableRecord
100
AcDbLayerTableRecord
  2
FORMAT
 70
     0
 62
     7
  6
Continuous
370
    -3
390
F
  0
LAYER
  5
74
330
2
100
AcDbSymbolTableRecord
100
AcDbLayerTableRecord
  2
1
 70
     0
 62
   179
  6
Continuous
370
    -3
390
F
  0
ENDTAB
  0
TABLE
  2
STYLE
  5
3
330
0
100
AcDbSymbolTable
 70
     2
  0
STYLE
  5
11
330
3
100
AcDbSymbolTableRecord
100
AcDbTextStyleTableRecord
  2
Standard
 70
     0
 40
0.0
 41
1.0
 50
0.0
 71
     0
 42
0.125
  3
txt
  4

  0
STYLE
  5
78
330
3
100
AcDbSymbolTableRecord
100
AcDbTextStyleTableRecord
  2
SLDTEXTSTYLE0
 70
     0
 40
0.0
 41
0.605
 50
0.0
 71
     0
 42
0.125
  3
TXT
  4

  0
ENDTAB
  0
TABLE
  2
VIEW
  5
6
330
0
100
AcDbSymbolTable
 70
     0
  0
ENDTAB
  0
TABLE
  2
UCS
  5
7
330
0
100
AcDbSymbolTable
 70
     0
  0
ENDTAB
  0
TABLE
  2
APPID
  5
9
330
0
100
AcDbSymbolTable
 70
     1
  0
APPID
  5
12
330
9
100
AcDbSymbolTableRecord
100
AcDbRegAppTableRecord
  2
ACAD
 70
     0
  0
ENDTAB
  0
TABLE
  2
DIMSTYLE
  5
A
330
0
100
AcDbSymbolTable
 70
     3
100
AcDbDimStyleTable
  0
DIMSTYLE
105
27
330
A
100
AcDbSymbolTableRecord
100
AcDbDimStyleTableRecord
  2
Standard
 70
     0
178
     0
340
11
  0
DIMSTYLE
105
122
102
{ACAD_REACTORS
330
121
102
}
330
A
100
AcDbSymbolTableRecord
100
AcDbDimStyleTableRecord
  2
SLDDIMSTYLE0
 70
     0
 41
0.15
 44
0.0
 45
0.000000001
 78
     4
 79
     1
140
0.125
147
0.03125
173
     1
178
     0
271
     2
272
     2
276
     2
284
    12
340
78
  0
DIMSTYLE
105
12E
102
{ACAD_REACTORS
330
12D
330
196
102
}
330
A
100
AcDbSymbolTableRecord
100
AcDbDimStyleTableRecord
  2
SLDDIMSTYLE1
 70
     0
 41
0.15
 44
0.0
 45
0.000000001
 78
    12
 79
     3
140
0.125
147
0.03125
173
     1
178
     0
271
     2
272
     2
276
     2
284
    12
340
78
  0
ENDTAB
  0
TABLE
  2
BLOCK_RECORD
  5
1
330
0
100
AcDbSymbolTable
 70
     5
  0
BLOCK_RECORD
  5
1F
330
1
100
AcDbSymbolTableRecord
100
AcDbBlockTableRecord
  2
*Model_Space
340
22
  0
BLOCK_RECORD
  5
1B
330
1
100
AcDbSymbolTableRecord
100
AcDbBlockTableRecord
  2
*Paper_Space
340
1E
  0
BLOCK_RECORD
  5
23
330
1
100
AcDbSymbolTableRecord
100
AcDbBlockTableRecord
  2
*Paper_Space0
340
26
  0
BLOCK_RECORD
  5
75
330
1
100
AcDbSymbolTableRecord
100
AcDbBlockTableRecord
  2
SW_NOTE_0
340
0
102
{BLKREFS
331
7C
102
}
  0
BLOCK_RECORD
  5
123
330
1
100
AcDbSymbolTableRecord
100
AcDbBlockTableRecord
  2
_D
340
0
  0
BLOCK_RECORD
  5
12F
330
1
100
AcDbSymbolTableRecord
100
AcDbBlockTableRecord
  2
_D_1
340
0
  0
BLOCK_RECORD
  5
197
330
1
100
AcDbSymbolTableRecord
100
AcDbBlockTableRecord
  2
_D_2
340
0
  0
ENDTAB
  0
ENDSEC
  0
SECTION
  2
BLOCKS
  0
BLOCK
  5
20
330
1F
100
AcDbEntity
  8
0
100
AcDbBlockBegin
  2
*Model_Space
 70
     0
 10
0.0
 20
0.0
 30
0.0
  3
*Model_Space
  1

  0
ENDBLK
  5
21
330
1F
100
AcDbEntity
  8
0
100
AcDbBlockEnd
  0
BLOCK
  5
1C
330
1B
100
AcDbEntity
 67
     1
  8
0
100
AcDbBlockBegin
  2
*Paper_Space
 70
     0
 10
0.0
 20
0.0
 30
0.0
  3
*Paper_Space
  1

  0
ENDBLK
  5
1D
330
1B
100
AcDbEntity
 67
     1
  8
0
100
AcDbBlockEnd
  0
BLOCK
  5
24
330
23
100
AcDbEntity
  8
0
100
AcDbBlockBegin
  2
*Paper_Space0
 70
     0
 10
0.0
 20
0.0
 30
0.0
  3
*Paper_Space0
  1

  0
ENDBLK
  5
25
330
23
100
AcDbEntity
  8
0
100
AcDbBlockEnd
  0
BLOCK
  5
76
330
75
100
AcDbEntity
  8
0
100
AcDbBlockBegin
  2
SW_NOTE_0
 70
     0
 10
0.0
 20
0.0
 30
0.0
  3
SW_NOTE_0
  1

  0
MTEXT
  5
79
330
75
100
AcDbEntity
  8
FORMAT
 62
     0
100
AcDbMText
 10
0.359375
 20
0.1611334675
 30
0.0
 40
0.125
 41
0.0
 71
     2
 72
     1
  1
LEVITON
  7
SLDTEXTSTYLE0
 73
     1
 44
1.0
  0
MTEXT
  5
7A
330
75
100
AcDbEntity
  8
FORMAT
 62
     0
100
AcDbMText
 10
0.3598523743
 20
-0.003236607
 30
0.0
 40
0.125
 41
0.0
 71
     2
 72
     1
  1
49605-APS
  7
SLDTEXTSTYLE0
 73
     1
 44
1.0
  0
MTEXT
  5
7B
330
75
100
AcDbEntity
  8
FORMAT
 62
     0
100
AcDbMText
 10
0.333723861
 20
-0.1676066816
 30
0.0
 40
0.125
 41
0.0
 71
     2
 72
     1
  1
BASIC POWER STRIP FOR USE INSIDE SMC
  7
SLDTEXTSTYLE0
 73
     1
 44
1.0
  0
ENDBLK
  5
77
330
75
100
AcDbEntity
  8
0
100
AcDbBlockEnd
  0
BLOCK
  5
124
330
123
100
AcDbEntity
  8
0
100
AcDbBlockBegin
  2
_D
 70
     0
 10
0.0
 20
0.0
 30
0.0
  3
_D
  1

  0
SOLID
  5
126
330
123
100
AcDbEntity
  8
FORMAT
 62
     7
100
AcDbTrace
 10
3.4011838355
 20
1.5835232227
 30
0.0
 11
3.5511838355
 21
1.5535232227
 31
0.0
 12
3.5511838355
 22
1.6135232227
 32
0.0
 13
3.5511838355
 23
1.6135232227
 33
0.0
  0
SOLID
  5
127
330
123
100
AcDbEntity
  8
FORMAT
 62
     7
100
AcDbTrace
 10
8.0011838355
 20
1.5835232227
 30
0.0
 11
7.8511838355
 21
1.6135232227
 31
0.0
 12
7.8511838355
 22
1.5535232227
 32
0.0
 13
7.8511838355
 23
1.5535232227
 33
0.0
  0
LINE
  5
128
330
123
100
AcDbEntity
  8
FORMAT
 62
     7
100
AcDbLine
 10
3.4011838355
 20
2.7135232227
 30
0.0
 11
3.4011838355
 21
1.5085232227
 31
0.0
  0
LINE
  5
129
330
123
100
AcDbEntity
  8
FORMAT
 62
     7
100
AcDbLine
 10
8.0011838355
 20
2.7135232227
 30
0.0
 11
8.0011838355
 21
1.5085232227
 31
0.0
  0
LINE
  5
12A
330
123
100
AcDbEntity
  8
FORMAT
 62
     7
100
AcDbLine
 10
3.4011838355
 20
1.5835232227
 30
0.0
 11
5.7489152337
 21
1.5835232227
 31
0.0
  0
LINE
  5
12B
330
123
100
AcDbEntity
  8
FORMAT
 62
     7
100
AcDbLine
 10
8.0011838355
 20
1.5835232227
 30
0.0
 11
6.0831166363
 21
1.5835232227
 31
0.0
  0
MTEXT
  5
12C
330
123
100
AcDbEntity
  8
FORMAT
 62
     7
100
AcDbMText
 10
5.7489152337
 20
1.6487365562
 30
0.0
 40
0.125
 41
0.0
 71
     1
 72
     1
  1
4.60
  7
SLDTEXTSTYLE0
 73
     1
 44
1.0
  0
ENDBLK
  5
125
330
123
100
AcDbEntity
  8
0
100
AcDbBlockEnd
  0
BLOCK
  5
130
330
12F
100
AcDbEntity
  8
0
100
AcDbBlockBegin
  2
_D_1
 70
     0
 10
0.0
 20
0.0
 30
0.0
  3
_D_1
  1

  0
SOLID
  5
132
330
12F
100
AcDbEntity
  8
FORMAT
 62
     7
100
AcDbTrace
 10
8.5460240355
 20
3.4435232227
 30
0.0
 11
8.5160240355
 21
3.2935232227
 31
0.0
 12
8.5760240355
 22
3.2935232227
 32
0.0
 13
8.5760240355
 23
3.2935232227
 33
0.0
  0
SOLID
  5
133
330
12F
100
AcDbEntity
  8
FORMAT
 62
     7
100
AcDbTrace
 10
8.5460240355
 20
2.0835232227
 30
0.0
 11
8.5760240355
 21
2.2335232227
 31
0.0
 12
8.5160240355
 22
2.2335232227
 32
0.0
 13
8.5160240355
 23
2.2335232227
 33
0.0
  0
LINE
  5
134
330
12F
100
AcDbEntity
  8
FORMAT
 62
     7
100
AcDbLine
 10
7.3711838355
 20
3.4435232227
 30
0.0
 11
8.6210240355
 21
3.4435232227
 31
0.0
  0
LINE
  5
135
330
12F
100
AcDbEntity
  8
FORMAT
 62
     7
100
AcDbLine
 10
7.3711838355
 20
2.0835232227
 30
0.0
 11
8.6210240355
 21
2.0835232227
 31
0.0
  0
LINE
  5
136
330
12F
100
AcDbEntity
  8
FORMAT
 62
     7
100
AcDbLine
 10
8.5460240355
 20
3.4435232227
 30
0.0
 11
8.5460240355
 21
2.8274965361
 31
0.0
  0
LINE
  5
137
330
12F
100
AcDbEntity
  8
FORMAT
 62
     7
100
AcDbLine
 10
8.5460240355
 20
2.0835232227
 30
0.0
 11
8.5460240355
 21
2.6356562589
 31
0.0
  0
MTEXT
  5
138
330
12F
100
AcDbEntity
  8
FORMAT
 62
     7
100
AcDbMText
 10
8.3789233342
 20
2.7967897309
 30
0.0
 40
0.125
 41
0.0
 71
     1
 72
     1
  1
1.36
  7
SLDTEXTSTYLE0
 73
     1
 44
1.0
  0
ENDBLK
  5
131
330
12F
100
AcDbEntity
  8
0
100
AcDbBlockEnd
  0
BLOCK
  5
198
330
197
100
AcDbEntity
  8
0
100
AcDbBlockBegin
  2
_D_2
 70
     0
 10
0.0
 20
0.0
 30
0.0
  3
_D_2
  1

  0
SOLID
  5
19A
330
197
100
AcDbEntity
  8
FORMAT
 62
     7
100
AcDbTrace
 10
11.2697507171
 20
1.5835232227
 30
0.0
 11
11.4197507171
 21
1.5535232227
 31
0.0
 12
11.4197507171
 22
1.6135232227
 32
0.0
 13
11.4197507171
 23
1.6135232227
 33
0.0
  0
SOLID
  5
19B
330
197
100
AcDbEntity
  8
FORMAT
 62
     7
100
AcDbTrace
 10
12.2522507171
 20
1.5835232227
 30
0.0
 11
12.1022507171
 21
1.6135232227
 31
0.0
 12
12.1022507171
 22
1.5535232227
 32
0.0
 13
12.1022507171
 23
1.5535232227
 33
0.0
  0
LINE
  5
19C
330
197
100
AcDbEntity
  8
FORMAT
 62
     7
100
AcDbLine
 10
11.2697507171
 20
2.2335232227
 30
0.0
 11
11.2697507171
 21
1.5085232227
 31
0.0
  0
LINE
  5
19D
330
197
100
AcDbEntity
  8
FORMAT
 62
     7
100
AcDbLine
 10
12.2522507171
 20
2.1335232227
 30
0.0
 11
12.2522507171
 21
1.5085232227
 31
0.0
  0
LINE
  5
19E
330
197
100
AcDbEntity
  8
FORMAT
 62
     7
100
AcDbLine
 10
11.2697507171
 20
1.5835232227
 30
0.0
 11
11.6416185717
 21
1.5835232227
 31
0.0
  0
LINE
  5
19F
330
197
100
AcDbEntity
  8
FORMAT
 62
     7
100
AcDbLine
 10
12.2522507171
 20
1.5835232227
 30
0.0
 11
11.880333854
 21
1.5835232227
 31
0.0
  0
MTEXT
  5
1A0
330
197
100
AcDbEntity
  8
FORMAT
 62
     7
100
AcDbMText
 10
11.6416185717
 20
1.6487365562
 30
0.0
 40
0.125
 41
0.0
 71
     1
 72
     1
  1
.98
  7
SLDTEXTSTYLE0
 73
     1
 44
1.0
  0
ENDBLK
  5
199
330
197
100
AcDbEntity
  8
0
100
AcDbBlockEnd
  0
ENDSEC
  0
SECTION
  2
ENTITIES
  0
INSERT
  5
7C
330
1F
100
AcDbEntity
  8
FORMAT
 62
     7
100
AcDbBlockReference
  2
SW_NOTE_0
 10
8.1345918098
 20
0.6751280508
 30
0.0
  0
LINE
  5
7D
330
1F
100
AcDbEntity
  8
0
  6
Continuous
 62
     7
370
    25
100
AcDbLine
 10
8.7011838355
 20
5.4510232227
 30
0.0
 11
2.7011838355
 21
5.4510232227
 31
0.0
  0
LINE
  5
7E
330
1F
100
AcDbEntity
  8
0
  6
Continuous
 62
     7
370
    25
100
AcDbLine
 10
2.7011838355
 20
5.0760232227
 30
0.0
 11
8.7011838355
 21
5.0760232227
 31
0.0
  0
LINE
  5
7F
330
1F
100
AcDbEntity
  8
0
  6
Continuous
 62
     7
370
    25
100
AcDbLine
 10
4.472213543
 20
3.8260232227
 30
0.0
 11
8.7011838355
 21
3.8260232227
 31
0.0
  0
LINE
  5
80
330
1F
100
AcDbEntity
  8
0
  6
Continuous
 62
     7
370
    25
100
AcDbLine
 10
8.7011838355
 20
4.2010232227
 30
0.0
 11
4.472213543
 21
4.2010232227
 31
0.0
  0
ARC
  5
81
330
1F
100
AcDbEntity
  8
0
  6
Continuous
 62
     7
370
    25
100
AcDbCircle
 10
2.7011838355
 20
4.0135232227
 30
0.0
 40
1.0625
100
AcDbArc
 50
180.0
 51
270.0
  0
ARC
  5
82
330
1F
100
AcDbEntity
  8
0
  6
Continuous
 62
     7
370
    25
100
AcDbCircle
 10
2.7011838355
 20
4.0135232227
 30
0.0
 40
1.0625
100
AcDbArc
 50
90.0
 51
180.0
  0
ARC
  5
83
330
1F
100
AcDbEntity
  8
0
  6
Continuous
 62
     7
370
    25
100
AcDbCircle
 10
2.7011838355
 20
4.0135232227
 30
0.0
 40
1.437500000000001
100
AcDbArc
 50
90.0
 51
270.0
  0
LINE
  5
84
330
1F
100
AcDbEntity
  8
0
  6
Continuous
 62
     7
370
    25
100
AcDbLine
 10
2.7011838355
 20
2.5760232227
 30
0.0
 11
3.4275449827
 21
2.5760232227
 31
0.0
  0
LINE
  5
85
330
1F
100
AcDbEntity
  8
0
  6
Continuous
 62
     7
370
    25
100
AcDbLine
 10
3.4268287118
 20
2.9510232227
 30
0.0
 11
2.7011838355
 21
2.9510232227
 31
0.0
  0
ARC
  5
86
330
1F
100
AcDbEntity
  8
0
  6
Continuous
 62
     7
370
    25
100
AcDbCircle
 10
8.7011838355
 20
4.6385232227
 30
0.0
 40
0.4375
100
AcDbArc
 50
270.0
 51
90.0
  0
ARC
  5
87
330
1F
100
AcDbEntity
  8
0
  6
Continuous
 62
     7
370
    25
100
AcDbCircle
 10
8.7011838355
 20
4.6385232227
 30
0.0
 40
0.8125
100
AcDbArc
 50
270.0
 51
0.0
  0
ARC
  5
88
330
1F
100
AcDbEntity
  8
0
  6
Continuous
 62
     7
370
    25
100
AcDbCircle
 10
8.7011838355
 20
4.6385232227
 30
0.0
 40
0.8125000000000009
100
AcDbArc
 50
0.0
 51
90.0
  0
ARC
  5
89
330
1F
100
AcDbEntity
  8
0
  6
Continuous
 62
     7
370
    25
100
AcDbCircle
 10
6.4211838355
 20
2.7635232227
 30
0.0
 40
0.0749999999999997
100
AcDbArc
 50
90.0
 51
270.0
  0
LINE
  5
8A
330
1F
100
AcDbEntity
  8
0
  6
Continuous
 62
     7
370
    25
100
AcDbLine
 10
6.4211838355
 20
2.6885232227
 30
0.0
 11
6.4211838355
 21
2.6685232227
 31
0.0
  0
ARC
  5
8B
330
1F
100
AcDbEntity
  8
0
  6
Continuous
 62
     7
370
    25
100
AcDbCircle
 10
6.4211838355
 20
2.7635232227
 30
0.0
 40
0.0950000000000002
100
AcDbArc
 50
90.0
 51
270.0
  0
LINE
  5
8C
330
1F
100
AcDbEntity
  8
0
  6
Continuous
 62
     7
370
    25
100
AcDbLine
 10
6.4211838355
 20
2.8385232227
 30
0.0
 11
6.4211838355
 21
2.8585232227
 31
0.0
  0
LINE
  5
8D
330
1F
100
AcDbEntity
  8
0
  6
Continuous
 62
     7
370
    25
100
AcDbLine
 10
6.5411838355
 20
2.8585232227
 30
0.0
 11
6.5411838355
 21
2.6685232227
 31
0.0
  0
LINE
  5
8E
330
1F
100
AcDbEntity
  8
0
  6
Continuous
 62
     7
370
    25
100
AcDbLine
 10
6.5411838355
 20
2.6685232227
 30
0.0
 11
6.5211838355
 21
2.6885232227
 31
0.0
  0
LINE
  5
8F
330
1F
100
AcDbEntity
  8
0
  6
Continuous
 62
     7
370
    25
100
AcDbLine
 10
6.5211838355
 20
2.6885232227
 30
0.0
 11
6.5211838355
 21
2.8385232227
 31
0.0
  0
LINE
  5
90
330
1F
100
AcDbEntity
  8
0
  6
Continuous
 62
     7
370
    25
100
AcDbLine
 10
6.5411838355
 20
2.8585232227
 30
0.0
 11
6.5211838355
 21
2.8385232227
 31
0.0
  0
LINE
  5
91
330
1F
100
AcDbEntity
  8
0
  6
Continuous
 62
     7
370
    25
100
AcDbLine
 10
6.4211838355
 20
2.6885232227
 30
0.0
 11
6.5211838355
 21
2.6885232227
 31
0.0
  0
LINE
  5
92
330
1F
100
AcDbEntity
  8
0
  6
Continuous
 62
     7
370
    25
100
AcDbLine
 10
6.5411838355
 20
2.6685232227
 30
0.0
 11
6.4211838355
 21
2.6685232227
 31
0.0
  0
LINE
  5
93
330
1F
100
AcDbEntity
  8
0
  6
Continuous
 62
     7
370
    25
100
AcDbLine
 10
7.2961838355
 20
2.9510232227
 30
0.0
 11
7.2961838355
 21
3.0510232227
 31
0.0
  0
LINE
  5
94
330
1F
100
AcDbEntity
  8
0
  6
Continuous
 62
     7
370
    25
100
AcDbLine
 10
7.2961838355
 20
3.0510232227
 30
0.0
 11
7.3161838355
 21
3.0710232227
 31
0.0
  0
LINE
  5
95
330
1F
100
AcDbEntity
  8
0
  6
Continuous
 62
     7
370
    25
100
AcDbLine
 10
7.3161838355
 20
3.0710232227
 30
0.0
 11
7.3161838355
 21
2.9310232227
 31
0.0
  0
LINE
  5
96
330
1F
100
AcDbEntity
  8
0
  6
Continuous
 62
     7
370
    25
100
AcDbLine
 10
7.3161838355
 20
2.9310232227
 30
0.0
 11
7.2961838355
 21
2.9510232227
 31
0.0
  0
LINE
  5
97
330
1F
100
AcDbEntity
  8
0
  6
Continuous
 62
     7
370
    25
100
AcDbLine
 10
7.2961838355
 20
3.0510232227
 30
0.0
 11
7.0461838355
 21
3.0510232227
 31
0.0
  0
LINE
  5
98
330
1F
100
AcDbEntity
  8
0
  6
Continuous
 62
     7
370
    25
100
AcDbLine
 10
7.0461838355
 20
3.0510232227
 30
0.0
 11
7.0261838355
 21
3.0710232227
 31
0.0
  0
LINE
  5
99
330
1F
100
AcDbEntity
  8
0
  6
Continuous
 62
     7
370
    25
100
AcDbLine
 10
7.0261838355
 20
3.0710232227
 30
0.0
 11
7.3161838355
 21
3.0710232227
 31
0.0
  0
LINE
  5
9A
330
1F
100
AcDbEntity
  8
0
  6
Continuous
 62
     7
370
    25
100
AcDbLine
 10
7.3161838355
 20
2.9310232227
 30
0.0
 11
7.0261838355
 21
2.9310232227
 31
0.0
  0
LINE
  5
9B
330
1F
100
AcDbEntity
  8
0
  6
Continuous
 62
     7
370
    25
100
AcDbLine
 10
7.0261838355
 20
2.9310232227
 30
0.0
 11
7.0461838355
 21
2.9510232227
 31
0.0
  0
LINE
  5
9C
330
1F
100
AcDbEntity
  8
0
  6
Continuous
 62
     7
370
    25
100
AcDbLine
 10
7.0461838355
 20
2.9510232227
 30
0.0
 11
7.2961838355
 21
2.9510232227
 31
0.0
  0
CIRCLE
  5
9D
330
1F
100
AcDbEntity
  8
0
  6
Continuous
 62
     7
370
    25
100
AcDbCircle
 10
6.0711838355
 20
2.7635232227
 30
0.0
 40
0.4799999999999995
  0
LINE
  5
9E
330
1F
100
AcDbEntity
  8
0
  6
Continuous
 62
     7
370
    25
100
AcDbLine
 10
6.4211838355
 20
2.8585232227
 30
0.0
 11
6.5411838355
 21
2.8585232227
 31
0.0
  0
LINE
  5
9F
330
1F
100
AcDbEntity
  8
0
  6
Continuous
 62
     7
370
    25
100
AcDbLine
 10
6.1286838355
 20
2.4560232227
 30
0.0
 11
5.7136838355
 21
2.4560232227
 31
0.0
  0
LINE
  5
A0
330
1F
100
AcDbEntity
  8
0
  6
Continuous
 62
     7
370
    25
100
AcDbLine
 10
6.1286838355
 20
2.5960232227
 30
0.0
 11
6.1286838355
 21
2.4560232227
 31
0.0
  0
LINE
  5
A1
330
1F
100
AcDbEntity
  8
0
  6
Continuous
 62
     7
370
    25
100
AcDbLine
 10
5.7136838355
 20
2.5960232227
 30
0.0
 11
6.1286838355
 21
2.5960232227
 31
0.0
  0
LINE
  5
A2
330
1F
100
AcDbEntity
  8
0
  6
Continuous
 62
     7
370
    25
100
AcDbLine
 10
5.7136838355
 20
2.4560232227
 30
0.0
 11
5.7136838355
 21
2.5960232227
 31
0.0
  0
LINE
  5
A3
330
1F
100
AcDbEntity
  8
0
  6
Continuous
 62
     7
370
    25
100
AcDbLine
 10
6.0661838355
 20
3.0710232227
 30
0.0
 11
6.0661838355
 21
2.9310232227
 31
0.0
  0
LINE
  5
A4
330
1F
100
AcDbEntity
  8
0
  6
Continuous
 62
     7
370
    25
100
AcDbLine
 10
5.7761838355
 20
3.0710232227
 30
0.0
 11
6.0661838355
 21
3.0710232227
 31
0.0
  0
LINE
  5
A5
330
1F
100
AcDbEntity
  8
0
  6
Continuous
 62
     7
370
    25
100
AcDbLine
 10
5.7761838355
 20
2.9310232227
 30
0.0
 11
5.7761838355
 21
3.0710232227
 31
0.0
  0
LINE
  5
A6
330
1F
100
AcDbEntity
  8
0
  6
Continuous
 62
     7
370
    25
100
AcDbLine
 10
6.0661838355
 20
2.9310232227
 30
0.0
 11
5.7761838355
 21
2.9310232227
 31
0.0
  0
CIRCLE
  5
A7
330
1F
100
AcDbEntity
  8
0
  6
Continuous
 62
     7
370
    25
100
AcDbCircle
 10
4.8211838355
 20
2.7635232227
 30
0.0
 40
0.4800000000000004
  0
LINE
  5
A8
330
1F
100
AcDbEntity
  8
0
  6
Continuous
 62
     7
370
    25
100
AcDbLine
 10
4.8786838355
 20
2.4560232227
 30
0.0
 11
4.4636838355
 21
2.4560232227
 31
0.0
  0
LINE
  5
A9
330
1F
100
AcDbEntity
  8
0
  6
Continuous
 62
     7
370
    25
100
AcDbLine
 10
4.8786838355
 20
2.5960232227
 30
0.0
 11
4.8786838355
 21
2.4560232227
 31
0.0
  0
LINE
  5
AA
330
1F
100
AcDbEntity
  8
0
  6
Continuous
 62
     7
370
    25
100
AcDbLine
 10
4.4636838355
 20
2.5960232227
 30
0.0
 11
4.8786838355
 21
2.5960232227
 31
0.0
  0
LINE
  5
AB
330
1F
100
AcDbEntity
  8
0
  6
Continuous
 62
     7
370
    25
100
AcDbLine
 10
4.4636838355
 20
2.4560232227
 30
0.0
 11
4.4636838355
 21
2.5960232227
 31
0.0
  0
LINE
  5
AC
330
1F
100
AcDbEntity
  8
0
  6
Continuous
 62
     7
370
    25
100
AcDbLine
 10
5.1711838355
 20
2.8585232227
 30
0.0
 11
5.2911838355
 21
2.8585232227
 31
0.0
  0
ARC
  5
AD
330
1F
100
AcDbEntity
  8
0
  6
Continuous
 62
     7
370
    25
100
AcDbCircle
 10
5.1711838355
 20
2.7635232227
 30
0.0
 40
0.0950000000000002
100
AcDbArc
 50
90.0
 51
270.0
  0
LINE
  5
AE
330
1F
100
AcDbEntity
  8
0
  6
Continuous
 62
     7
370
    25
100
AcDbLine
 10
5.2911838355
 20
2.6685232227
 30
0.0
 11
5.1711838355
 21
2.6685232227
 31
0.0
  0
LINE
  5
AF
330
1F
100
AcDbEntity
  8
0
  6
Continuous
 62
     7
370
    25
100
AcDbLine
 10
5.2911838355
 20
2.8585232227
 30
0.0
 11
5.2911838355
 21
2.6685232227
 31
0.0
  0
LINE
  5
B0
330
1F
100
AcDbEntity
  8
0
  6
Continuous
 62
     7
370
    25
100
AcDbLine
 10
4.8161838355
 20
3.0710232227
 30
0.0
 11
4.8161838355
 21
2.9310232227
 31
0.0
  0
LINE
  5
B1
330
1F
100
AcDbEntity
  8
0
  6
Continuous
 62
     7
370
    25
100
AcDbLine
 10
4.5261838355
 20
3.0710232227
 30
0.0
 11
4.8161838355
 21
3.0710232227
 31
0.0
  0
LINE
  5
B2
330
1F
100
AcDbEntity
  8
0
  6
Continuous
 62
     7
370
    25
100
AcDbLine
 10
4.5261838355
 20
2.9310232227
 30
0.0
 11
4.5261838355
 21
3.0710232227
 31
0.0
  0
LINE
  5
B3
330
1F
100
AcDbEntity
  8
0
  6
Continuous
 62
     7
370
    25
100
AcDbLine
 10
4.8161838355
 20
2.9310232227
 30
0.0
 11
4.5261838355
 21
2.9310232227
 31
0.0
  0
CIRCLE
  5
B4
330
1F
100
AcDbEntity
  8
0
  6
Continuous
 62
     7
370
    25
100
AcDbCircle
 10
7.3211838355
 20
2.7635232227
 30
0.0
 40
0.4799999999999995
  0
LINE
  5
B5
330
1F
100
AcDbEntity
  8
0
  6
Continuous
 62
     7
370
    25
100
AcDbLine
 10
7.6711838355
 20
2.8585232227
 30
0.0
 11
7.7911838355
 21
2.8585232227
 31
0.0
  0
ARC
  5
B6
330
1F
100
AcDbEntity
  8
0
  6
Continuous
 62
     7
370
    25
100
AcDbCircle
 10
7.6711838355
 20
2.7635232227
 30
0.0
 40
0.0950000000000002
100
AcDbArc
 50
90.0
 51
270.0
  0
LINE
  5
B7
330
1F
100
AcDbEntity
  8
0
  6
Continuous
 62
     7
370
    25
100
AcDbLine
 10
7.7911838355
 20
2.6685232227
 30
0.0
 11
7.6711838355
 21
2.6685232227
 31
0.0
  0
LINE
  5
B8
330
1F
100
AcDbEntity
  8
0
  6
Continuous
 62
     7
370
    25
100
AcDbLine
 10
7.7911838355
 20
2.8585232227
 30
0.0
 11
7.7911838355
 21
2.6685232227
 31
0.0
  0
LINE
  5
B9
330
1F
100
AcDbEntity
  8
0
  6
Continuous
 62
     7
370
    25
100
AcDbLine
 10
7.3786838355
 20
2.4560232227
 30
0.0
 11
6.9636838355
 21
2.4560232227
 31
0.0
  0
LINE
  5
BA
330
1F
100
AcDbEntity
  8
0
  6
Continuous
 62
     7
370
    25
100
AcDbLine
 10
7.3786838355
 20
2.5960232227
 30
0.0
 11
7.3786838355
 21
2.4560232227
 31
0.0
  0
LINE
  5
BB
330
1F
100
AcDbEntity
  8
0
  6
Continuous
 62
     7
370
    25
100
AcDbLine
 10
6.9636838355
 20
2.5960232227
 30
0.0
 11
7.3786838355
 21
2.5960232227
 31
0.0
  0
LINE
  5
BC
330
1F
100
AcDbEntity
  8
0
  6
Continuous
 62
     7
370
    25
100
AcDbLine
 10
6.9636838355
 20
2.4560232227
 30
0.0
 11
6.9636838355
 21
2.5960232227
 31
0.0
  0
LINE
  5
BD
330
1F
100
AcDbEntity
  8
0
  6
Continuous
 62
     7
370
    25
100
AcDbLine
 10
7.0261838355
 20
2.9310232227
 30
0.0
 11
7.0261838355
 21
3.0710232227
 31
0.0
  0
LINE
  5
BE
330
1F
100
AcDbEntity
  8
0
  6
Continuous
 62
     7
370
    25
100
AcDbLine
 10
6.0461838355
 20
2.9510232227
 30
0.0
 11
6.0461838355
 21
3.0510232227
 31
0.0
  0
LINE
  5
BF
330
1F
100
AcDbEntity
  8
0
  6
Continuous
 62
     7
370
    25
100
AcDbLine
 10
6.0461838355
 20
3.0510232227
 30
0.0
 11
6.0661838355
 21
3.0710232227
 31
0.0
  0
LINE
  5
C0
330
1F
100
AcDbEntity
  8
0
  6
Continuous
 62
     7
370
    25
100
AcDbLine
 10
6.0661838355
 20
2.9310232227
 30
0.0
 11
6.0461838355
 21
2.9510232227
 31
0.0
  0
LINE
  5
C1
330
1F
100
AcDbEntity
  8
0
  6
Continuous
 62
     7
370
    25
100
AcDbLine
 10
6.0461838355
 20
3.0510232227
 30
0.0
 11
5.7961838355
 21
3.0510232227
 31
0.0
  0
LINE
  5
C2
330
1F
100
AcDbEntity
  8
0
  6
Continuous
 62
     7
370
    25
100
AcDbLine
 10
5.7961838355
 20
3.0510232227
 30
0.0
 11
5.7761838355
 21
3.0710232227
 31
0.0
  0
LINE
  5
C3
330
1F
100
AcDbEntity
  8
0
  6
Continuous
 62
     7
370
    25
100
AcDbLine
 10
5.7761838355
 20
2.9310232227
 30
0.0
 11
5.7961838355
 21
2.9510232227
 31
0.0
  0
LINE
  5
C4
330
1F
100
AcDbEntity
  8
0
  6
Continuous
 62
     7
370
    25
100
AcDbLine
 10
5.7961838355
 20
2.9510232227
 30
0.0
 11
6.0461838355
 21
2.9510232227
 31
0.0
  0
LINE
  5
C5
330
1F
100
AcDbEntity
  8
0
  6
Continuous
 62
     7
370
    25
100
AcDbLine
 10
5.7961838355
 20
3.0510232227
 30
0.0
 11
5.7961838355
 21
2.9510232227
 31
0.0
  0
LINE
  5
C6
330
1F
100
AcDbEntity
  8
0
  6
Continuous
 62
     7
370
    25
100
AcDbLine
 10
5.7336838355
 20
2.4760232227
 30
0.0
 11
6.1086838355
 21
2.4760232227
 31
0.0
  0
LINE
  5
C7
330
1F
100
AcDbEntity
  8
0
  6
Continuous
 62
     7
370
    25
100
AcDbLine
 10
6.1086838355
 20
2.4760232227
 30
0.0
 11
6.1286838355
 21
2.4560232227
 31
0.0
  0
LINE
  5
C8
330
1F
100
AcDbEntity
  8
0
  6
Continuous
 62
     7
370
    25
100
AcDbLine
 10
5.7136838355
 20
2.4560232227
 30
0.0
 11
5.7336838355
 21
2.4760232227
 31
0.0
  0
LINE
  5
C9
330
1F
100
AcDbEntity
  8
0
  6
Continuous
 62
     7
370
    25
100
AcDbLine
 10
6.1086838355
 20
2.4760232227
 30
0.0
 11
6.1086838355
 21
2.5760232227
 31
0.0
  0
LINE
  5
CA
330
1F
100
AcDbEntity
  8
0
  6
Continuous
 62
     7
370
    25
100
AcDbLine
 10
6.1086838355
 20
2.5760232227
 30
0.0
 11
6.1286838355
 21
2.5960232227
 31
0.0
  0
LINE
  5
CB
330
1F
100
AcDbEntity
  8
0
  6
Continuous
 62
     7
370
    25
100
AcDbLine
 10
5.7136838355
 20
2.5960232227
 30
0.0
 11
5.7336838355
 21
2.5760232227
 31
0.0
  0
LINE
  5
CC
330
1F
100
AcDbEntity
  8
0
  6
Continuous
 62
     7
370
    25
100
AcDbLine
 10
5.7336838355
 20
2.5760232227
 30
0.0
 11
5.7336838355
 21
2.4760232227
 31
0.0
  0
LINE
  5
CD
330
1F
100
AcDbEntity
  8
0
  6
Continuous
 62
     7
370
    25
100
AcDbLine
 10
6.1086838355
 20
2.5760232227
 30
0.0
 11
5.7336838355
 21
2.5760232227
 31
0.0
  0
LINE
  5
CE
330
1F
100
AcDbEntity
  8
0
  6
Continuous
 62
     7
370
    25
100
AcDbLine
 10
6.5211838355
 20
2.8385232227
 30
0.0
 11
6.4211838355
 21
2.8385232227
 31
0.0
  0
LINE
  5
CF
330
1F
100
AcDbEntity
  8
0
  6
Continuous
 62
     7
370
    25
100
AcDbLine
 10
5.2911838355
 20
2.6685232227
 30
0.0
 11
5.2711838355
 21
2.6885232227
 31
0.0
  0
LINE
  5
D0
330
1F
100
AcDbEntity
  8
0
  6
Continuous
 62
     7
370
    25
100
AcDbLine
 10
5.2711838355
 20
2.6885232227
 30
0.0
 11
5.2711838355
 21
2.8385232227
 31
0.0
  0
LINE
  5
D1
330
1F
100
AcDbEntity
  8
0
  6
Continuous
 62
     7
370
    25
100
AcDbLine
 10
5.2911838355
 20
2.8585232227
 30
0.0
 11
5.2711838355
 21
2.8385232227
 31
0.0
  0
LINE
  5
D2
330
1F
100
AcDbEntity
  8
0
  6
Continuous
 62
     7
370
    25
100
AcDbLine
 10
5.1711838355
 20
2.6885232227
 30
0.0
 11
5.2711838355
 21
2.6885232227
 31
0.0
  0
LINE
  5
D3
330
1F
100
AcDbEntity
  8
0
  6
Continuous
 62
     7
370
    25
100
AcDbLine
 10
5.1711838355
 20
2.6885232227
 30
0.0
 11
5.1711838355
 21
2.6685232227
 31
0.0
  0
CIRCLE
  5
D4
330
1F
100
AcDbEntity
  8
0
  6
Continuous
 62
     7
370
    25
100
AcDbCircle
 10
6.0711838355
 20
2.7635232227
 30
0.0
 40
0.4999999999999991
  0
LINE
  5
D5
330
1F
100
AcDbEntity
  8
0
  6
Continuous
 62
     7
370
    25
100
AcDbLine
 10
4.7961838355
 20
2.9510232227
 30
0.0
 11
4.7961838355
 21
3.0510232227
 31
0.0
  0
LINE
  5
D6
330
1F
100
AcDbEntity
  8
0
  6
Continuous
 62
     7
370
    25
100
AcDbLine
 10
4.7961838355
 20
3.0510232227
 30
0.0
 11
4.8161838355
 21
3.0710232227
 31
0.0
  0
LINE
  5
D7
330
1F
100
AcDbEntity
  8
0
  6
Continuous
 62
     7
370
    25
100
AcDbLine
 10
4.8161838355
 20
2.9310232227
 30
0.0
 11
4.7961838355
 21
2.9510232227
 31
0.0
  0
LINE
  5
D8
330
1F
100
AcDbEntity
  8
0
  6
Continuous
 62
     7
370
    25
100
AcDbLine
 10
4.7961838355
 20
3.0510232227
 30
0.0
 11
4.5461838355
 21
3.0510232227
 31
0.0
  0
LINE
  5
D9
330
1F
100
AcDbEntity
  8
0
  6
Continuous
 62
     7
370
    25
100
AcDbLine
 10
4.5461838355
 20
3.0510232227
 30
0.0
 11
4.5261838355
 21
3.0710232227
 31
0.0
  0
LINE
  5
DA
330
1F
100
AcDbEntity
  8
0
  6
Continuous
 62
     7
370
    25
100
AcDbLine
 10
4.5261838355
 20
2.9310232227
 30
0.0
 11
4.5461838355
 21
2.9510232227
 31
0.0
  0
LINE
  5
DB
330
1F
100
AcDbEntity
  8
0
  6
Continuous
 62
     7
370
    25
100
AcDbLine
 10
4.5461838355
 20
2.9510232227
 30
0.0
 11
4.7961838355
 21
2.9510232227
 31
0.0
  0
CIRCLE
  5
DC
330
1F
100
AcDbEntity
  8
0
  6
Continuous
 62
     7
370
    25
100
AcDbCircle
 10
7.3211838355
 20
2.7635232227
 30
0.0
 40
0.4999999999999991
  0
LINE
  5
DD
330
1F
100
AcDbEntity
  8
0
  6
Continuous
 62
     7
370
    25
100
AcDbLine
 10
5.2711838355
 20
2.8385232227
 30
0.0
 11
5.1711838355
 21
2.8385232227
 31
0.0
  0
LINE
  5
DE
330
1F
100
AcDbEntity
  8
0
  6
Continuous
 62
     7
370
    25
100
AcDbLine
 10
5.1711838355
 20
2.8385232227
 30
0.0
 11
5.1711838355
 21
2.8585232227
 31
0.0
  0
ARC
  5
DF
330
1F
100
AcDbEntity
  8
0
  6
Continuous
 62
     7
370
    25
100
AcDbCircle
 10
5.1711838355
 20
2.7635232227
 30
0.0
 40
0.0749999999999997
100
AcDbArc
 50
90.0
 51
270.0
  0
LINE
  5
E0
330
1F
100
AcDbEntity
  8
0
  6
Continuous
 62
     7
370
    25
100
AcDbLine
 10
7.3586838355
 20
2.4760232227
 30
0.0
 11
7.3586838355
 21
2.5760232227
 31
0.0
  0
LINE
  5
E1
330
1F
100
AcDbEntity
  8
0
  6
Continuous
 62
     7
370
    25
100
AcDbLine
 10
7.3586838355
 20
2.5760232227
 30
0.0
 11
7.3786838355
 21
2.5960232227
 31
0.0
  0
LINE
  5
E2
330
1F
100
AcDbEntity
  8
0
  6
Continuous
 62
     7
370
    25
100
AcDbLine
 10
7.3586838355
 20
2.4760232227
 30
0.0
 11
7.3786838355
 21
2.4560232227
 31
0.0
  0
LINE
  5
E3
330
1F
100
AcDbEntity
  8
0
  6
Continuous
 62
     7
370
    25
100
AcDbLine
 10
6.9636838355
 20
2.5960232227
 30
0.0
 11
6.9836838355
 21
2.5760232227
 31
0.0
  0
LINE
  5
E4
330
1F
100
AcDbEntity
  8
0
  6
Continuous
 62
     7
370
    25
100
AcDbLine
 10
6.9836838355
 20
2.5760232227
 30
0.0
 11
6.9836838355
 21
2.4760232227
 31
0.0
  0
LINE
  5
E5
330
1F
100
AcDbEntity
  8
0
  6
Continuous
 62
     7
370
    25
100
AcDbLine
 10
6.9636838355
 20
2.4560232227
 30
0.0
 11
6.9836838355
 21
2.4760232227
 31
0.0
  0
LINE
  5
E6
330
1F
100
AcDbEntity
  8
0
  6
Continuous
 62
     7
370
    25
100
AcDbLine
 10
4.4836838355
 20
2.4760232227
 30
0.0
 11
4.8586838355
 21
2.4760232227
 31
0.0
  0
LINE
  5
E7
330
1F
100
AcDbEntity
  8
0
  6
Continuous
 62
     7
370
    25
100
AcDbLine
 10
4.8586838355
 20
2.4760232227
 30
0.0
 11
4.8786838355
 21
2.4560232227
 31
0.0
  0
LINE
  5
E8
330
1F
100
AcDbEntity
  8
0
  6
Continuous
 62
     7
370
    25
100
AcDbLine
 10
4.4636838355
 20
2.4560232227
 30
0.0
 11
4.4836838355
 21
2.4760232227
 31
0.0
  0
LINE
  5
E9
330
1F
100
AcDbEntity
  8
0
  6
Continuous
 62
     7
370
    25
100
AcDbLine
 10
4.8586838355
 20
2.4760232227
 30
0.0
 11
4.8586838355
 21
2.5760232227
 31
0.0
  0
LINE
  5
EA
330
1F
100
AcDbEntity
  8
0
  6
Continuous
 62
     7
370
    25
100
AcDbLine
 10
4.8586838355
 20
2.5760232227
 30
0.0
 11
4.8786838355
 21
2.5960232227
 31
0.0
  0
LINE
  5
EB
330
1F
100
AcDbEntity
  8
0
  6
Continuous
 62
     7
370
    25
100
AcDbLine
 10
4.4636838355
 20
2.5960232227
 30
0.0
 11
4.4836838355
 21
2.5760232227
 31
0.0
  0
LINE
  5
EC
330
1F
100
AcDbEntity
  8
0
  6
Continuous
 62
     7
370
    25
100
AcDbLine
 10
4.4836838355
 20
2.5760232227
 30
0.0
 11
4.4836838355
 21
2.4760232227
 31
0.0
  0
LINE
  5
ED
330
1F
100
AcDbEntity
  8
0
  6
Continuous
 62
     7
370
    25
100
AcDbLine
 10
4.8586838355
 20
2.5760232227
 30
0.0
 11
4.4836838355
 21
2.5760232227
 31
0.0
  0
LINE
  5
EE
330
1F
100
AcDbEntity
  8
0
  6
Continuous
 62
     7
370
    25
100
AcDbLine
 10
7.6711838355
 20
2.6885232227
 30
0.0
 11
7.7711838355
 21
2.6885232227
 31
0.0
  0
LINE
  5
EF
330
1F
100
AcDbEntity
  8
0
  6
Continuous
 62
     7
370
    25
100
AcDbLine
 10
7.7911838355
 20
2.6685232227
 30
0.0
 11
7.7711838355
 21
2.6885232227
 31
0.0
  0
LINE
  5
F0
330
1F
100
AcDbEntity
  8
0
  6
Continuous
 62
     7
370
    25
100
AcDbLine
 10
7.6711838355
 20
2.6885232227
 30
0.0
 11
7.6711838355
 21
2.6685232227
 31
0.0
  0
LINE
  5
F1
330
1F
100
AcDbEntity
  8
0
  6
Continuous
 62
     7
370
    25
100
AcDbLine
 10
7.0461838355
 20
3.0510232227
 30
0.0
 11
7.0461838355
 21
2.9510232227
 31
0.0
  0
LINE
  5
F2
330
1F
100
AcDbEntity
  8
0
  6
Continuous
 62
     7
370
    25
100
AcDbLine
 10
6.9836838355
 20
2.4760232227
 30
0.0
 11
7.3586838355
 21
2.4760232227
 31
0.0
  0
ARC
  5
F3
330
1F
100
AcDbEntity
  8
0
  6
Continuous
 62
     7
370
    25
100
AcDbCircle
 10
7.6711838355
 20
2.7635232227
 30
0.0
 40
0.0750000000000002
100
AcDbArc
 50
90.0
 51
270.0
  0
LINE
  5
F4
330
1F
100
AcDbEntity
  8
0
  6
Continuous
 62
     7
370
    25
100
AcDbLine
 10
7.6711838355
 20
2.8385232227
 30
0.0
 11
7.6711838355
 21
2.8585232227
 31
0.0
  0
LINE
  5
F5
330
1F
100
AcDbEntity
  8
0
  6
Continuous
 62
     7
370
    25
100
AcDbLine
 10
7.7711838355
 20
2.6885232227
 30
0.0
 11
7.7711838355
 21
2.8385232227
 31
0.0
  0
LINE
  5
F6
330
1F
100
AcDbEntity
  8
0
  6
Continuous
 62
     7
370
    25
100
AcDbLine
 10
7.7911838355
 20
2.8585232227
 30
0.0
 11
7.7711838355
 21
2.8385232227
 31
0.0
  0
LINE
  5
F7
330
1F
100
AcDbEntity
  8
0
  6
Continuous
 62
     7
370
    25
100
AcDbLine
 10
7.3586838355
 20
2.5760232227
 30
0.0
 11
6.9836838355
 21
2.5760232227
 31
0.0
  0
CIRCLE
  5
F8
330
1F
100
AcDbEntity
  8
0
  6
Continuous
 62
     7
370
    25
100
AcDbCircle
 10
4.8211838355
 20
2.7635232227
 30
0.0
 40
0.5000000000000009
  0
LINE
  5
F9
330
1F
100
AcDbEntity
  8
0
  6
Continuous
 62
     7
370
    25
100
AcDbLine
 10
4.5461838355
 20
3.0510232227
 30
0.0
 11
4.5461838355
 21
2.9510232227
 31
0.0
  0
LINE
  5
FA
330
1F
100
AcDbEntity
  8
0
  6
Continuous
 62
     7
370
    25
100
AcDbLine
 10
7.7711838355
 20
2.8385232227
 30
0.0
 11
7.6711838355
 21
2.8385232227
 31
0.0
  0
CIRCLE
  5
FB
330
1F
100
AcDbEntity
  8
0
  6
Continuous
 62
     7
370
    25
100
AcDbCircle
 10
4.8211838355
 20
2.7635232227
 30
0.0
 40
0.5200000000000005
  0
CIRCLE
  5
FC
330
1F
100
AcDbEntity
  8
0
  6
Continuous
 62
     7
370
    25
100
AcDbCircle
 10
6.0711838355
 20
2.7635232227
 30
0.0
 40
0.5199999999999996
  0
CIRCLE
  5
FD
330
1F
100
AcDbEntity
  8
0
  6
Continuous
 62
     7
370
    25
100
AcDbCircle
 10
7.3211838355
 20
2.7635232227
 30
0.0
 40
0.5199999999999996
  0
LINE
  5
FE
330
1F
100
AcDbEntity
  8
0
  6
Continuous
 62
     7
370
    25
100
AcDbLine
 10
4.0811838355
 20
3.4435232227
 30
0.0
 11
7.3211838355
 21
3.4435232227
 31
0.0
  0
LINE
  5
FF
330
1F
100
AcDbEntity
  8
0
  6
Continuous
 62
     7
370
    25
100
AcDbLine
 10
7.3211838355
 20
3.3435232227
 30
0.0
 11
7.3211838355
 21
3.4435232227
 31
0.0
  0
LINE
  5
100
330
1F
100
AcDbEntity
  8
0
  6
Continuous
 62
     7
370
    25
100
AcDbLine
 10
7.3211838355
 20
3.3435232227
 30
0.0
 11
4.0811838355
 21
3.3435232227
 31
0.0
  0
LINE
  5
101
330
1F
100
AcDbEntity
  8
0
  6
Continuous
 62
     7
370
    25
100
AcDbLine
 10
4.0811838355
 20
3.4435232227
 30
0.0
 11
4.0811838355
 21
3.3435232227
 31
0.0
  0
LINE
  5
102
330
1F
100
AcDbEntity
  8
0
  6
Continuous
 62
     7
370
    25
100
AcDbLine
 10
7.3211838355
 20
2.0835232227
 30
0.0
 11
4.0811838355
 21
2.0835232227
 31
0.0
  0
LINE
  5
103
330
1F
100
AcDbEntity
  8
0
  6
Continuous
 62
     7
370
    25
100
AcDbLine
 10
4.0811838355
 20
2.0835232227
 30
0.0
 11
4.0811838355
 21
2.1835232227
 31
0.0
  0
LINE
  5
104
330
1F
100
AcDbEntity
  8
0
  6
Continuous
 62
     7
370
    25
100
AcDbLine
 10
4.0811838355
 20
2.1835232227
 30
0.0
 11
7.3211838355
 21
2.1835232227
 31
0.0
  0
LINE
  5
105
330
1F
100
AcDbEntity
  8
0
  6
Continuous
 62
     7
370
    25
100
AcDbLine
 10
7.3211838355
 20
2.1835232227
 30
0.0
 11
7.3211838355
 21
2.0835232227
 31
0.0
  0
ARC
  5
106
330
1F
100
AcDbEntity
  8
0
  6
Continuous
 62
     7
370
    25
100
AcDbCircle
 10
4.0811838355
 20
2.7635232227
 30
0.0
 40
0.5800000000000001
100
AcDbArc
 50
90.0
 51
270.0
  0
ARC
  5
107
330
1F
100
AcDbEntity
  8
0
  6
Continuous
 62
     7
370
    25
100
AcDbCircle
 10
7.3211838355
 20
2.7635232227
 30
0.0
 40
0.5800000000000005
100
AcDbArc
 50
270.0
 51
90.0
  0
ARC
  5
108
330
1F
100
AcDbEntity
  8
0
  6
Continuous
 62
     7
370
    25
100
AcDbCircle
 10
7.3211838355
 20
2.7635232227
 30
0.0
 40
0.6800000000000006
100
AcDbArc
 50
270.0
 51
90.0
  0
ARC
  5
109
330
1F
100
AcDbEntity
  8
0
  6
Continuous
 62
     7
370
    25
100
AcDbCircle
 10
4.0811838355
 20
2.7635232227
 30
0.0
 40
0.6800000000000006
100
AcDbArc
 50
90.0
 51
270.0
  0
CIRCLE
  5
10A
330
1F
100
AcDbEntity
  8
0
  6
Continuous
 62
     7
370
    25
100
AcDbCircle
 10
3.222213543
 20
4.0135232227
 30
0.0
 40
0.4700000000000002
  0
SPLINE
  5
10B
330
1F
100
AcDbEntity
  8
0
  6
Continuous
 62
     7
370
    25
100
AcDbSpline
210
0.0
220
0.0
230
1.0
 70
     8
 71
     3
 72
     8
 73
     4
 74
     0
 42
0.000000001
 43
0.00000001
 40
0.0
 40
0.0
 40
0.0
 40
0.0
 40
1.0
 40
1.0
 40
1.0
 40
1.0
 10
3.584689393366166
 20
4.35731361357776
 30
0.0
 10
3.566639322597212
 20
4.37634472941469
 30
0.0
 10
3.547478114098668
 20
4.394157107749631
 30
0.0
 10
3.526810898452326
 20
4.410033564352348
 30
0.0
  0
ARC
  5
10C
330
1F
100
AcDbEntity
  8
0
  6
Continuous
 62
     7
370
    25
100
AcDbCircle
 10
3.222213543
 20
4.0135232227
 30
0.0
 40
0.4995803989154985
100
AcDbArc
 50
316.5155025439
 51
43.4844974561
  0
SPLINE
  5
10D
330
1F
100
AcDbEntity
  8
0
  6
Continuous
 62
     7
370
    25
100
AcDbSpline
210
0.0
220
0.0
230
1.0
 70
     8
 71
     3
 72
     8
 73
     4
 74
     0
 42
0.000000001
 43
0.00000001
 40
0.0
 40
0.0
 40
0.0
 40
0.0
 40
1.0
 40
1.0
 40
1.0
 40
1.0
 10
3.526810898451964
 20
3.617012881087409
 30
0.0
 10
3.547478833022916
 20
3.632889889964532
 30
0.0
 10
3.566640141853756
 20
3.65070257980956
 30
0.0
 10
3.584689393366166
 20
3.669732831862275
 30
0.0
  0
ARC
  5
10E
330
1F
100
AcDbEntity
  8
0
  6
Continuous
 62
     7
370
    25
100
AcDbCircle
 10
3.222213543
 20
4.0135232227
 30
0.0
 40
0.5000000000000009
100
AcDbArc
 50
52.4687019219
 51
307.531298078
  0
ARC
  5
10F
330
1F
100
AcDbEntity
  8
0
  6
Continuous
 62
     7
370
    25
100
AcDbCircle
 10
3.5236604948
 20
4.4305115212
 30
0.0
 40
0.0207188744362545
100
AcDbArc
 50
278.7460221346
 51
328.8060985432
  0
SPLINE
  5
110
330
1F
100
AcDbEntity
  8
0
  6
Continuous
 62
     7
370
    25
100
AcDbSpline
210
0.0
220
0.0
230
1.0
 70
     8
 71
     3
 72
    14
 73
    10
 74
     0
 42
0.000000001
 43
0.00000001
 40
0.0
 40
0.0
 40
0.0
 40
0.0
 40
0.25
 40
0.25
 40
0.5
 40
0.5
 40
0.75
 40
0.75
 40
1.0
 40
1.0
 40
1.0
 40
1.0
 10
3.541383821840679
 20
4.419780470999594
 30
0.0
 10
3.52614563647096
 20
4.428389226349327
 30
0.0
 10
3.510608805408788
 20
4.436445964957599
 30
0.0
 10
3.479315166806077
 20
4.451384183376219
 30
0.0
 10
3.463513428128336
 20
4.458291998935914
 30
0.0
 10
3.43157864887594
 20
4.47107774292602
 30
0.0
 10
3.415445833071382
 20
4.476955106453333
 30
0.0
 10
3.38282401118231
 20
4.487722325593849
 30
0.0
 10
3.366268065705678
 20
4.492628804678802
 30
0.0
 10
3.349692116467746
 20
4.496999399272749
 30
0.0
  0
ARC
  5
111
330
1F
100
AcDbEntity
  8
0
  6
Continuous
 62
     7
370
    25
100
AcDbCircle
 10
3.5236604948
 20
3.5965349243
 30
0.0
 40
0.0207188744360664
100
AcDbArc
 50
31.1939014567
 51
81.2539778656
  0
SPLINE
  5
112
330
1F
100
AcDbEntity
  8
0
  6
Continuous
 62
     7
370
    25
100
AcDbSpline
210
0.0
220
0.0
230
1.0
 70
     8
 71
     3
 72
    14
 73
    10
 74
     0
 42
0.000000001
 43
0.00000001
 40
0.0
 40
0.0
 40
0.0
 40
0.0
 40
0.25
 40
0.25
 40
0.5
 40
0.5
 40
0.75
 40
0.75
 40
1.0
 40
1.0
 40
1.0
 40
1.0
 10
3.54138382184027
 20
3.60726597444021
 30
0.0
 10
3.526145636470579
 20
3.598657219090506
 30
0.0
 10
3.510608805408439
 20
3.590600480482262
 30
0.0
 10
3.479315166805794
 20
3.575662262063689
 30
0.0
 10
3.463513428128086
 20
3.568754446504015
 30
0.0
 10
3.431578648875758
 20
3.555968702513948
 30
0.0
 10
3.415445833071236
 20
3.55009133898665
 30
0.0
 10
3.382824011182233
 20
3.539324119846164
 30
0.0
 10
3.366268065705651
 20
3.534417640761226
 30
0.0
 10
3.349692116467743
 20
3.530047046167285
 30
0.0
  0
SPLINE
  5
113
330
1F
100
AcDbEntity
  8
0
  6
Continuous
 62
     7
370
    25
100
AcDbSpline
210
0.0
220
0.0
230
1.0
 70
     8
 71
     3
 72
     8
 73
     4
 74
     0
 42
0.000000001
 43
0.00000001
 40
0.0
 40
0.0
 40
0.0
 40
0.0
 40
1.0
 40
1.0
 40
1.0
 40
1.0
 10
3.541383821840679
 20
4.419780470999594
 30
0.0
 10
3.563740867850343
 20
4.407149942182023
 30
0.0
 10
3.585132011776226
 20
4.392891771866294
 30
0.0
 10
3.606151765140162
 20
4.377669610184038
 30
0.0
  0
LINE
  5
114
330
1F
100
AcDbEntity
  8
0
  6
Continuous
 62
     7
370
    25
100
AcDbLine
 10
3.6061517651
 20
4.3776696102
 30
0.0
 11
3.5846893934
 21
4.3573136136
 31
0.0
  0
SPLINE
  5
115
330
1F
100
AcDbEntity
  8
0
  6
Continuous
 62
     7
370
    25
100
AcDbSpline
210
0.0
220
0.0
230
1.0
 70
     8
 71
     3
 72
     8
 73
     4
 74
     0
 42
0.000000001
 43
0.00000001
 40
0.0
 40
0.0
 40
0.0
 40
0.0
 40
1.0
 40
1.0
 40
1.0
 40
1.0
 10
3.606151765140162
 20
3.649376835255997
 30
0.0
 10
3.585132011776097
 20
3.634154673573647
 30
0.0
 10
3.563740867850081
 20
3.619896503257837
 30
0.0
 10
3.54138382184027
 20
3.60726597444021
 30
0.0
  0
LINE
  5
116
330
1F
100
AcDbEntity
  8
0
  6
Continuous
 62
     7
370
    25
100
AcDbLine
 10
3.6061517651
 20
3.6493768353
 30
0.0
 11
3.5846893934
 21
3.6697328319
 31
0.0
  0
ARC
  5
117
330
1F
100
AcDbEntity
  8
0
  6
Continuous
 62
     7
370
    25
100
AcDbCircle
 10
3.222213543
 20
4.0135232227
 30
0.0
 40
0.5291607978309967
100
AcDbArc
 50
316.5155025439
 51
43.4844974561
  0
LINE
  5
118
330
1F
100
AcDbEntity
  8
0
  6
Continuous
 62
     7
370
    25
100
AcDbLine
 10
4.472213543
 20
4.2010232227
 30
0.0
 11
4.472213543
 21
4.1493143667
 31
0.0
  0
LINE
  5
119
330
1F
100
AcDbEntity
  8
0
  6
Continuous
 62
     7
370
    25
100
AcDbLine
 10
4.472213543
 20
4.1493143667
 30
0.0
 11
3.6061517651
 21
4.3776696102
 31
0.0
  0
LINE
  5
11A
330
1F
100
AcDbEntity
  8
0
  6
Continuous
 62
     7
370
    25
100
AcDbLine
 10
3.3496921165
 20
4.4969993993
 30
0.0
 11
4.472213543
 21
4.2010232227
 31
0.0
  0
LINE
  5
11B
330
1F
100
AcDbEntity
  8
0
  6
Continuous
 62
     7
370
    25
100
AcDbLine
 10
4.472213543
 20
3.8777320787
 30
0.0
 11
4.472213543
 21
3.8260232227
 31
0.0
  0
LINE
  5
11C
330
1F
100
AcDbEntity
  8
0
  6
Continuous
 62
     7
370
    25
100
AcDbLine
 10
4.472213543
 20
3.8260232227
 30
0.0
 11
3.3496921165
 21
3.5300470462
 31
0.0
  0
LINE
  5
11D
330
1F
100
AcDbEntity
  8
0
  6
Continuous
 62
     7
370
    25
100
AcDbLine
 10
3.6061517651
 20
3.6493768353
 30
0.0
 11
4.472213543
 21
3.8777320787
 31
0.0
  0
LINE
  5
11E
330
1F
100
AcDbEntity
  8
0
  6
Continuous
 62
     7
370
    25
100
AcDbLine
 10
4.472213543
 20
4.1493143667
 30
0.0
 11
4.472213543
 21
3.8777320787
 31
0.0
  0
LINE
  5
11F
330
1F
100
AcDbEntity
  8
0
  6
Continuous
 62
     7
370
    25
100
AcDbLine
 10
3.5206199846
 20
4.4141035686
 30
0.0
 11
3.5439588765
 21
4.3958443032
 31
0.0
  0
LINE
  5
120
330
1F
100
AcDbEntity
  8
0
  6
Continuous
 62
     7
370
    25
100
AcDbLine
 10
3.5347961135
 20
3.6240336219
 30
0.0
 11
3.5224561813
 21
3.6143794318
 31
0.0
  0
DIMENSION
  5
121
330
1F
100
AcDbEntity
  8
FORMAT
 62
     7
100
AcDbDimension
  2
_D
 10
8.0011838355
 20
1.5835232227
 30
0.0
 11
5.916015935
 21
1.5835232227
 31
0.0
 70
   160
  1
<>
 71
     2
 42
-1.0
  3
SLDDIMSTYLE0
100
AcDbAlignedDimension
 13
3.4011838355
 23
2.7635232227
 33
0.0
 14
8.0011838355
 24
2.7635232227
 34
0.0
 50
0.0
100
AcDbRotatedDimension
  0
DIMENSION
  5
12D
330
1F
100
AcDbEntity
  8
FORMAT
 62
     7
100
AcDbDimension
  2
_D_1
 10
8.5460240355
 20
2.0835232227
 30
0.0
 11
8.5460240355
 21
2.7315763975
 31
0.0
 70
   160
  1
<>
 71
     2
 42
-1.0
  3
SLDDIMSTYLE1
100
AcDbAlignedDimension
 13
7.3211838355
 23
3.4435232227
 33
0.0
 14
7.3211838355
 24
2.0835232227
 34
0.0
 50
90.0
100
AcDbRotatedDimension
  0
LINE
  5
139
330
1F
100
AcDbEntity
  8
0
  6
Continuous
 62
     7
370
    25
100
AcDbLine
 10
11.6147507171
 20
5.2635232227
 30
0.0
 11
11.6147507171
 21
4.0135232227
 31
0.0
  0
LINE
  5
13A
330
1F
100
AcDbEntity
  8
0
  6
Continuous
 62
     7
370
    25
100
AcDbLine
 10
11.9897507171
 20
4.0135232227
 30
0.0
 11
11.9897507171
 21
5.2635232227
 31
0.0
  0
ARC
  5
13B
330
1F
100
AcDbEntity
  8
0
  6
Continuous
 62
     7
370
    25
100
AcDbCircle
 10
11.3122507171
 20
2.2435232227
 30
0.0
 40
0.02
100
AcDbArc
 50
0.0
 51
90.0
  0
ARC
  5
13C
330
1F
100
AcDbEntity
  8
0
  6
Continuous
 62
     7
370
    25
100
AcDbCircle
 10
11.3122507171
 20
3.2835232227
 30
0.0
 40
0.02
100
AcDbArc
 50
270.0
 51
0.0
  0
ARC
  5
13D
330
1F
100
AcDbEntity
  8
0
  6
Continuous
 62
     7
370
    25
100
AcDbCircle
 10
11.2897507171
 20
2.2835232227
 30
0.0
 40
0.02
100
AcDbArc
 50
180.0
 51
270.0
  0
ARC
  5
13E
330
1F
100
AcDbEntity
  8
0
  6
Continuous
 62
     7
370
    25
100
AcDbCircle
 10
11.2897507171
 20
3.2435232227
 30
0.0
 40
0.0200000000000005
100
AcDbArc
 50
90.0
 51
180.0
  0
LINE
  5
13F
330
1F
100
AcDbEntity
  8
0
  6
Continuous
 62
     7
370
    25
100
AcDbLine
 10
11.3122507171
 20
3.2635232227
 30
0.0
 11
11.2897507171
 21
3.2635232227
 31
0.0
  0
LINE
  5
140
330
1F
100
AcDbEntity
  8
0
  6
Continuous
 62
     7
370
    25
100
AcDbLine
 10
11.2897507171
 20
2.2635232227
 30
0.0
 11
11.3122507171
 21
2.2635232227
 31
0.0
  0
ARC
  5
141
330
1F
100
AcDbEntity
  8
0
  6
Continuous
 62
     7
370
    25
100
AcDbCircle
 10
12.1472507171
 20
3.5435232227
 30
0.0
 40
0.0300000000000007
100
AcDbArc
 50
270.0
 51
0.0
  0
ARC
  5
142
330
1F
100
AcDbEntity
  8
0
  6
Continuous
 62
     7
370
    25
100
AcDbCircle
 10
12.1472507171
 20
4.4835232227
 30
0.0
 40
0.0299999999999994
100
AcDbArc
 50
0.0
 51
90.0
  0
LINE
  5
143
330
1F
100
AcDbEntity
  8
0
  6
Continuous
 62
     7
370
    25
100
AcDbLine
 10
11.5322507171
 20
3.5135232227
 30
0.0
 11
12.1472507171
 21
3.5135232227
 31
0.0
  0
LINE
  5
144
330
1F
100
AcDbEntity
  8
0
  6
Continuous
 62
     7
370
    25
100
AcDbLine
 10
12.1472507171
 20
4.5135232227
 30
0.0
 11
11.9897507171
 21
4.5135232227
 31
0.0
  0
LINE
  5
145
330
1F
100
AcDbEntity
  8
0
  6
Continuous
 62
     7
370
    25
100
AcDbLine
 10
11.6147507171
 20
4.5135232227
 30
0.0
 11
11.5322507171
 21
4.5135232227
 31
0.0
  0
ARC
  5
146
330
1F
100
AcDbEntity
  8
0
  6
Continuous
 62
     7
370
    25
100
AcDbCircle
 10
11.5322507171
 20
3.5435232227
 30
0.0
 40
0.0300000000000011
100
AcDbArc
 50
180.0
 51
270.0
  0
ARC
  5
147
330
1F
100
AcDbEntity
  8
0
  6
Continuous
 62
     7
370
    25
100
AcDbCircle
 10
11.5322507171
 20
4.4835232227
 30
0.0
 40
0.0300000000000011
100
AcDbArc
 50
90.0
 51
180.0
  0
LINE
  5
148
330
1F
100
AcDbEntity
  8
0
  6
Continuous
 62
     7
370
    25
100
AcDbLine
 10
11.6147507171
 20
3.5135232227
 30
0.0
 11
11.6147507171
 21
3.4435232227
 31
0.0
  0
LINE
  5
149
330
1F
100
AcDbEntity
  8
0
  6
Continuous
 62
     7
370
    25
100
AcDbLine
 10
11.9897507171
 20
3.4435232227
 30
0.0
 11
11.9897507171
 21
3.5135232227
 31
0.0
  0
ARC
  5
14A
330
1F
100
AcDbEntity
  8
0
  6
Continuous
 62
     7
370
    25
100
AcDbCircle
 10
11.8022507171
 20
5.2635232227
 30
0.0
 40
0.1875
100
AcDbArc
 50
0.0
 51
180.0
  0
ARC
  5
14B
330
1F
100
AcDbEntity
  8
0
  6
Continuous
 62
     7
370
    25
100
AcDbCircle
 10
11.8022507171
 20
4.0135232227
 30
0.0
 40
0.1875
100
AcDbArc
 50
180.0
 51
0.0
  0
LINE
  5
14C
330
1F
100
AcDbEntity
  8
0
  6
Continuous
 62
     7
370
    25
100
AcDbLine
 10
11.3322507171
 20
2.1835232227
 30
0.0
 11
11.3322507171
 21
3.3435232227
 31
0.0
  0
ARC
  5
14D
330
1F
100
AcDbEntity
  8
0
  6
Continuous
 62
     7
370
    25
100
AcDbCircle
 10
11.4322507171
 20
3.3435232227
 30
0.0
 40
0.1000000000000001
100
AcDbArc
 50
90.0
 51
180.0
  0
LINE
  5
14E
330
1F
100
AcDbEntity
  8
0
  6
Continuous
 62
     7
370
    25
100
AcDbLine
 10
11.4322507171
 20
3.4435232227
 30
0.0
 11
11.4322507171
 21
2.0835232227
 31
0.0
  0
ARC
  5
14F
330
1F
100
AcDbEntity
  8
0
  6
Continuous
 62
     7
370
    25
100
AcDbCircle
 10
11.4322507171
 20
2.1835232227
 30
0.0
 40
0.0999999999999996
100
AcDbArc
 50
180.0
 51
270.0
  0
LINE
  5
150
330
1F
100
AcDbEntity
  8
0
  6
Continuous
 62
     7
370
    25
100
AcDbLine
 10
11.4322507171
 20
3.4435232227
 30
0.0
 11
12.1522507171
 21
3.4435232227
 31
0.0
  0
LINE
  5
151
330
1F
100
AcDbEntity
  8
0
  6
Continuous
 62
     7
370
    25
100
AcDbLine
 10
12.1522507171
 20
2.0835232227
 30
0.0
 11
12.1522507171
 21
3.4435232227
 31
0.0
  0
LINE
  5
152
330
1F
100
AcDbEntity
  8
0
  6
Continuous
 62
     7
370
    25
100
AcDbLine
 10
11.4322507171
 20
2.0835232227
 30
0.0
 11
12.1522507171
 21
2.0835232227
 31
0.0
  0
LINE
  5
153
330
1F
100
AcDbEntity
  8
0
  6
Continuous
 62
     7
370
    25
100
AcDbLine
 10
12.2522507171
 20
3.3435232227
 30
0.0
 11
12.2522507171
 21
2.1835232227
 31
0.0
  0
ARC
  5
154
330
1F
100
AcDbEntity
  8
0
  6
Continuous
 62
     7
370
    25
100
AcDbCircle
 10
12.1522507171
 20
2.1835232227
 30
0.0
 40
0.1000000000000001
100
AcDbArc
 50
270.0
 51
0.0
  0
ARC
  5
155
330
1F
100
AcDbEntity
  8
0
  6
Continuous
 62
     7
370
    25
100
AcDbCircle
 10
12.1522507171
 20
3.3435232227
 30
0.0
 40
0.1000000000000005
100
AcDbArc
 50
0.0
 51
90.0
  0
LINE
  5
156
330
1F
100
AcDbEntity
  8
0
  6
Continuous
 62
     7
370
    25
100
AcDbLine
 10
11.2697507171
 20
2.7635232227
 30
0.0
 11
11.2697507171
 21
3.2435232227
 31
0.0
  0
LINE
  5
157
330
1F
100
AcDbEntity
  8
0
  6
Continuous
 62
     7
370
    25
100
AcDbLine
 10
11.2697507171
 20
2.2835232227
 30
0.0
 11
11.2697507171
 21
2.7635232227
 31
0.0
  0
LINE
  5
158
330
1F
100
AcDbEntity
  8
0
  6
Continuous
 62
     7
370
    25
100
AcDbLine
 10
12.0022507171
 20
4.2010232227
 30
0.0
 11
11.9897507171
 21
4.2010232227
 31
0.0
  0
ELLIPSE
  5
159
330
1F
100
AcDbEntity
  8
0
  6
Continuous
 62
     7
370
    25
100
AcDbEllipse
 10
12.0022507171
 20
4.1493143667
 30
0.0
 11
0.0
 21
-0.05170885601490038
 31
0.0
210
0.0
220
0.0
230
1.0
 40
0.9669523531
 41
1.570796326794897
 42
3.141592653589791
  0
LINE
  5
15A
330
1F
100
AcDbEntity
  8
0
  6
Continuous
 62
     7
370
    25
100
AcDbLine
 10
12.0522507171
 20
4.1493143667
 30
0.0
 11
12.0522507171
 21
3.8777320787
 31
0.0
  0
ELLIPSE
  5
15B
330
1F
100
AcDbEntity
  8
0
  6
Continuous
 62
     7
370
    25
100
AcDbEllipse
 10
12.0022507171
 20
3.8777320787
 30
0.0
 11
0.0
 21
-0.05170885601490083
 31
0.0
210
0.0
220
0.0
230
1.0
 40
0.9669523531
 41
0.0
 42
1.570796326794897
  0
LINE
  5
15C
330
1F
100
AcDbEntity
  8
0
  6
Continuous
 62
     7
370
    25
100
AcDbLine
 10
12.0022507171
 20
3.8260232227
 30
0.0
 11
11.8022507171
 21
3.8260232227
 31
0.0
  0
LINE
  5
15D
330
1F
100
AcDbEntity
  8
0
  6
Continuous
 62
     7
370
    25
100
AcDbLine
 10
12.0022507171
 20
3.5300470462
 30
0.0
 11
12.0022507171
 21
3.8260232227
 31
0.0
  0
LINE
  5
15E
330
1F
100
AcDbEntity
  8
0
  6
Continuous
 62
     7
370
    25
100
AcDbLine
 10
12.0022507171
 20
3.5300470462
 30
0.0
 11
11.6022507171
 21
3.5300470462
 31
0.0
  0
LINE
  5
15F
330
1F
100
AcDbEntity
  8
0
  6
Continuous
 62
     7
370
    25
100
AcDbLine
 10
11.6022507171
 20
3.8260232227
 30
0.0
 11
11.6022507171
 21
3.5300470462
 31
0.0
  0
LINE
  5
160
330
1F
100
AcDbEntity
  8
0
  6
Continuous
 62
     7
370
    25
100
AcDbLine
 10
11.8022507171
 20
3.8260232227
 30
0.0
 11
11.6022507171
 21
3.8260232227
 31
0.0
  0
ELLIPSE
  5
161
330
1F
100
AcDbEntity
  8
0
  6
Continuous
 62
     7
370
    25
100
AcDbEllipse
 10
11.6022507171
 20
4.1493143667
 30
0.0
 11
0.0
 21
0.05170885601490127
 31
0.0
210
0.0
220
0.0
230
1.0
 40
0.9669523531
 41
0.0
 42
1.570796326794897
  0
LINE
  5
162
330
1F
100
AcDbEntity
  8
0
  6
Continuous
 62
     7
370
    25
100
AcDbLine
 10
11.6147507171
 20
4.2010232227
 30
0.0
 11
11.6022507171
 21
4.2010232227
 31
0.0
  0
ELLIPSE
  5
163
330
1F
100
AcDbEntity
  8
0
  6
Continuous
 62
     7
370
    25
100
AcDbEllipse
 10
11.6022507171
 20
3.8777320787
 30
0.0
 11
0.0
 21
0.05170885601490127
 31
0.0
210
0.0
220
0.0
230
1.0
 40
0.9669523531
 41
1.570796326794897
 42
3.141592653589793
  0
LINE
  5
164
330
1F
100
AcDbEntity
  8
0
  6
Continuous
 62
     7
370
    25
100
AcDbLine
 10
11.5522507171
 20
4.1493143667
 30
0.0
 11
11.5522507171
 21
3.8777320787
 31
0.0
  0
LINE
  5
165
330
1F
100
AcDbEntity
  8
0
  6
Continuous
 62
     7
370
    25
100
AcDbLine
 10
12.0022507171
 20
4.2010232227
 30
0.0
 11
12.0022507171
 21
4.4969993993
 31
0.0
  0
SPLINE
  5
166
330
1F
100
AcDbEntity
  8
0
  6
Continuous
 62
     7
370
    25
100
AcDbSpline
210
0.0
220
0.0
230
1.0
 70
     8
 71
     3
 72
    14
 73
    10
 74
     0
 42
0.000000001
 43
0.00000001
 40
0.0
 40
0.0
 40
0.0
 40
0.0
 40
0.25
 40
0.25
 40
0.5
 40
0.5
 40
0.75
 40
0.75
 40
1.0
 40
1.0
 40
1.0
 40
1.0
 10
12.05225071709462
 20
4.377263780447906
 30
0.0
 10
12.05225071709462
 20
4.391611681502474
 30
0.0
 10
12.05004672493903
 20
4.404663851821669
 30
0.0
 10
12.0436687732355
 20
4.428674692146348
 30
0.0
 10
12.03941881582281
 20
4.439621759857323
 30
0.0
 10
12.02994442567715
 20
4.459359554559239
 30
0.0
 10
12.02469129152681
 20
4.468200711832849
 30
0.0
 10
12.01371921446129
 20
4.484007012099166
 30
0.0
 10
12.00796664559779
 20
4.490997789383358
 30
0.0
 10
12.00225071709462
 20
4.496999399272749
 30
0.0
  0
LINE
  5
167
330
1F
100
AcDbEntity
  8
0
  6
Continuous
 62
     7
370
    25
100
AcDbLine
 10
12.0522507171
 20
4.3772637804
 30
0.0
 11
12.0522507171
 21
4.1493143667
 31
0.0
  0
LINE
  5
168
330
1F
100
AcDbEntity
  8
0
  6
Continuous
 62
     7
370
    25
100
AcDbLine
 10
11.6022507171
 20
4.4969993993
 30
0.0
 11
11.6022507171
 21
4.2010232227
 31
0.0
  0
SPLINE
  5
169
330
1F
100
AcDbEntity
  8
0
  6
Continuous
 62
     7
370
    25
100
AcDbSpline
210
0.0
220
0.0
230
1.0
 70
     8
 71
     3
 72
     8
 73
     4
 74
     0
 42
0.000000001
 43
0.00000001
 40
0.0
 40
0.0
 40
0.0
 40
0.0
 40
1.0
 40
1.0
 40
1.0
 40
1.0
 10
11.55850071709473
 20
4.419780470999594
 30
0.0
 10
11.55489716563937
 20
4.407149942182023
 30
0.0
 10
11.55225071709462
 20
4.392891771866294
 30
0.0
 10
11.55225071709462
 20
4.377669610184038
 30
0.0
  0
SPLINE
  5
16A
330
1F
100
AcDbEntity
  8
0
  6
Continuous
 62
     7
370
    25
100
AcDbSpline
210
0.0
220
0.0
230
1.0
 70
     8
 71
     3
 72
    14
 73
    10
 74
     0
 42
0.000000001
 43
0.00000001
 40
0.0
 40
0.0
 40
0.0
 40
0.0
 40
0.25
 40
0.25
 40
0.5
 40
0.5
 40
0.75
 40
0.75
 40
1.0
 40
1.0
 40
1.0
 40
1.0
 10
11.55850071709473
 20
4.419780470999594
 30
0.0
 10
11.56095683697042
 20
4.428389226349327
 30
0.0
 10
11.56395275582893
 20
4.436445964957599
 30
0.0
 10
11.57054956859442
 20
4.451384183376219
 30
0.0
 10
11.57416101877716
 20
4.458291998935914
 30
0.0
 10
11.58175482994767
 20
4.47107774292602
 30
0.0
 10
11.58573915237903
 20
4.476955106453333
 30
0.0
 10
11.59389684887444
 20
4.487722325593849
 30
0.0
 10
11.59808816626621
 20
4.492628804678802
 30
0.0
 10
11.60225071709462
 20
4.496999399272749
 30
0.0
  0
LINE
  5
16B
330
1F
100
AcDbEntity
  8
0
  6
Continuous
 62
     7
370
    25
100
AcDbLine
 10
11.5522507171
 20
4.1493143667
 30
0.0
 11
11.5522507171
 21
4.3776696102
 31
0.0
  0
SPLINE
  5
16C
330
1F
100
AcDbEntity
  8
0
  6
Continuous
 62
     7
370
    25
100
AcDbSpline
210
0.0
220
0.0
230
1.0
 70
     8
 71
     3
 72
    14
 73
    10
 74
     0
 42
0.000000001
 43
0.00000001
 40
0.0
 40
0.0
 40
0.0
 40
0.0
 40
0.25
 40
0.25
 40
0.5
 40
0.5
 40
0.75
 40
0.75
 40
1.0
 40
1.0
 40
1.0
 40
1.0
 10
11.55850071709479
 20
3.60726597444021
 30
0.0
 10
11.5609568369705
 20
3.598657219090506
 30
0.0
 10
11.563952755829
 20
3.590600480482262
 30
0.0
 10
11.57054956859448
 20
3.575662262063689
 30
0.0
 10
11.57416101877722
 20
3.568754446504015
 30
0.0
 10
11.58175482994772
 20
3.555968702513948
 30
0.0
 10
11.58573915237906
 20
3.55009133898665
 30
0.0
 10
11.59389684887446
 20
3.539324119846164
 30
0.0
 10
11.59808816626627
 20
3.534417640761226
 30
0.0
 10
11.60225071709462
 20
3.530047046167285
 30
0.0
  0
SPLINE
  5
16D
330
1F
100
AcDbEntity
  8
0
  6
Continuous
 62
     7
370
    25
100
AcDbSpline
210
0.0
220
0.0
230
1.0
 70
     8
 71
     3
 72
     8
 73
     4
 74
     0
 42
0.000000001
 43
0.00000001
 40
0.0
 40
0.0
 40
0.0
 40
0.0
 40
1.0
 40
1.0
 40
1.0
 40
1.0
 10
11.55225071709462
 20
3.649376835255997
 30
0.0
 10
11.55225071709462
 20
3.634154673573647
 30
0.0
 10
11.5548971656394
 20
3.619896503257837
 30
0.0
 10
11.55850071709479
 20
3.60726597444021
 30
0.0
  0
LINE
  5
16E
330
1F
100
AcDbEntity
  8
0
  6
Continuous
 62
     7
370
    25
100
AcDbLine
 10
11.5522507171
 20
3.6493768353
 30
0.0
 11
11.5522507171
 21
3.8777320787
 31
0.0
  0
SPLINE
  5
16F
330
1F
100
AcDbEntity
  8
0
  6
Continuous
 62
     7
370
    25
100
AcDbSpline
210
0.0
220
0.0
230
1.0
 70
     8
 71
     3
 72
    14
 73
    10
 74
     0
 42
0.000000001
 43
0.00000001
 40
0.0
 40
0.0
 40
0.0
 40
0.0
 40
0.25
 40
0.25
 40
0.5
 40
0.5
 40
0.75
 40
0.75
 40
1.0
 40
1.0
 40
1.0
 40
1.0
 10
12.05225071709462
 20
3.64978266499213
 30
0.0
 10
12.05225071709462
 20
3.635434763937562
 30
0.0
 10
12.05004672493903
 20
3.622382593618366
 30
0.0
 10
12.0436687732355
 20
3.598371753293686
 30
0.0
 10
12.03941881582281
 20
3.587424685582712
 30
0.0
 10
12.02994442567714
 20
3.567686890880795
 30
0.0
 10
12.02469129152681
 20
3.558845733607186
 30
0.0
 10
12.01371921446129
 20
3.543039433340868
 30
0.0
 10
12.00796664559788
 20
3.536048656056671
 30
0.0
 10
12.00225071709462
 20
3.530047046167285
 30
0.0
  0
LINE
  5
170
330
1F
100
AcDbEntity
  8
0
  6
Continuous
 62
     7
370
    25
100
AcDbLine
 10
12.0522507171
 20
3.8777320787
 30
0.0
 11
12.0522507171
 21
3.649782665
 31
0.0
  0
LINE
  5
171
330
1F
100
AcDbEntity
  8
0
  6
Continuous
 62
     7
370
    25
100
AcDbLine
 10
12.0822507171
 20
4.3566746923
 30
0.0
 11
12.0822507171
 21
3.6703717532
 31
0.0
  0
ARC
  5
172
330
1F
100
AcDbEntity
  8
0
  6
Continuous
 62
     7
370
    25
100
AcDbCircle
 10
12.078283305
 20
3.6440018183
 30
0.0
 40
0.0266667175104425
100
AcDbArc
 50
81.4439026678
 51
167.4799445423
  0
ARC
  5
173
330
1F
100
AcDbEntity
  8
0
  6
Continuous
 62
     7
370
    25
100
AcDbCircle
 10
12.078283305
 20
4.3830446271
 30
0.0
 40
0.0266667175104405
100
AcDbArc
 50
192.5200554577
 51
278.5560973322
  0
ARC
  5
174
330
1F
100
AcDbEntity
  8
0
  6
Continuous
 62
     7
370
    25
100
AcDbCircle
 10
11.5278214153
 20
3.6449039889
 30
0.0
 40
0.0248354009569182
100
AcDbArc
 50
10.3755626969
 51
91.3167283793
  0
LINE
  5
175
330
1F
100
AcDbEntity
  8
0
  6
Continuous
 62
     7
370
    25
100
AcDbLine
 10
11.5272507171
 20
3.6697328319
 30
0.0
 11
11.5272507171
 21
4.3573136136
 31
0.0
  0
ARC
  5
176
330
1F
100
AcDbEntity
  8
0
  6
Continuous
 62
     7
370
    25
100
AcDbCircle
 10
11.5278214153
 20
4.3821424566
 30
0.0
 40
0.0248354009569155
100
AcDbArc
 50
268.6832716207
 51
349.6244373031
  0
LINE
  5
177
330
1F
100
AcDbEntity
  8
0
  6
Continuous
 62
     7
370
    25
100
AcDbLine
 10
12.1772507171
 20
4.0135232227
 30
0.0
 11
12.1772507171
 21
3.5435232227
 31
0.0
  0
LINE
  5
178
330
1F
100
AcDbEntity
  8
0
  6
Continuous
 62
     7
370
    25
100
AcDbLine
 10
12.1772507171
 20
4.4835232227
 30
0.0
 11
12.1772507171
 21
4.0135232227
 31
0.0
  0
SPLINE
  5
179
330
1F
100
AcDbEntity
  8
0
  6
Continuous
 62
     7
370
    25
100
AcDbSpline
210
0.0
220
0.0
230
1.0
 70
     8
 71
     3
 72
    18
 73
    14
 74
     0
 42
0.000000001
 43
0.00000001
 40
0.0
 40
0.0
 40
0.0
 40
0.0
 40
0.2500000000000007
 40
0.2500000000000007
 40
0.3750000000000006
 40
0.3750000000000006
 40
0.5000000000000006
 40
0.5000000000000006
 40
0.7500000000000002
 40
0.7500000000000002
 40
0.8750000000000001
 40
0.8750000000000001
 40
1.0
 40
1.0
 40
1.0
 40
1.0
 10
12.08225071709462
 20
3.670371753165407
 30
0.0
 10
12.08225071709462
 20
3.652471821925829
 30
0.0
 10
12.07888879267767
 20
3.636305278423678
 30
0.0
 10
12.07136095920498
 20
3.61418412533673
 30
0.0
 10
12.068392149718
 20
3.60714524227756
 30
0.0
 10
12.0618318721595
 20
3.59389395988815
 30
0.0
 10
12.05825594854553
 20
3.587702762277244
 30
0.0
 10
12.04689281396687
 20
3.570308045422892
 30
0.0
 10
12.03847975122783
 20
3.560273393880064
 30
0.0
 10
12.02523987845263
 20
3.5473375021552
 30
0.0
 10
12.02071975584939
 20
3.543381166560942
 30
0.0
 10
12.01154665707583
 20
3.536172027592939
 30
0.0
 10
12.00686092397397
 20
3.532901187688391
 30
0.0
 10
12.00225071709462
 20
3.530047046167286
 30
0.0
  0
SPLINE
  5
17A
330
1F
100
AcDbEntity
  8
0
  6
Continuous
 62
     7
370
    25
100
AcDbSpline
210
0.0
220
0.0
230
1.0
 70
     8
 71
     3
 72
    18
 73
    14
 74
     0
 42
0.000000001
 43
0.00000001
 40
0.0
 40
0.0
 40
0.0
 40
0.0
 40
0.2500000000000044
 40
0.2500000000000044
 40
0.3750000000000047
 40
0.3750000000000047
 40
0.500000000000005
 40
0.500000000000005
 40
0.7500000000000042
 40
0.7500000000000042
 40
0.8750000000000021
 40
0.8750000000000021
 40
1.0
 40
1.0
 40
1.0
 40
1.0
 10
12.08225071709462
 20
4.35667469227463
 30
0.0
 10
12.08225071709462
 20
4.374574623514207
 30
0.0
 10
12.07888879267767
 20
4.390741167016357
 30
0.0
 10
12.07136095920498
 20
4.412862320103305
 30
0.0
 10
12.068392149718
 20
4.419901203162476
 30
0.0
 10
12.0618318721595
 20
4.433152485551885
 30
0.0
 10
12.05825594854553
 20
4.439343683162791
 30
0.0
 10
12.04689281396687
 20
4.456738400017142
 30
0.0
 10
12.03847975122783
 20
4.46677305155997
 30
0.0
 10
12.02523987845263
 20
4.479708943284835
 30
0.0
 10
12.02071975584939
 20
4.483665278879093
 30
0.0
 10
12.01154665707583
 20
4.490874417847097
 30
0.0
 10
12.00686092397281
 20
4.494145257751522
 30
0.0
 10
12.00225071709462
 20
4.496999399272749
 30
0.0
  0
SPLINE
  5
17B
330
1F
100
AcDbEntity
  8
0
  6
Continuous
 62
     7
370
    25
100
AcDbSpline
210
0.0
220
0.0
230
1.0
 70
     8
 71
     3
 72
    16
 73
    12
 74
     0
 42
0.000000001
 43
0.00000001
 40
0.0
 40
0.0
 40
0.0
 40
0.0
 40
0.2500000000000003
 40
0.2500000000000003
 40
0.5000000000000007
 40
0.5000000000000007
 40
0.750000000000001
 40
0.750000000000001
 40
0.8750000000000004
 40
0.8750000000000004
 40
1.0
 40
1.0
 40
1.0
 40
1.0
 10
11.53225071709479
 20
4.410033564352329
 30
0.0
 10
11.53614705760922
 20
4.420494916471854
 30
0.0
 10
11.54094091881997
 20
4.430214936545871
 30
0.0
 10
11.55145857515375
 20
4.447806595429618
 30
0.0
 10
11.557212766755
 20
4.455755121615951
 30
0.0
 10
11.56933297199594
 20
4.470119605231485
 30
0.0
 10
11.57570229696064
 20
4.4765342336978
 30
0.0
 10
11.58551804221198
 20
4.485050505315076
 30
0.0
 10
11.58883413119797
 20
4.487704323359448
 30
0.0
 10
11.59552502059132
 20
4.49264227682379
 30
0.0
 10
11.59891267750521
 20
4.494932846156675
 30
0.0
 10
11.60225071709462
 20
4.496999399272749
 30
0.0
  0
SPLINE
  5
17C
330
1F
100
AcDbEntity
  8
0
  6
Continuous
 62
     7
370
    25
100
AcDbSpline
210
0.0
220
0.0
230
1.0
 70
     8
 71
     3
 72
    16
 73
    12
 74
     0
 42
0.000000001
 43
0.00000001
 40
0.0
 40
0.0
 40
0.0
 40
0.0
 40
0.2499999999999998
 40
0.2499999999999998
 40
0.4999999999999997
 40
0.4999999999999997
 40
0.7499999999999996
 40
0.7499999999999996
 40
0.8749999999999998
 40
0.8749999999999998
 40
1.0
 40
1.0
 40
1.0
 40
1.0
 10
11.53225071709489
 20
3.617012881087433
 30
0.0
 10
11.53614705760933
 20
3.606551528967943
 30
0.0
 10
11.54094091882008
 20
3.596831508893962
 30
0.0
 10
11.55145857515384
 20
3.579239850010275
 30
0.0
 10
11.55721276675509
 20
3.571291323823968
 30
0.0
 10
11.569332971996
 20
3.556926840208478
 30
0.0
 10
11.5757022969607
 20
3.550512211742182
 30
0.0
 10
11.58551804221202
 20
3.541995940124929
 30
0.0
 10
11.588834131198
 20
3.539342122080564
 30
0.0
 10
11.59552502059134
 20
3.534404168616236
 30
0.0
 10
11.59891267750501
 20
3.532113599283335
 30
0.0
 10
11.60225071709462
 20
3.530047046167286
 30
0.0
  0
LINE
  5
17D
330
1F
100
AcDbEntity
  8
0
  6
Continuous
 62
     7
370
    25
100
AcDbLine
 10
11.5022507171
 20
4.0135232227
 30
0.0
 11
11.5022507171
 21
4.4835232227
 31
0.0
  0
LINE
  5
17E
330
1F
100
AcDbEntity
  8
0
  6
Continuous
 62
     7
370
    25
100
AcDbLine
 10
11.5022507171
 20
3.5435232227
 30
0.0
 11
11.5022507171
 21
4.0135232227
 31
0.0
  0
SPLINE
  5
17F
330
1F
100
AcDbEntity
  8
0
  6
Continuous
 62
     7
370
    25
100
AcDbSpline
210
0.0
220
0.0
230
1.0
 70
     8
 71
     3
 72
     8
 73
     4
 74
     0
 42
0.000000001
 43
0.00000001
 40
0.0
 40
0.0
 40
0.0
 40
0.0
 40
1.0
 40
1.0
 40
1.0
 40
1.0
 10
11.52725071709462
 20
4.35731361357776
 30
0.0
 10
11.52725071709462
 20
4.37634472941469
 30
0.0
 10
11.52929411643831
 20
4.394157107749631
 30
0.0
 10
11.5322507170947
 20
4.410033564352348
 30
0.0
  0
SPLINE
  5
180
330
1F
100
AcDbEntity
  8
0
  6
Continuous
 62
     7
370
    25
100
AcDbSpline
210
0.0
220
0.0
230
1.0
 70
     8
 71
     3
 72
     8
 73
     4
 74
     0
 42
0.000000001
 43
0.00000001
 40
0.0
 40
0.0
 40
0.0
 40
0.0
 40
1.0
 40
1.0
 40
1.0
 40
1.0
 10
11.5322507170949
 20
3.617012881087409
 30
0.0
 10
11.52929401359092
 20
3.632889889964532
 30
0.0
 10
11.52725071709462
 20
3.65070257980956
 30
0.0
 10
11.52725071709462
 20
3.669732831862275
 30
0.0
  0
ARC
  5
181
330
1F
100
AcDbEntity
  8
0
  6
Continuous
 62
     7
370
    25
100
AcDbCircle
 10
11.5374025635
 20
3.5906664323
 30
0.0
 40
0.0268454257840779
100
AcDbArc
 50
38.1948548864
 51
101.0641417367
  0
ARC
  5
182
330
1F
100
AcDbEntity
  8
0
  6
Continuous
 62
     7
370
    25
100
AcDbCircle
 10
11.5374025635
 20
4.4363800132
 30
0.0
 40
0.0268454257839855
100
AcDbArc
 50
258.9358582634
 51
321.8051451138
  0
LINE
  5
183
330
1F
100
AcDbEntity
  8
0
  6
Continuous
 62
     7
370
    25
100
AcDbLine
 10
12.8022507171
 20
4.0885232227
 30
0.0
 11
12.8022507171
 21
3.9385232227
 31
0.0
  0
LINE
  5
184
330
1F
100
AcDbEntity
  8
0
  6
Continuous
 62
     7
370
    25
100
AcDbLine
 10
12.8022507171
 20
4.0885232227
 30
0.0
 11
12.1772507171
 21
4.0885232227
 31
0.0
  0
LINE
  5
185
330
1F
100
AcDbEntity
  8
0
  6
Continuous
 62
     7
370
    25
100
AcDbLine
 10
12.8022507171
 20
3.9385232227
 30
0.0
 11
12.1772507171
 21
3.9385232227
 31
0.0
  0
LINE
  5
186
330
1F
100
AcDbEntity
  8
0
  6
Continuous
 62
     7
370
    25
100
AcDbLine
 10
12.8022507171
 20
3.8260232227
 30
0.0
 11
12.8022507171
 21
3.7260232227
 31
0.0
  0
LINE
  5
187
330
1F
100
AcDbEntity
  8
0
  6
Continuous
 62
     7
370
    25
100
AcDbLine
 10
12.8022507171
 20
3.7260232227
 30
0.0
 11
12.1772507171
 21
3.7260232227
 31
0.0
  0
LINE
  5
188
330
1F
100
AcDbEntity
  8
0
  6
Continuous
 62
     7
370
    25
100
AcDbLine
 10
12.8022507171
 20
3.8260232227
 30
0.0
 11
12.1772507171
 21
3.8260232227
 31
0.0
  0
LINE
  5
189
330
1F
100
AcDbEntity
  8
0
  6
Continuous
 62
     7
370
    25
100
AcDbLine
 10
12.8022507171
 20
4.2010232227
 30
0.0
 11
12.1772507171
 21
4.2010232227
 31
0.0
  0
LINE
  5
18A
330
1F
100
AcDbEntity
  8
0
  6
Continuous
 62
     7
370
    25
100
AcDbLine
 10
12.8022507171
 20
4.3010232227
 30
0.0
 11
12.1772507171
 21
4.3010232227
 31
0.0
  0
LINE
  5
18B
330
1F
100
AcDbEntity
  8
0
  6
Continuous
 62
     7
370
    25
100
AcDbLine
 10
12.8022507171
 20
4.3010232227
 30
0.0
 11
12.8022507171
 21
4.2010232227
 31
0.0
  0
LINE
  5
18C
330
1F
100
AcDbEntity
  8
0
  6
Continuous
 62
     8
370
    25
100
AcDbLine
 10
11.3122507171
 20
2.7635232227
 30
0.0
 11
11.3122507171
 21
3.2635232227
 31
0.0
  0
LINE
  5
18D
330
1F
100
AcDbEntity
  8
0
  6
Continuous
 62
     8
370
    25
100
AcDbLine
 10
11.3122507171
 20
2.2635232227
 30
0.0
 11
11.3122507171
 21
2.7635232227
 31
0.0
  0
LINE
  5
18E
330
1F
100
AcDbEntity
  8
0
  6
Continuous
 62
     8
370
    25
100
AcDbLine
 10
11.2897507171
 20
2.7635232227
 30
0.0
 11
11.2897507171
 21
2.2635232227
 31
0.0
  0
LINE
  5
18F
330
1F
100
AcDbEntity
  8
0
  6
Continuous
 62
     8
370
    25
100
AcDbLine
 10
11.2897507171
 20
3.2635232227
 30
0.0
 11
11.2897507171
 21
2.7635232227
 31
0.0
  0
LINE
  5
190
330
1F
100
AcDbEntity
  8
0
  6
Continuous
 62
     8
370
    25
100
AcDbLine
 10
12.0022507171
 20
4.4969993993
 30
0.0
 11
11.9897507171
 21
4.4969993993
 31
0.0
  0
LINE
  5
191
330
1F
100
AcDbEntity
  8
0
  6
Continuous
 62
     8
370
    25
100
AcDbLine
 10
11.6147507171
 20
4.4969993993
 30
0.0
 11
11.6022507171
 21
4.4969993993
 31
0.0
  0
LINE
  5
192
330
1F
100
AcDbEntity
  8
0
  6
Continuous
 62
     8
370
    25
100
AcDbLine
 10
12.1472507171
 20
4.0135232227
 30
0.0
 11
12.1472507171
 21
4.5135232227
 31
0.0
  0
LINE
  5
193
330
1F
100
AcDbEntity
  8
0
  6
Continuous
 62
     8
370
    25
100
AcDbLine
 10
12.1472507171
 20
3.5135232227
 30
0.0
 11
12.1472507171
 21
4.0135232227
 31
0.0
  0
LINE
  5
194
330
1F
100
AcDbEntity
  8
0
  6
Continuous
 62
     8
370
    25
100
AcDbLine
 10
11.5322507171
 20
3.6170128811
 30
0.0
 11
11.5322507171
 21
3.5135232227
 31
0.0
  0
LINE
  5
195
330
1F
100
AcDbEntity
  8
0
  6
Continuous
 62
     8
370
    25
100
AcDbLine
 10
11.5322507171
 20
4.5135232227
 30
0.0
 11
11.5322507171
 21
4.4100335644
 31
0.0
  0
DIMENSION
  5
196
330
1F
100
AcDbEntity
  8
FORMAT
 62
     7
100
AcDbDimension
  2
_D_2
 10
12.2522507171
 20
1.5835232227
 30
0.0
 11
11.7609762129
 21
1.5835232227
 31
0.0
 70
   160
  1
<>
 71
     2
 42
-1.0
  3
SLDDIMSTYLE1
100
AcDbAlignedDimension
 13
11.2697507171
 23
2.2835232227
 33
0.0
 14
12.2522507171
 24
2.1835232227
 34
0.0
100
AcDbRotatedDimension
  0
SPLINE
  5
1A1
330
1F
100
AcDbEntity
  8
0
  6
Continuous
 62
     7
370
    25
100
AcDbSpline
210
0.0
220
0.0
230
1.0
 70
     8
 71
     3
 72
    40
 73
    36
 74
     0
 42
0.000000001
 43
0.00000001
 40
0.0
 40
0.0
 40
0.0
 40
0.0
 40
0.0156646416986143
 40
0.0455301073529758
 40
0.0756809370078634
 40
0.1061693190230356
 40
0.1369688111613409
 40
0.1680337063361035
 40
0.199308011082609
 40
0.2307307560186989
 40
0.2622388912108431
 40
0.2937687113146122
 40
0.3252392734637602
 40
0.3565833567948778
 40
0.3877391282766838
 40
0.418647896337013
 40
0.4492575886287326
 40
0.4795289422846998
 40
0.5094457350242113
 40
0.5390308591318388
 40
0.5683707869825149
 40
0.5976526370341191
 40
0.6271104156447851
 40
0.6572284441311058
 40
0.6888827669233089
 40
0.723757622852712
 40
0.7660336286440267
 40
0.8037705277807441
 40
0.8368998420198611
 40
0.8671627515365639
 40
0.8958637203703204
 40
0.9261584081815938
 40
0.95575163314067
 40
0.9852104739941577
 40
1.0
 40
1.0
 40
1.0
 40
1.0
 10
15.51963765845044
 20
7.322299167804322
 30
0.0
 10
15.52467631810826
 20
7.319303952035296
 30
0.0
 10
15.53932144817565
 20
7.310598199415297
 30
0.0
 10
15.56475674836438
 20
7.292992529290707
 30
0.0
 10
15.59576216720052
 20
7.268216385165061
 30
0.0
 10
15.62720009346517
 20
7.239400983562573
 30
0.0
 10
15.65848327572792
 20
7.206867505343286
 30
0.0
 10
15.68906966767164
 20
7.170950850016166
 30
0.0
 10
15.71843638218559
 20
7.132092742509351
 30
0.0
 10
15.74610351539548
 20
7.090796548892074
 30
0.0
 10
15.77163777041565
 20
7.047624334704197
 30
0.0
 10
15.79465587627153
 20
7.003192129541453
 30
0.0
 10
15.81483622724593
 20
6.958155553235344
 30
0.0
 10
15.83192773605748
 20
6.913197209834042
 30
0.0
 10
15.84575938839837
 20
6.869007919905241
 30
0.0
 10
15.85624491054127
 20
6.826282226215178
 30
0.0
 10
15.86339172924341
 20
6.785707570926691
 30
0.0
 10
15.86731176319642
 20
6.747948064235612
 30
0.0
 10
15.86823225817503
 20
6.713623439794884
 30
0.0
 10
15.86650487936953
 20
6.683281979871134
 30
0.0
 10
15.86261016206762
 20
6.657366532159382
 30
0.0
 10
15.85715983407342
 20
6.636200462536671
 30
0.0
 10
15.85088336126385
 20
6.619906687608129
 30
0.0
 10
15.84457154319476
 20
6.608326972317804
 30
0.0
 10
15.83895345153645
 20
6.600940977546506
 30
0.0
 10
15.83444796330272
 20
6.59680552006932
 30
0.0
 10
15.83116097242351
 20
6.594778443493865
 30
0.0
 10
15.82643999747162
 20
6.592901840197135
 30
0.0
 10
15.81844095036879
 20
6.591387346788119
 30
0.0
 10
15.80675070953588
 20
6.591088645696796
 30
0.0
 10
15.79103251467091
 20
6.592826208068007
 30
0.0
 10
15.77125375803553
 20
6.597453964624087
 30
0.0
 10
15.74760669290281
 20
6.605857185806611
 30
0.0
 10
15.72576054068064
 20
6.615940229941317
 30
0.0
 10
15.71179143837785
 20
6.623773344612895
 30
0.0
 10
15.70712242081971
 20
6.626391476339889
 30
0.0
  0
SPLINE
  5
1A2
330
1F
100
AcDbEntity
  8
0
  6
Continuous
 62
     7
370
    25
100
AcDbSpline
210
0.0
220
0.0
230
1.0
 70
     8
 71
     3
 72
    45
 73
    41
 74
     0
 42
0.000000001
 43
0.00000001
 40
0.0
 40
0.0
 40
0.0
 40
0.0
 40
0.0155599212087057
 40
0.0439573486264123
 40
0.0723203123385183
 40
0.1003654011380419
 40
0.1278861355655352
 40
0.1547271220588304
 40
0.1808249645931314
 40
0.2062123332813754
 40
0.2309940917710615
 40
0.2553177538922564
 40
0.2793516186144497
 40
0.3032575958719829
 40
0.3271733150947138
 40
0.3512761481040495
 40
0.3757320550090348
 40
0.4006844493463848
 40
0.4262376006523607
 40
0.4524366665365292
 40
0.4792520977070817
 40
0.5065804328702624
 40
0.5342688174170359
 40
0.5621552299407412
 40
0.5900893608012271
 40
0.6179753541831778
 40
0.645776878703561
 40
0.6734860696633801
 40
0.7011131049112511
 40
0.728678669022956
 40
0.7562092497356269
 40
0.783734455381352
 40
0.8112821691938089
 40
0.8388773341922495
 40
0.8665521926985674
 40
0.8943380232889263
 40
0.9222630289267775
 40
0.9503484049333728
 40
0.9786014529242633
 40
1.0
 40
1.0
 40
1.0
 40
1.0
 10
15.51963765845044
 20
6.301623152947133
 30
0.0
 10
15.52933781396138
 20
6.296190542550806
 30
0.0
 10
15.55674110937691
 20
6.280843218747573
 30
0.0
 10
15.60270424961985
 20
6.259510616114
 30
0.0
 10
15.65744573148247
 20
6.23956563755519
 30
0.0
 10
15.71234431543551
 20
6.225471001136289
 30
0.0
 10
15.76667697460515
 20
6.21738324766403
 30
0.0
 10
15.81979849639823
 20
6.215374138292693
 30
0.0
 10
15.87112072645117
 20
6.219321442841823
 30
0.0
 10
15.92015937244726
 20
6.228986806303682
 30
0.0
 10
15.96653190880577
 20
6.244060571615324
 30
0.0
 10
16.00993912757923
 20
6.264207899548875
 30
0.0
 10
16.05013725431875
 20
6.289093030348747
 30
0.0
 10
16.08691440028251
 20
6.318385247123616
 30
0.0
 10
16.12011138068855
 20
6.35178455097958
 30
0.0
 10
16.1496141995366
 20
6.389047455024
 30
0.0
 10
16.17533726291817
 20
6.430011257219535
 30
0.0
 10
16.19718045860069
 20
6.474560128310524
 30
0.0
 10
16.21501444296323
 20
6.52258938380772
 30
0.0
 10
16.2286800728047
 20
6.573953043075984
 30
0.0
 10
16.23800820239008
 20
6.628409437311215
 30
0.0
 10
16.24285672389645
 20
6.685589095868105
 30
0.0
 10
16.2431494402838
 20
6.74500429772518
 30
0.0
 10
16.23889821694863
 20
6.806086670700753
 30
0.0
 10
16.23020154186205
 20
6.86825594673325
 30
0.0
 10
16.21721967974252
 20
6.93097891299795
 30
0.0
 10
16.2001409983202
 20
6.993796058093949
 30
0.0
 10
16.17916070081717
 20
7.056305973025505
 30
0.0
 10
16.15447542179479
 20
7.118136321341281
 30
0.0
 10
16.12628098320355
 20
7.178932072345297
 30
0.0
 10
16.09477234049541
 20
7.238348030042847
 30
0.0
 10
16.06014525849423
 20
7.296042506939854
 30
0.0
 10
16.02259849857326
 20
7.351673780036871
 30
0.0
 10
15.98233035365606
 20
7.404904478977829
 30
0.0
 10
15.93953568772657
 20
7.455406138564521
 30
0.0
 10
15.89439921793782
 20
7.502846967046972
 30
0.0
 10
15.84710920268943
 20
7.546926092846573
 30
0.0
 10
15.79782367692558
 20
7.58720364479614
 30
0.0
 10
15.75103840043391
 20
7.620688462974313
 30
0.0
 10
15.72034882866093
 20
7.639122779755038
 30
0.0
 10
15.7071224208197
 20
7.647067491197078
 30
0.0
  0
LINE
  5
1A3
330
1F
100
AcDbEntity
  8
0
  6
Continuous
 62
     7
370
    25
100
AcDbLine
 10
15.7071224208
 20
7.6470674912
 30
0.0
 11
11.4644817337
 21
10.0962918267
 31
0.0
  0
LINE
  5
1A4
330
1F
100
AcDbEntity
  8
0
  6
Continuous
 62
     7
370
    25
100
AcDbLine
 10
11.2769969713
 20
9.7715235033
 30
0.0
 11
15.5196376585
 21
7.3222991678
 31
0.0
  0
LINE
  5
1A5
330
1F
100
AcDbEntity
  8
0
  6
Continuous
 62
     7
370
    25
100
AcDbLine
 10
12.5293040871
 20
8.0279059787
 30
0.0
 11
15.5196376585
 21
6.3016231529
 31
0.0
  0
LINE
  5
1A6
330
1F
100
AcDbEntity
  8
0
  6
Continuous
 62
     7
370
    25
100
AcDbLine
 10
15.7071224208
 20
6.6263914763
 30
0.0
 11
12.7167888495
 21
8.3526743021
 31
0.0
  0
SPLINE
  5
1A7
330
1F
100
AcDbEntity
  8
0
  6
Continuous
 62
     7
370
    25
100
AcDbSpline
210
0.0
220
0.0
230
1.0
 70
     8
 71
     3
 72
    17
 73
    13
 74
     0
 42
0.000000001
 43
0.00000001
 40
0.0
 40
0.0
 40
0.0
 40
0.0
 40
0.0631980837563681
 40
0.1811359173449739
 40
0.2990797526059594
 40
0.4161707827181446
 40
0.5316093786768653
 40
0.6446621530986665
 40
0.7549271368681939
 40
0.8624833377827253
 40
0.9678535084440432
 40
0.9999999999999999
 40
0.9999999999999999
 40
0.9999999999999999
 40
0.9999999999999999
 10
14.32594723592682
 20
5.295418839124991
 30
0.0
 10
14.33431193073059
 20
5.290739825970291
 30
0.0
 10
14.35828649730816
 20
5.27732901840035
 30
0.0
 10
14.39837993822347
 20
5.258956925487242
 30
0.0
 10
14.4460341961934
 20
5.242214762845222
 30
0.0
 10
14.493496129465
 20
5.231081487871399
 30
0.0
 10
14.54014446041779
 20
5.225688608059794
 30
0.0
 10
14.58533888692426
 20
5.226154234152047
 30
0.0
 10
14.62856665190905
 20
5.23223101155829
 30
0.0
 10
14.66905011891141
 20
5.244137035593565
 30
0.0
 10
14.69873611123932
 20
5.256281612578177
 30
0.0
 10
14.71377604655933
 20
5.26593889166533
 30
0.0
 10
14.71729184708831
 20
5.268196419121444
 30
0.0
  0
LINE
  5
1A8
330
1F
100
AcDbEntity
  8
0
  6
Continuous
 62
     7
370
    25
100
AcDbLine
 10
14.7159155417
 20
5.2667041698
 30
0.0
 11
15.2250324241
 21
5.5606110901
 31
0.0
  0
SPLINE
  5
1A9
330
1F
100
AcDbEntity
  8
0
  6
Continuous
 62
     7
370
    25
100
AcDbSpline
210
0.0
220
0.0
230
1.0
 70
     8
 71
     3
 72
    38
 73
    34
 74
     0
 42
0.000000001
 43
0.00000001
 40
0.0
 40
0.0
 40
0.0
 40
0.0
 40
0.0254579235359935
 40
0.0574123737082774
 40
0.0894045898403379
 40
0.121622994845774
 40
0.1541633824658193
 40
0.1870129171174283
 40
0.2200898530005901
 40
0.2532972838363524
 40
0.286557800263164
 40
0.3198151151025272
 40
0.3530484850891382
 40
0.3862528474944603
 40
0.4194304127948764
 40
0.4525870762353433
 40
0.4857304727108609
 40
0.5188690204206966
 40
0.5520112516866545
 40
0.585163432747911
 40
0.6183346388888553
 40
0.6515338492685155
 40
0.6847694395821569
 40
0.718048041382401
 40
0.751372226643544
 40
0.7847362260249587
 40
0.8181136449442643
 40
0.8514414858980983
 40
0.8846290311447288
 40
0.9175631442353686
 40
0.9501520276382209
 40
0.9823893828040474
 40
1.0
 40
1.0
 40
1.0
 40
1.0
 10
14.03501887870453
 20
6.235230503885865
 30
0.0
 10
14.02755760388774
 20
6.231330089969916
 30
0.0
 10
14.01073103523552
 20
6.222533927901047
 30
0.0
 10
13.98798372203229
 20
6.203148636191067
 30
0.0
 10
13.96655965493411
 20
6.178494169625499
 30
0.0
 10
13.94869666761944
 20
6.149537833122675
 30
0.0
 10
13.93445226783546
 20
6.116704037661606
 30
0.0
 10
13.92402353535173
 20
6.080239513169539
 30
0.0
 10
13.91754648678349
 20
6.040549792821361
 30
0.0
 10
13.91511144204133
 20
5.998100020637676
 30
0.0
 10
13.91674038479342
 20
5.953407143670296
 30
0.0
 10
13.92239495001379
 20
5.907001894805717
 30
0.0
 10
13.9319865924495
 20
5.859416661460204
 30
0.0
 10
13.94538686944489
 20
5.811178030409189
 30
0.0
 10
13.96243115739763
 20
5.762812235908366
 30
0.0
 10
13.98292050815703
 20
5.714844266238902
 30
0.0
 10
14.00662332292384
 20
5.667794410446812
 30
0.0
 10
14.03327728739256
 20
5.622173899606838
 30
0.0
 10
14.06259117367681
 20
5.578480996985756
 30
0.0
 10
14.09424851964791
 20
5.537194477934066
 30
0.0
 10
14.12791155216641
 20
5.498768625430037
 30
0.0
 10
14.16322629747518
 20
5.463628307614285
 30
0.0
 10
14.19982588220148
 20
5.432167002326015
 30
0.0
 10
14.23733419869752
 20
5.404744743775439
 30
0.0
 10
14.27536806473482
 20
5.381687565626148
 30
0.0
 10
14.31353519727744
 20
5.363287871703895
 30
0.0
 10
14.35142351860392
 20
5.349806361814299
 30
0.0
 10
14.3886001947935
 20
5.341451672090686
 30
0.0
 10
14.42458420583875
 20
5.338395862421029
 30
0.0
 10
14.45893670678491
 20
5.340614739992887
 30
0.0
 10
14.49098804858647
 20
5.348344617488153
 30
0.0
 10
14.51652908620099
 20
5.358530763579848
 30
0.0
 10
14.53007962670301
 20
5.367948097371555
 30
0.0
 10
14.53486685014005
 20
5.371275114551082
 30
0.0
  0
LINE
  5
1AA
330
1F
100
AcDbEntity
  8
0
  6
Continuous
 62
     7
370
    25
100
AcDbLine
 10
14.0411106757
 20
6.2396573407
 30
0.0
 11
14.0252007731
 21
6.2304727495
 31
0.0
  0
LINE
  5
1AB
330
1F
100
AcDbEntity
  8
0
  6
Continuous
 62
     7
370
    25
100
AcDbLine
 10
14.5251601394
 20
5.3644238871
 30
0.0
 11
14.541070042
 21
5.3736084784
 31
0.0
  0
LINE
  5
1AC
330
1F
100
AcDbEntity
  8
0
  6
Continuous
 62
     7
370
    25
100
AcDbLine
 10
14.5126686423
 20
5.7148272986
 30
0.0
 11
14.5875206435
 21
5.6716161581
 31
0.0
  0
LINE
  5
1AD
330
1F
100
AcDbEntity
  8
0
  6
Continuous
 62
     7
370
    25
100
AcDbLine
 10
14.5875206434
 20
5.6716161582
 30
0.0
 11
14.5875206434
 21
5.5395686658
 31
0.0
  0
SPLINE
  5
1AE
330
1F
100
AcDbEntity
  8
0
  6
Continuous
 62
     7
370
    25
100
AcDbSpline
210
0.0
220
0.0
230
1.0
 70
     8
 71
     3
 72
    28
 73
    24
 74
     0
 42
0.000000001
 43
0.00000001
 40
0.0
 40
0.0
 40
0.0
 40
0.0
 40
0.0346334066230633
 40
0.080396010098828
 40
0.1262740178951362
 40
0.1726753426428455
 40
0.219926783898357
 40
0.2682260130852916
 40
0.3176047327042993
 40
0.3679272263503888
 40
0.4189406991061864
 40
0.4703598739440809
 40
0.5219386755070968
 40
0.5734776407391068
 40
0.624907141612779
 40
0.6762058417904641
 40
0.7273820295194089
 40
0.7784605776389889
 40
0.8294750840603018
 40
0.8804635750848896
 40
0.931466335713413
 40
0.9825122431682243
 40
1.0
 40
1.0
 40
1.0
 40
1.0
 10
15.22426254881311
 20
5.56076805635912
 30
0.0
 10
15.23304508380142
 20
5.565928922498575
 30
0.0
 10
15.25343235841458
 20
5.57790906210142
 30
0.0
 10
15.28183647508669
 20
5.602177241672787
 30
0.0
 10
15.30963314781617
 20
5.632197903796563
 30
0.0
 10
15.3337232056708
 20
5.666334080324962
 30
0.0
 10
15.35412635400727
 20
5.704248315285971
 30
0.0
 10
15.37067013460909
 20
5.745864944489878
 30
0.0
 10
15.38319191084698
 20
5.790974363962945
 30
0.0
 10
15.39151914902559
 20
5.839273420224871
 30
0.0
 10
15.39552815909322
 20
5.890330874224638
 30
0.0
 10
15.39517155888289
 20
5.943628028579925
 30
0.0
 10
15.39048614072434
 20
5.998601671633059
 30
0.0
 10
15.3815783955029
 20
6.054709077994769
 30
0.0
 10
15.36859859186093
 20
6.111448668489256
 30
0.0
 10
15.35171704100527
 20
6.168370145491969
 30
0.0
 10
15.33111710606366
 20
6.225041323180836
 30
0.0
 10
15.30699858060033
 20
6.281048330436443
 30
0.0
 10
15.27955509502918
 20
6.33596220865265
 30
0.0
 10
15.24905595638605
 20
6.389446562211436
 30
0.0
 10
15.21554184778492
 20
6.440847715790689
 30
0.0
 10
15.18777911501206
 20
6.479764828495686
 30
0.0
 10
15.1705387088566
 20
6.500422172876183
 30
0.0
 10
15.16613946895507
 20
6.505693313987298
 30
0.0
  0
SPLINE
  5
1AF
330
1F
100
AcDbEntity
  8
0
  6
Continuous
 62
     7
370
    25
100
AcDbSpline
210
0.0
220
0.0
230
1.0
 70
     8
 71
     3
 72
    10
 73
     6
 74
     0
 42
0.000000001
 43
0.00000001
 40
0.0
 40
0.0
 40
0.0
 40
0.0
 40
0.381387453004019
 40
0.6824803856949414
 40
1.0
 40
1.0
 40
1.0
 40
1.0
 10
14.4852075024367
 20
5.719479274280954
 30
0.0
 10
14.48711313747208
 20
5.720301763562119
 30
0.0
 10
14.49052320910317
 20
5.721773581256746
 30
0.0
 10
14.50038013077683
 20
5.720853051763885
 30
0.0
 10
14.50850059468567
 20
5.716871128414652
 30
0.0
 10
14.51266864232846
 20
5.714827298601984
 30
0.0
  0
LINE
  5
1B0
330
1F
100
AcDbEntity
  8
0
  6
Continuous
 62
     7
370
    25
100
AcDbLine
 10
14.0665855811
 20
6.145860491
 30
0.0
 11
14.2516449224
 21
6.0390280072
 31
0.0
  0
LINE
  5
1B1
330
1F
100
AcDbEntity
  8
0
  6
Continuous
 62
     7
370
    25
100
AcDbLine
 10
14.2516449223
 20
6.0390280073
 30
0.0
 11
14.2516449223
 21
5.9478075555
 31
0.0
  0
LINE
  5
1B2
330
1F
100
AcDbEntity
  8
0
  6
Continuous
 62
     7
370
    25
100
AcDbLine
 10
14.2958390962
 20
5.6256583682
 30
0.0
 11
14.2958390962
 21
5.5344379163
 31
0.0
  0
LINE
  5
1B3
330
1F
100
AcDbEntity
  8
0
  6
Continuous
 62
     7
370
    25
100
AcDbLine
 10
14.0223914072
 20
5.7835163588
 30
0.0
 11
14.2958390962
 21
5.6256583681
 31
0.0
  0
SPLINE
  5
1B4
330
1F
100
AcDbEntity
  8
0
  6
Continuous
 62
     7
370
    25
100
AcDbSpline
210
0.0
220
0.0
230
1.0
 70
     8
 71
     3
 72
    38
 73
    34
 74
     0
 42
0.000000001
 43
0.00000001
 40
0.0
 40
0.0
 40
0.0
 40
0.0
 40
0.0254579235359914
 40
0.0574123737082754
 40
0.0894045898403364
 40
0.1216229948457725
 40
0.1541633824658172
 40
0.1870129171174258
 40
0.2200898530005878
 40
0.2532972838363502
 40
0.2865578002631618
 40
0.3198151151025255
 40
0.3530484850891362
 40
0.3862528474944587
 40
0.4194304127948749
 40
0.452587076235342
 40
0.4857304727108598
 40
0.5188690204206957
 40
0.5520112516866541
 40
0.5851634327479113
 40
0.6183346388888546
 40
0.6515338492685149
 40
0.6847694395821559
 40
0.7180480413824004
 40
0.7513722266435433
 40
0.7847362260249581
 40
0.8181136449442639
 40
0.851441485898097
 40
0.8846290311447286
 40
0.917563144235369
 40
0.9501520276382204
 40
0.9823893828040474
 40
1.0
 40
1.0
 40
1.0
 40
1.0
 10
13.15113540222134
 20
6.745485573775061
 30
0.0
 10
13.14367412740456
 20
6.741585159859111
 30
0.0
 10
13.12684755875233
 20
6.732788997790243
 30
0.0
 10
13.10410024554911
 20
6.713403706080264
 30
0.0
 10
13.08267617845092
 20
6.688749239514697
 30
0.0
 10
13.06481319113626
 20
6.659792903011873
 30
0.0
 10
13.05056879135227
 20
6.626959107550804
 30
0.0
 10
13.04014005886854
 20
6.590494583058737
 30
0.0
 10
13.03366301030031
 20
6.550804862710559
 30
0.0
 10
13.03122796555814
 20
6.508355090526874
 30
0.0
 10
13.03285690831023
 20
6.463662213559496
 30
0.0
 10
13.03851147353061
 20
6.417256964694916
 30
0.0
 10
13.04810311596632
 20
6.369671731349403
 30
0.0
 10
13.0615033929617
 20
6.321433100298388
 30
0.0
 10
13.07854768091445
 20
6.273067305797564
 30
0.0
 10
13.09903703167384
 20
6.225099336128101
 30
0.0
 10
13.12273984644065
 20
6.17804948033601
 30
0.0
 10
13.14939381090938
 20
6.132428969496035
 30
0.0
 10
13.17870769719362
 20
6.088736066874953
 30
0.0
 10
13.21036504316472
 20
6.047449547823263
 30
0.0
 10
13.24402807568323
 20
6.009023695319232
 30
0.0
 10
13.27934282099199
 20
5.973883377503482
 30
0.0
 10
13.3159424057183
 20
5.942422072215211
 30
0.0
 10
13.35345072221433
 20
5.914999813664634
 30
0.0
 10
13.39148458825163
 20
5.891942635515344
 30
0.0
 10
13.42965172079426
 20
5.87354294159309
 30
0.0
 10
13.46754004212073
 20
5.860061431703493
 30
0.0
 10
13.50471671831031
 20
5.851706741979881
 30
0.0
 10
13.54070072935557
 20
5.848650932310223
 30
0.0
 10
13.57505323030172
 20
5.85086980988208
 30
0.0
 10
13.60710457210329
 20
5.858599687377347
 30
0.0
 10
13.63264560971781
 20
5.868785833469041
 30
0.0
 10
13.64619615021982
 20
5.878203167260748
 30
0.0
 10
13.65098337365686
 20
5.881530184440274
 30
0.0
  0
LINE
  5
1B5
330
1F
100
AcDbEntity
  8
0
  6
Continuous
 62
     7
370
    25
100
AcDbLine
 10
13.1572271992
 20
6.7499124106
 30
0.0
 11
13.1413172966
 21
6.7407278194
 31
0.0
  0
LINE
  5
1B6
330
1F
100
AcDbEntity
  8
0
  6
Continuous
 62
     7
370
    25
100
AcDbLine
 10
13.6412766629
 20
5.874678957
 30
0.0
 11
13.6571865655
 21
5.8838635482
 31
0.0
  0
LINE
  5
1B7
330
1F
100
AcDbEntity
  8
0
  6
Continuous
 62
     7
370
    25
100
AcDbLine
 10
12.0349212649
 20
6.6179999803
 30
0.0
 11
14.3259472359
 21
5.2954188391
 31
0.0
  0
LINE
  5
1B8
330
1F
100
AcDbEntity
  8
0
  6
Continuous
 62
     7
370
    25
100
AcDbLine
 10
13.6287851658
 20
6.2250823685
 30
0.0
 11
13.703637167
 21
6.181871228
 31
0.0
  0
LINE
  5
1B9
330
1F
100
AcDbEntity
  8
0
  6
Continuous
 62
     7
370
    25
100
AcDbLine
 10
13.7036371669
 20
6.1818712281
 30
0.0
 11
13.7036371669
 21
6.0498237357
 31
0.0
  0
SPLINE
  5
1BA
330
1F
100
AcDbEntity
  8
0
  6
Continuous
 62
     7
370
    25
100
AcDbSpline
210
0.0
220
0.0
230
1.0
 70
     8
 71
     3
 72
    10
 73
     6
 74
     0
 42
0.000000001
 43
0.00000001
 40
0.0
 40
0.0
 40
0.0
 40
0.0
 40
0.3813874530039887
 40
0.6824803856949148
 40
1.0
 40
1.0
 40
1.0
 40
1.0
 10
13.60132402595352
 20
6.229734344170148
 30
0.0
 10
13.6032296609889
 20
6.230556833451313
 30
0.0
 10
13.60663973261999
 20
6.232028651145938
 30
0.0
 10
13.61649665429365
 20
6.231108121653079
 30
0.0
 10
13.62461711820248
 20
6.227126198303846
 30
0.0
 10
13.62878516584528
 20
6.225082368491178
 30
0.0
  0
LINE
  5
1BB
330
1F
100
AcDbEntity
  8
0
  6
Continuous
 62
     7
370
    25
100
AcDbLine
 10
13.1827021046
 20
6.6561155609
 30
0.0
 11
13.3677614459
 21
6.5492830771
 31
0.0
  0
LINE
  5
1BC
330
1F
100
AcDbEntity
  8
0
  6
Continuous
 62
     7
370
    25
100
AcDbLine
 10
13.3677614459
 20
6.5492830772
 30
0.0
 11
13.3677614459
 21
6.4580626254
 31
0.0
  0
LINE
  5
1BD
330
1F
100
AcDbEntity
  8
0
  6
Continuous
 62
     7
370
    25
100
AcDbLine
 10
13.1385079308
 20
6.2937714287
 30
0.0
 11
13.4119556197
 21
6.135913438
 31
0.0
  0
LINE
  5
1BE
330
1F
100
AcDbEntity
  8
0
  6
Continuous
 62
     7
370
    25
100
AcDbLine
 10
13.4119556197
 20
6.1359134381
 30
0.0
 11
13.4119556197
 21
6.0446929862
 31
0.0
  0
SPLINE
  5
1BF
330
1F
100
AcDbEntity
  8
0
  6
Continuous
 62
     7
370
    25
100
AcDbSpline
210
0.0
220
0.0
230
1.0
 70
     8
 71
     3
 72
    38
 73
    34
 74
     0
 42
0.000000001
 43
0.00000001
 40
0.0
 40
0.0
 40
0.0
 40
0.0
 40
0.0254579235359909
 40
0.0574123737082752
 40
0.0894045898403377
 40
0.1216229948457738
 40
0.1541633824658178
 40
0.1870129171174274
 40
0.2200898530005896
 40
0.2532972838363522
 40
0.2865578002631625
 40
0.3198151151025252
 40
0.3530484850891368
 40
0.3862528474944594
 40
0.4194304127948761
 40
0.4525870762353419
 40
0.4857304727108611
 40
0.5188690204206969
 40
0.5520112516866558
 40
0.5851634327479122
 40
0.6183346388888561
 40
0.6515338492685164
 40
0.6847694395821579
 40
0.7180480413824024
 40
0.7513722266435457
 40
0.78473622602496
 40
0.8181136449442653
 40
0.851441485898099
 40
0.8846290311447303
 40
0.9175631442353706
 40
0.9501520276382224
 40
0.98238938280405
 40
1.0
 40
1.0
 40
1.0
 40
1.0
 10
12.26725192573816
 20
7.255740643664253
 30
0.0
 10
12.25979065092137
 20
7.251840229748305
 30
0.0
 10
12.24296408226915
 20
7.243044067679437
 30
0.0
 10
12.22021676906592
 20
7.223658775969458
 30
0.0
 10
12.19879270196774
 20
7.19900430940389
 30
0.0
 10
12.18092971465308
 20
7.170047972901065
 30
0.0
 10
12.16668531486909
 20
7.137214177439997
 30
0.0
 10
12.15625658238536
 20
7.10074965294793
 30
0.0
 10
12.14977953381712
 20
7.061059932599752
 30
0.0
 10
12.14734448907496
 20
7.018610160416066
 30
0.0
 10
12.14897343182705
 20
6.97391728344869
 30
0.0
 10
12.15462799704743
 20
6.92751203458411
 30
0.0
 10
12.16421963948313
 20
6.879926801238597
 30
0.0
 10
12.17761991647852
 20
6.831688170187582
 30
0.0
 10
12.19466420443126
 20
6.783322375686759
 30
0.0
 10
12.21515355519066
 20
6.735354406017295
 30
0.0
 10
12.23885636995747
 20
6.688304550225205
 30
0.0
 10
12.26551033442619
 20
6.642684039385228
 30
0.0
 10
12.29482422071044
 20
6.598991136764147
 30
0.0
 10
12.32648156668154
 20
6.557704617712456
 30
0.0
 10
12.36014459920004
 20
6.519278765208426
 30
0.0
 10
12.39545934450881
 20
6.484138447392675
 30
0.0
 10
12.43205892923512
 20
6.452677142104405
 30
0.0
 10
12.46956724573115
 20
6.425254883553828
 30
0.0
 10
12.50760111176845
 20
6.402197705404537
 30
0.0
 10
12.54576824431107
 20
6.383798011482284
 30
0.0
 10
12.58365656563755
 20
6.370316501592687
 30
0.0
 10
12.62083324182712
 20
6.361961811869075
 30
0.0
 10
12.65681725287238
 20
6.358906002199416
 30
0.0
 10
12.69116975381854
 20
6.361124879771274
 30
0.0
 10
12.7232210956201
 20
6.368854757266541
 30
0.0
 10
12.74876213323462
 20
6.379040903358234
 30
0.0
 10
12.76231267373664
 20
6.388458237149941
 30
0.0
 10
12.76709989717368
 20
6.391785254329468
 30
0.0
  0
LINE
  5
1C0
330
1F
100
AcDbEntity
  8
0
  6
Continuous
 62
     7
370
    25
100
AcDbLine
 10
12.2733437227
 20
7.2601674805
 30
0.0
 11
12.2574338201
 21
7.2509828893
 31
0.0
  0
LINE
  5
1C1
330
1F
100
AcDbEntity
  8
0
  6
Continuous
 62
     7
370
    25
100
AcDbLine
 10
12.7573931864
 20
6.3849340269
 30
0.0
 11
12.773303089
 21
6.3941186181
 31
0.0
  0
LINE
  5
1C2
330
1F
100
AcDbEntity
  8
0
  6
Continuous
 62
     7
370
    25
100
AcDbLine
 10
12.7918271276
 20
8.4253471237
 30
0.0
 11
12.1133225909
 21
9.0236287277
 31
0.0
  0
LINE
  5
1C3
330
1F
100
AcDbEntity
  8
0
  6
Continuous
 62
     7
370
    25
100
AcDbLine
 10
12.7449016894
 20
6.7353374384
 30
0.0
 11
12.8197536905
 21
6.6921262979
 31
0.0
  0
LINE
  5
1C4
330
1F
100
AcDbEntity
  8
0
  6
Continuous
 62
     7
370
    25
100
AcDbLine
 10
12.8197536904
 20
6.692126298
 30
0.0
 11
12.8197536904
 21
6.5600788056
 31
0.0
  0
LINE
  5
1C5
330
1F
100
AcDbEntity
  8
0
  6
Continuous
 62
     7
370
    25
100
AcDbLine
 10
11.7642714227
 20
8.1416445796
 30
0.0
 11
12.4611219482
 21
7.9515365448
 31
0.0
  0
SPLINE
  5
1C6
330
1F
100
AcDbEntity
  8
0
  6
Continuous
 62
     7
370
    25
100
AcDbSpline
210
0.0
220
0.0
230
1.0
 70
     8
 71
     3
 72
    10
 73
     6
 74
     0
 42
0.000000001
 43
0.00000001
 40
0.0
 40
0.0
 40
0.0
 40
0.0
 40
0.3813874530039877
 40
0.682480385694912
 40
1.0
 40
1.0
 40
1.0
 40
1.0
 10
12.71744054947034
 20
6.739989414059342
 30
0.0
 10
12.71934618450572
 20
6.740811903340507
 30
0.0
 10
12.7227562561368
 20
6.742283721035133
 30
0.0
 10
12.73261317781047
 20
6.741363191542272
 30
0.0
 10
12.7407336417193
 20
6.737381268193039
 30
0.0
 10
12.7449016893621
 20
6.735337438380371
 30
0.0
  0
SPLINE
  5
1C7
330
1F
100
AcDbEntity
  8
0
  6
Continuous
 62
     7
370
    25
100
AcDbSpline
210
0.0
220
0.0
230
1.0
 70
     8
 71
     3
 72
    36
 73
    32
 74
     0
 42
0.000000001
 43
0.00000001
 40
0.0
 40
0.0
 40
0.0
 40
0.0
 40
0.0198531319555377
 40
0.0536651500514756
 40
0.0875528560879288
 40
0.1217805858671476
 40
0.1564861452117962
 40
0.1916601531998364
 40
0.227189209371627
 40
0.262928136846472
 40
0.2987552257744199
 40
0.334579621658924
 40
0.3703666217847804
 40
0.4061077655436496
 40
0.4418066420128097
 40
0.4774729462249465
 40
0.5131192539492606
 40
0.548759444122872
 40
0.5844070247588655
 40
0.6200729298175973
 40
0.6557721311975427
 40
0.6915193506388954
 40
0.7273280553725534
 40
0.763208231400304
 40
0.7991619197329793
 40
0.8351751163545046
 40
0.8711890525625757
 40
0.9070922755326872
 40
0.9427293979530229
 40
0.9779293522867959
 40
0.9999999999999999
 40
0.9999999999999999
 40
0.9999999999999999
 40
0.9999999999999999
 10
11.29909976757117
 20
9.023049123798565
 30
0.0
 10
11.29358275658465
 20
9.019980007438544
 30
0.0
 10
11.27866968276384
 20
9.011683855962056
 30
0.0
 10
11.25764778222815
 20
8.992884261794156
 30
0.0
 10
11.23615082234815
 20
8.967569137458389
 30
0.0
 10
11.21831093926095
 20
8.937962070548192
 30
0.0
 10
11.20411552905463
 20
8.904548757932773
 30
0.0
 10
11.19378139077281
 20
8.867529748447431
 30
0.0
 10
11.18745033294714
 20
8.82731307117514
 30
0.0
 10
11.18522023386132
 20
8.784376287706198
 30
0.0
 10
11.18710969131925
 20
8.739261682612554
 30
0.0
 10
11.19306876928682
 20
8.692521746191755
 30
0.0
 10
11.20299359231189
 20
8.644701529483722
 30
0.0
 10
11.21674175328591
 20
8.59632937687144
 30
0.0
 10
11.23413765251599
 20
8.547927651084164
 30
0.0
 10
11.25497455016382
 20
8.500014822713057
 30
0.0
 10
11.27901608810823
 20
8.453103449582276
 30
0.0
 10
11.30599783139688
 20
8.40769696108776
 30
0.0
 10
11.33562876794165
 20
8.364286291922204
 30
0.0
 10
11.36759520128342
 20
8.323343231420633
 30
0.0
 10
11.40156506877577
 20
8.285315614127965
 30
0.0
 10
11.43719333509673
 20
8.250623105173956
 30
0.0
 10
11.47412478514586
 20
8.219656892985093
 30
0.0
 10
11.51199712676307
 20
8.19277863220901
 30
0.0
 10
11.55044022007609
 20
8.170324107774176
 30
0.0
 10
11.58906927562635
 20
8.152598584202078
 30
0.0
 10
11.62745671171936
 20
8.139906532720852
 30
0.0
 10
11.66516853407478
 20
8.132406825332362
 30
0.0
 10
11.7015750595561
 20
8.130546667800854
 30
0.0
 10
11.73238252675374
 20
8.132967413508597
 30
0.0
 10
11.75001340197445
 20
8.138263864349149
 30
0.0
 10
11.75680789726459
 20
8.14030498311609
 30
0.0
  0
LINE
  5
1C8
330
1F
100
AcDbEntity
  8
0
  6
Continuous
 62
     7
370
    25
100
AcDbLine
 10
11.7331351482
 20
9.2744000408
 30
0.0
 11
11.2982644777
 21
9.0233545464
 31
0.0
  0
LINE
  5
1C9
330
1F
100
AcDbEntity
  8
0
  6
Continuous
 62
     7
370
    25
100
AcDbLine
 10
12.2988186281
 20
7.1663706307
 30
0.0
 11
12.4838779694
 21
7.059538147
 31
0.0
  0
LINE
  5
1CA
330
1F
100
AcDbEntity
  8
0
  6
Continuous
 62
     7
370
    25
100
AcDbLine
 10
12.4838779694
 20
7.0595381471
 30
0.0
 11
12.4838779694
 21
6.9683176952
 31
0.0
  0
SPLINE
  5
1CB
330
1F
100
AcDbEntity
  8
0
  6
Continuous
 62
     7
370
    25
100
AcDbSpline
210
0.0
220
0.0
230
1.0
 70
     8
 71
     3
 72
    53
 73
    49
 74
     0
 42
0.000000001
 43
0.00000001
 40
0.0
 40
0.0
 40
0.0
 40
0.0
 40
0.0112045204407356
 40
0.0326811075412827
 40
0.0542169451206307
 40
0.0758197009730608
 40
0.0974911872449908
 40
0.1192287524874035
 40
0.1410268604270793
 40
0.1628781597908372
 40
0.184774197323653
 40
0.206705880682758
 40
0.2286637673291488
 40
0.2506382344005081
 40
0.2726195699029141
 40
0.2945968094704091
 40
0.3165581246491683
 40
0.3384937319326913
 40
0.3603938927597169
 40
0.3822490060666574
 40
0.4040497820230661
 40
0.4257875364762261
 40
0.4474546606444022
 40
0.4690453400046646
 40
0.4905566225004539
 40
0.5119899712530288
 40
0.5333534843027896
 40
0.5546650295416266
 40
0.5759566378953833
 40
0.5972631928144423
 40
0.6186534241414092
 40
0.6402340163811263
 40
0.6621621456808753
 40
0.6846645362044783
 40
0.7080580436738197
 40
0.7327484840266358
 40
0.7591004622326383
 40
0.786886035766201
 40
0.81089267752883
 40
0.8335370200214778
 40
0.8575802201798463
 40
0.8805209356749102
 40
0.9027423168842712
 40
0.9245413621335191
 40
0.9461095537108208
 40
0.9675696071562849
 40
0.9889995299923833
 40
1.0
 40
1.0
 40
1.0
 40
1.0
 10
11.46448173370043
 20
8.054939796950833
 30
0.0
 10
11.45575495325903
 20
8.060084312327575
 30
0.0
 10
11.43030086518781
 20
8.075089725648422
 30
0.0
 10
11.38757758319097
 20
8.103266694594902
 30
0.0
 10
11.33646783359335
 20
8.140791443083618
 30
0.0
 10
11.28530359229917
 20
8.18249589089205
 30
0.0
 10
11.23443033841997
 20
8.228132986561453
 30
0.0
 10
11.18417063416469
 20
8.277517351021062
 30
0.0
 10
11.13484584652682
 20
8.33040569760946
 30
0.0
 10
11.08676626105701
 20
8.38653296956583
 30
0.0
 10
11.04023039537615
 20
8.445606588281256
 30
0.0
 10
10.99552247863876
 20
8.507311758233703
 30
0.0
 10
10.95291087234183
 20
8.571313542628102
 30
0.0
 10
10.91264653206369
 20
8.637259556918409
 30
0.0
 10
10.8749623191018
 20
8.704781040755464
 30
0.0
 10
10.84007181829082
 20
8.77349409611036
 30
0.0
 10
10.80816643496392
 20
8.843003933491035
 30
0.0
 10
10.77941343041103
 20
8.91290852867561
 30
0.0
 10
10.75395441766522
 20
8.982801859153467
 30
0.0
 10
10.73190481000918
 20
9.052274067787597
 30
0.0
 10
10.71335204226648
 20
9.12091396824726
 30
0.0
 10
10.69835364953762
 20
9.188311878289282
 30
0.0
 10
10.68693523835439
 20
9.254062917579418
 30
0.0
 10
10.67908843158753
 20
9.317770937868064
 30
0.0
 10
10.67476894297173
 20
9.379053283265394
 30
0.0
 10
10.67389505086676
 20
9.437546604467903
 30
0.0
 10
10.67634691307077
 20
9.492913967592893
 30
0.0
 10
10.68196741850513
 20
9.54485348658514
 30
0.0
 10
10.69056331689553
 20
9.593095509009666
 30
0.0
 10
10.70190972863195
 20
9.637424101979667
 30
0.0
 10
10.71576259676217
 20
9.677694465467178
 30
0.0
 10
10.73188678979094
 20
9.713857804734817
 30
0.0
 10
10.75009580219083
 20
9.74596870425559
 30
0.0
 10
10.77031590261623
 20
9.774190620972698
 30
0.0
 10
10.79268038741232
 20
9.798779202944385
 30
0.0
 10
10.8176306738586
 20
9.820000673107861
 30
0.0
 10
10.84587753457796
 20
9.837912414098707
 30
0.0
 10
10.87654540653504
 20
9.851472872154934
 30
0.0
 10
10.90906903100947
 20
9.860684884689125
 30
0.0
 10
10.9433276358443
 20
9.866022171581248
 30
0.0
 10
10.98067267117991
 20
9.867519490720499
 30
0.0
 10
11.02141121323295
 20
9.86476374267438
 30
0.0
 10
11.06399637521239
 20
9.85776395348063
 30
0.0
 10
11.10841527031309
 20
9.846491246895734
 30
0.0
 10
11.15457150033749
 20
9.83090049333575
 30
0.0
 10
11.20229503261944
 20
9.810859682870598
 30
0.0
 10
11.2433399618893
 20
9.790547014778875
 30
0.0
 10
11.26847209066788
 20
9.776341910138608
 30
0.0
 10
11.27699697133117
 20
9.771523503272451
 30
0.0
  0
SPLINE
  5
1CC
330
1F
100
AcDbEntity
  8
0
  6
Continuous
 62
     7
370
    25
100
AcDbSpline
210
0.0
220
0.0
230
1.0
 70
     8
 71
     3
 72
    58
 73
    54
 74
     0
 42
0.000000001
 43
0.00000001
 40
0.0
 40
0.0
 40
0.0
 40
0.0
 40
0.0110988966652772
 40
0.031844839872745
 40
0.052601344470004
 40
0.0733076130792243
 40
0.0939120153573288
 40
0.114355051910443
 40
0.1345764948919936
 40
0.1545252384875415
 40
0.1741690404773755
 40
0.193500980082439
 40
0.2125409154070052
 40
0.2313324531744002
 40
0.2499373341993081
 40
0.2684291362306371
 40
0.2868818488096664
 40
0.3053553171636316
 40
0.3239277161074345
 40
0.3426692651932148
 40
0.3616373095951922
 40
0.3808715745422001
 40
0.4003903387214511
 40
0.4201887411230902
 40
0.4402403771779663
 40
0.4605024862690525
 40
0.4809236480068512
 40
0.5014518475834863
 40
0.5220408061192439
 40
0.5426522289174751
 40
0.5632538067724965
 40
0.5838306655054148
 40
0.6043747898456271
 40
0.6248832192148919
 40
0.6453565248642233
 40
0.665797647677589
 40
0.6862110652507484
 40
0.7066022226928749
 40
0.7269771592611228
 40
0.7473422728812837
 40
0.767704176946923
 40
0.7880693716353818
 40
0.8084426574968291
 40
0.8288308886599154
 40
0.8492408989761695
 40
0.8696794083905026
 40
0.890152866407399
 40
0.9106671932380679
 40
0.9312273672148443
 40
0.9518367917527372
 40
0.9724963612619749
 40
0.9932031431836154
 40
1.0
 40
1.0
 40
1.0
 40
1.0
 10
11.46448173370043
 20
10.09629182666521
 30
0.0
 10
11.4524606823215
 20
10.10308458411784
 30
0.0
 10
11.41797000565256
 20
10.12257429376171
 30
0.0
 10
11.36053998707095
 20
10.15105883619717
 30
0.0
 10
11.29226553982409
 20
10.17997967911479
 30
0.0
 10
11.22391278168246
 20
10.2035960868707
 30
0.0
 10
11.15585890329803
 20
10.22178912448318
 30
0.0
 10
11.08847694765321
 20
10.2343906367738
 30
0.0
 10
11.02216513974848
 20
10.24132079910225
 30
0.0
 10
10.95731985213182
 20
10.24256446872891
 30
0.0
 10
10.8943135543312
 20
10.23818101266989
 30
0.0
 10
10.83347595912879
 20
10.22829132980571
 30
0.0
 10
10.77508528480846
 20
10.21306021516379
 30
0.0
 10
10.7193691821063
 20
10.1926756654915
 30
0.0
 10
10.66651227010818
 20
10.16733063511298
 30
0.0
 10
10.61667132366964
 20
10.13721209199708
 30
0.0
 10
10.569996514404
 20
10.10250362048327
 30
0.0
 10
10.52661639365203
 20
10.06337332529281
 30
0.0
 10
10.48664210398822
 20
10.01996539627331
 30
0.0
 10
10.45016987268767
 20
9.972386501178121
 30
0.0
 10
10.41730718589697
 20
9.920730810629127
 30
0.0
 10
10.38817696717011
 20
9.86509752273074
 30
0.0
 10
10.36291596491466
 20
9.805611627916099
 30
0.0
 10
10.34166659390731
 20
9.742443181175659
 30
0.0
 10
10.32456352732496
 20
9.675819426939178
 30
0.0
 10
10.31171856977326
 20
9.606025655531775
 30
0.0
 10
10.30320831786664
 20
9.533394552151085
 30
0.0
 10
10.29906798037859
 20
9.458288106720401
 30
0.0
 10
10.29929206842234
 20
9.381079957991204
 30
0.0
 10
10.30383934644778
 20
9.302145777420883
 30
0.0
 10
10.31263983828937
 20
9.22184460891635
 30
0.0
 10
10.32560374570047
 20
9.140514644520854
 30
0.0
 10
10.34262995062734
 20
9.058469248722169
 30
0.0
 10
10.36360855342309
 20
8.976011442660122
 30
0.0
 10
10.38842255458704
 20
8.893437073748238
 30
0.0
 10
10.41694856542766
 20
8.811037270264958
 30
0.0
 10
10.44905699632839
 20
8.729100035104484
 30
0.0
 10
10.4846120367274
 20
8.64791106236374
 30
0.0
 10
10.52347162268601
 20
8.567753942513852
 30
0.0
 10
10.5654875010296
 20
8.488909932352321
 30
0.0
 10
10.61050526163243
 20
8.411657755981768
 30
0.0
 10
10.65836325920433
 20
8.336275100334639
 30
0.0
 10
10.70889433711199
 20
8.263035099523032
 30
0.0
 10
10.76192681160865
 20
8.192205270597356
 30
0.0
 10
10.81728704274768
 20
8.124045164356241
 30
0.0
 10
10.87479859733488
 20
8.058808460252662
 30
0.0
 10
10.93428296425604
 20
7.996743487953552
 30
0.0
 10
10.99555980394579
 20
7.938091786656595
 30
0.0
 10
11.05844763285609
 20
7.88309575586079
 30
0.0
 10
11.12276050233488
 20
7.831974197322292
 30
0.0
 10
11.1883158624787
 20
7.78501994397062
 30
0.0
 10
11.23994307250099
 20
7.75184834149974
 30
0.0
 10
11.26965451050759
 20
7.734466879943488
 30
0.0
 10
11.27699697133117
 20
7.730171473558077
 30
0.0
  0
LINE
  5
1CD
330
1F
100
AcDbEntity
  8
0
  6
Continuous
 62
     7
370
    25
100
AcDbLine
 10
12.2546244543
 20
6.8040264986
 30
0.0
 11
12.5280721433
 21
6.6461685078
 31
0.0
  0
LINE
  5
1CE
330
1F
100
AcDbEntity
  8
0
  6
Continuous
 62
     7
370
    25
100
AcDbLine
 10
12.5280721432
 20
6.646168508
 30
0.0
 11
12.5280721432
 21
6.5549480561
 31
0.0
  0
SPLINE
  5
1CF
330
1F
100
AcDbEntity
  8
0
  6
Continuous
 62
     7
370
    25
100
AcDbSpline
210
0.0
220
0.0
230
1.0
 70
     8
 71
     3
 72
    33
 73
    29
 74
     0
 42
0.000000001
 43
0.00000001
 40
0.0
 40
0.0
 40
0.0
 40
0.0
 40
0.0249177953108302
 40
0.0608150155624342
 40
0.0968027615708347
 40
0.1332010092211662
 40
0.1702661074700692
 40
0.2081531142489643
 40
0.2468868977157318
 40
0.2863609988555475
 40
0.326377119622887
 40
0.3667114822709657
 40
0.4071710597292698
 40
0.4475993886693659
 40
0.4879418512932451
 40
0.5281817108955197
 40
0.5683254689646259
 40
0.6083926363178054
 40
0.648409567915734
 40
0.6884060924486082
 40
0.7284138103812551
 40
0.7684553736594202
 40
0.8085628960529251
 40
0.8487691222642776
 40
0.8891050803980369
 40
0.9295970577278654
 40
0.9702607924976179
 40
1.0
 40
1.0
 40
1.0
 40
1.0
 10
11.74356852698451
 20
7.765619514544933
 30
0.0
 10
11.73551918709449
 20
7.760876913362261
 30
0.0
 10
11.71587376001828
 20
7.749301998281182
 30
0.0
 10
11.68814882980638
 20
7.725533482236853
 30
0.0
 10
11.66034192386895
 20
7.695528242988292
 30
0.0
 10
11.6362546506244
 20
7.661387869663868
 30
0.0
 10
11.61585073670902
 20
7.623474788534372
 30
0.0
 10
11.59930716784699
 20
7.581857840220395
 30
0.0
 10
11.58678533298894
 20
7.536748509052183
 30
0.0
 10
11.57845811102453
 20
7.488449428521592
 30
0.0
 10
11.57444909630996
 20
7.437391980884488
 30
0.0
 10
11.57480569857384
 20
7.38409482585352
 30
0.0
 10
11.57949111320944
 20
7.329121179042503
 30
0.0
 10
11.58839887044826
 20
7.273013788379065
 30
0.0
 10
11.60137862967861
 20
7.216274139028331
 30
0.0
 10
11.61826034558885
 20
7.159352880989466
 30
0.0
 10
11.63885966668862
 20
7.10268088890844
 30
0.0
 10
11.66298047676401
 20
7.046676912694316
 30
0.0
 10
11.69041545104071
 20
6.991751742365569
 30
0.0
 10
11.72094633382313
 20
6.93830950442214
 30
0.0
 10
11.75434191734147
 20
6.886751101129451
 30
0.0
 10
11.79036114674777
 20
6.837468891374129
 30
0.0
 10
11.82875533264375
 20
6.790841409852466
 30
0.0
 10
11.86927602608977
 20
6.747240459402752
 30
0.0
 10
11.91166867712688
 20
6.706994004138783
 30
0.0
 10
11.9556955190611
 20
6.670546659564744
 30
0.0
 10
11.99692451296893
 20
6.640844816641276
 30
0.0
 10
12.02363737201496
 20
6.624784209800532
 30
0.0
 10
12.0349212648824
 20
6.617999980277781
 30
0.0
  0
LINE
  5
1D0
330
1F
100
AcDbEntity
  8
0
  6
Continuous
 62
     7
370
    25
100
AcDbLine
 10
12.1917230656
 20
8.0250313479
 30
0.0
 11
11.7449448324
 21
7.7671117638
 31
0.0
  0
SPLINE
  5
1D1
330
1F
100
AcDbEntity
  8
0
  6
Continuous
 62
     7
370
    25
100
AcDbSpline
210
0.0
220
0.0
230
1.0
 70
     8
 71
     3
 72
    26
 73
    22
 74
     0
 42
0.000000001
 43
0.00000001
 40
0.0
 40
0.0
 40
0.0
 40
0.0
 40
0.0132272773764277
 40
0.0697492947192211
 40
0.126230766172972
 40
0.1826929905285865
 40
0.2391585897613161
 40
0.2956448770591324
 40
0.3521737747945037
 40
0.4087688969378401
 40
0.4654527168677059
 40
0.5222440247336154
 40
0.5791526113260086
 40
0.6361691886550388
 40
0.693241625295598
 40
0.7502199725319748
 40
0.8068900109168412
 40
0.8629794200151234
 40
0.9182576805734832
 40
0.9726794333507687
 40
1.0
 40
1.0
 40
1.0
 40
1.0
 10
12.3081907461241
 20
8.851800794102559
 30
0.0
 10
12.3069807492178
 20
8.855570068877606
 30
0.0
 10
12.30060026528112
 20
8.875445985113473
 30
0.0
 10
12.28550824773762
 20
8.911310572964194
 30
0.0
 10
12.26304120280338
 20
8.958712766456244
 30
0.0
 10
12.23721843394942
 20
9.004823080428135
 30
0.0
 10
12.20869925571594
 20
9.049145527629756
 30
0.0
 10
12.17768654494217
 20
9.091199242314323
 30
0.0
 10
12.14453244671331
 20
9.130525567127222
 30
0.0
 10
12.10956952253121
 20
9.166692673390774
 30
0.0
 10
12.0731510209828
 20
9.199297099301644
 30
0.0
 10
12.03563596139706
 20
9.227964481244802
 30
0.0
 10
11.99739083653747
 20
9.252348779915728
 30
0.0
 10
11.95879214706543
 20
9.272130450289042
 30
0.0
 10
11.92024546181406
 20
9.287010544667055
 30
0.0
 10
11.88219061893514
 20
9.296735568464085
 30
0.0
 10
11.84513720086013
 20
9.301084351779549
 30
0.0
 10
11.80956664238355
 20
9.300055852857385
 30
0.0
 10
11.77621672610018
 20
9.293367537376056
 30
0.0
 10
11.74993647891261
 20
9.284201621756004
 30
0.0
 10
11.73603609861802
 20
9.275479804526807
 30
0.0
 10
11.73139020321216
 20
9.272564729562154
 30
0.0
  0
LINE
  5
1D2
330
1F
100
AcDbEntity
  8
0
  6
Continuous
 62
     7
370
    25
100
AcDbLine
 10
12.5551231663
 20
9.0336769564
 30
0.0
 11
12.2960372386
 21
8.884109834
 31
0.0
  0
LINE
  5
1D3
330
1F
100
AcDbEntity
  8
0
  6
Continuous
 62
     7
370
    25
100
AcDbLine
 10
11.2769969713
 20
7.7301714736
 30
0.0
 11
11.5909937514
 21
7.5489049908
 31
0.0
  0
LINE
  5
1D4
330
1F
100
AcDbEntity
  8
0
  6
Continuous
 62
     7
370
    25
100
AcDbLine
 10
11.8540066831
 20
7.8300718301
 30
0.0
 11
11.4644817337
 21
8.054939797
 31
0.0
  0
LWPOLYLINE
  5
1D5
330
1F
100
AcDbEntity
  8
0
  6
Continuous
 62
     7
370
    25
100
AcDbPolyline
 90
       14
 70
   128
 43
0.0
 10
12.5293040871
 20
8.0279059787
 10
12.5172433321
 20
8.0369470821
 10
12.504363462
 20
8.0535327319
 10
12.4955251993
 20
8.0747754913
 10
12.4910295205
 20
8.0999519634
 10
12.4910295205
 20
8.1282047939
 10
12.4955251993
 20
8.1585718663
 10
12.504363462
 20
8.1900190665
 10
12.5172433321
 20
8.2214754979
 10
12.5337262012
 20
8.2518699492
 10
12.5532507648
 20
8.2801673741
 10
12.5751521373
 20
8.3054041375
 10
12.5986844939
 20
8.3267208319
 10
12.6230464683
 20
8.3433915426
  0
ARC
  5
1D6
330
1F
100
AcDbEntity
  8
0
  6
Continuous
 62
     7
370
    25
100
AcDbCircle
 10
12.6775752211
 20
8.2707026724
 30
0.0
 40
0.0908683483921536
100
AcDbArc
 50
64.4344571761
 51
126.876001253
  0
LWPOLYLINE
  5
1D7
330
1F
100
AcDbEntity
  8
0
  6
Continuous
 62
     7
370
    25
100
AcDbPolyline
 90
       31
 70
   128
 43
0.0
 10
14.3052324944
 20
5.3412033198
 10
14.3481019099
 20
5.3190497287
 10
14.390501639
 20
5.3023276484
 10
14.4319671415
 20
5.2912202894
 10
14.4720441128
 20
5.2858493464
 10
14.510293461
 20
5.2862736644
 10
14.5462961184
 20
5.2924885946
 10
14.5796576322
 20
5.3044260448
 10
14.6100124868
 20
5.321955226
 10
14.6370281081
 20
5.3448840847
 10
14.6604085071
 20
5.3729614075
 10
14.6798975235
 20
5.4058795734
 10
14.6952816314
 20
5.4432779241
 10
14.7063922793
 20
5.4847467154
 10
14.7131077367
 20
5.5298316066
 10
14.7153544275
 20
5.5780386382
 10
14.7131077367
 20
5.6288396439
 10
14.7063922793
 20
5.6816780372
 10
14.6952816314
 20
5.7359749095
 10
14.6798975235
 20
5.7911353731
 10
14.6604085071
 20
5.8465550784
 10
14.6370281081
 20
5.9016268353
 10
14.6100124868
 20
5.9557472663
 10
14.5796576322
 20
6.0083234166
 10
14.5462961184
 20
6.0587792509
 10
14.510293461
 20
6.1065619645
 10
14.4720441128
 20
6.15114804
 10
14.4319671415
 20
6.192048983
 10
14.390501639
 20
6.2288166742
 10
14.3481019099
 20
6.2610482791
 10
14.3052324944
 20
6.2883906616
  0
ARC
  5
1D8
330
1F
100
AcDbEntity
  8
0
  6
Continuous
 62
     7
370
    25
100
AcDbCircle
 10
14.4587541046
 20
6.2814045763
 30
0.0
 40
0.1536804807572077
100
AcDbArc
 50
122.60547834
 51
177.3945215143
  0
LINE
  5
1D9
330
1F
100
AcDbEntity
  8
0
  6
Continuous
 62
     7
370
    25
100
AcDbLine
 10
12.0142065234
 20
6.6637844609
 30
0.0
 11
14.3052324944
 21
5.3412033198
 31
0.0
  0
LWPOLYLINE
  5
1DA
330
1F
100
AcDbEntity
  8
0
  6
Continuous
 62
     7
370
    25
100
AcDbPolyline
 90
       31
 70
   128
 43
0.0
 10
12.0142065234
 20
7.6109718027
 10
11.971337108
 20
7.6331253938
 10
11.9289373788
 20
7.6498474741
 10
11.8874718763
 20
7.6609548331
 10
11.8473949051
 20
7.6663257761
 10
11.8091455569
 20
7.6659014581
 10
11.7731428995
 20
7.6596865279
 10
11.7397813856
 20
7.6477490776
 10
11.709426531
 20
7.6302198965
 10
11.6824109098
 20
7.6072910378
 10
11.6590305107
 20
7.579213715
 10
11.6395414943
 20
7.5462955491
 10
11.6241573865
 20
7.5088971984
 10
11.6130467385
 20
7.4674284071
 10
11.6063312812
 20
7.4223435159
 10
11.6040845903
 20
7.3741364842
 10
11.6063312812
 20
7.3233354786
 10
11.6130467385
 20
7.2704970853
 10
11.6241573865
 20
7.2162002129
 10
11.6395414943
 20
7.1610397494
 10
11.6590305107
 20
7.1056200441
 10
11.6824109098
 20
7.0505482872
 10
11.709426531
 20
6.9964278561
 10
11.7397813856
 20
6.9438517058
 10
11.7731428995
 20
6.8933958716
 10
11.8091455569
 20
6.845613158
 10
11.8473949051
 20
6.8010270825
 10
11.8874718763
 20
6.7601261395
 10
11.9289373788
 20
6.7233584483
 10
11.971337108
 20
6.6911268434
 10
12.0142065234
 20
6.6637844609
  0
LINE
  5
1DB
330
1F
100
AcDbEntity
  8
0
  6
Continuous
 62
     7
370
    25
100
AcDbLine
 10
14.3052324944
 20
6.2883906616
 30
0.0
 11
12.0142065234
 21
7.6109718027
 31
0.0
  0
LWPOLYLINE
  5
1DC
330
1F
100
AcDbEntity
  8
0
  6
Continuous
 62
     7
370
    25
100
AcDbPolyline
 90
       56
 70
   128
 43
0.0
 10
14.6004495756
 20
5.5933462903
 10
14.5982372032
 20
5.6393012121
 10
14.5916289277
 20
5.6872113921
 10
14.5807108981
 20
5.7364522476
 10
14.5656254475
 20
5.7863818489
 10
14.5465692379
 20
5.8363492873
 10
14.5237906962
 20
5.8857031608
 10
14.4975867754
 20
5.9338000662
 10
14.4682990838
 20
5.9800129867
 10
14.4363094311
 20
6.0237394663
 10
14.4020348515
 20
6.0644094635
 10
14.3659221665
 20
6.1014927825
 10
14.3284421601
 20
6.1345059857
 10
14.2900834416
 20
6.1630186955
 10
14.2513460756
 20
6.1866592051
 10
14.2127350628
 20
6.2051193242
 10
14.1747537568
 20
6.218158397
 10
14.137897302
 20
6.2256064393
 10
14.1026461788
 20
6.2273663544
 10
14.0694599393
 20
6.2234151992
 10
14.0387712171
 20
6.2138044829
 10
14.0109800864
 20
6.1986594961
 10
13.9864488473
 20
6.1781776766
 10
13.9654973018
 20
6.1526260365
 10
13.9483985855
 20
6.1223376803
 10
13.9353756063
 20
6.0877074632
 10
13.9265981386
 20
6.0491868429
 10
13.9221806101
 20
6.0072779947
 10
13.9221806101
 20
5.9625272645
 10
13.9265981386
 20
5.9155180465
 10
13.9353756063
 20
5.8668631777
 10
13.9483985855
 20
5.8171969488
 10
13.9654973018
 20
5.767166835
 10
13.9864488473
 20
5.7174250554
 10
14.0109800864
 20
5.6686200701
 10
14.0387712171
 20
5.6213881268
 10
14.0694599393
 20
5.576344966
 10
14.1026461788
 20
5.5340777942
 10
14.137897302
 20
5.4951376288
 10
14.1747537568
 20
5.4600321142
 10
14.2127350628
 20
5.4292189046
 10
14.2513460756
 20
5.4030996972
 10
14.2900834416
 20
5.3820149959
 10
14.3284421601
 20
5.366239672
 10
14.3659221665
 20
5.355979381
 10
14.4020348515
 20
5.3513678814
 10
14.4363094311
 20
5.3524652912
 10
14.4682990838
 20
5.359257304
 10
14.4975867754
 20
5.3716553756
 10
14.5237906962
 20
5.389497878
 10
14.5465692379
 20
5.412552207
 10
14.5656254475
 20
5.4405178142
 10
14.5807108981
 20
5.473030125
 10
14.5916289277
 20
5.5096652919
 10
14.5982372032
 20
5.5499457193
 10
14.6004495756
 20
5.5933462903
  0
LWPOLYLINE
  5
1DD
330
1F
100
AcDbEntity
  8
0
  6
Continuous
 62
     7
370
    25
100
AcDbPolyline
 90
        3
 70
   128
 43
0.0
 10
14.5344900783
 20
5.3702278199
 10
14.5251804562
 20
5.3644356177
 10
14.5251601394
 20
5.3644238871
  0
LINE
  5
1DE
330
1F
100
AcDbEntity
  8
0
  6
Continuous
 62
     7
370
    25
100
AcDbLine
 10
14.0252007731
 20
6.2304727495
 30
0.0
 11
14.0340944109
 21
6.2352540106
 31
0.0
  0
LINE
  5
1DF
330
1F
100
AcDbEntity
  8
0
  6
Continuous
 62
     7
370
    25
100
AcDbLine
 10
14.0560861298
 20
6.2473238026
 30
0.0
 11
14.0411106757
 21
6.2396573407
 31
0.0
  0
LINE
  5
1E0
330
1F
100
AcDbEntity
  8
0
  6
Continuous
 62
     7
370
    25
100
AcDbLine
 10
14.508525694
 20
5.7239841947
 30
0.0
 11
14.5933785078
 21
5.674999708
 31
0.0
  0
LWPOLYLINE
  5
1E1
330
1F
100
AcDbEntity
  8
0
  6
Continuous
 62
     7
370
    25
100
AcDbPolyline
 90
       13
 70
   128
 43
0.0
 10
14.508525694
 20
5.5688414405
 10
14.4911394874
 20
5.5815214645
 10
14.4749381219
 20
5.5986237271
 10
14.461025694
 20
5.6189827371
 10
14.4503503126
 20
5.6412110619
 10
14.4436394874
 20
5.6637938776
 10
14.4413505498
 20
5.6851922029
 10
14.4436394874
 20
5.7039477772
 10
14.4503503126
 20
5.718782439
 10
14.461025694
 20
5.7286852307
 10
14.4749381219
 20
5.7329812935
 10
14.4911394874
 20
5.7313778576
 10
14.508525694
 20
5.7239841947
  0
LINE
  5
1E2
330
1F
100
AcDbEntity
  8
0
  6
Continuous
 62
     7
370
    25
100
AcDbLine
 10
14.5933785078
 20
5.5198569538
 30
0.0
 11
14.508525694
 21
5.5688414405
 31
0.0
  0
LINE
  5
1E3
330
1F
100
AcDbEntity
  8
0
  6
Continuous
 62
     7
370
    25
100
AcDbLine
 10
14.5933785078
 20
5.674999708
 30
0.0
 11
14.5933785078
 21
5.5198569538
 31
0.0
  0
LINE
  5
1E4
330
1F
100
AcDbEntity
  8
0
  6
Continuous
 62
     7
370
    25
100
AcDbLine
 10
14.3016969605
 20
5.5147262043
 30
0.0
 11
14.0082476463
 21
5.6841308875
 31
0.0
  0
LINE
  5
1E5
330
1F
100
AcDbEntity
  8
0
  6
Continuous
 62
     7
370
    25
100
AcDbLine
 10
14.3016969605
 20
5.629041918
 30
0.0
 11
14.3016969605
 21
5.5147262043
 31
0.0
  0
LINE
  5
1E6
330
1F
100
AcDbEntity
  8
0
  6
Continuous
 62
     7
370
    25
100
AcDbLine
 10
14.0082476463
 20
5.7984466012
 30
0.0
 11
14.3016969605
 21
5.629041918
 31
0.0
  0
LINE
  5
1E7
330
1F
100
AcDbEntity
  8
0
  6
Continuous
 62
     7
370
    25
100
AcDbLine
 10
14.0082476463
 20
5.6841308875
 30
0.0
 11
14.0082476463
 21
5.7984466012
 31
0.0
  0
LINE
  5
1E8
330
1F
100
AcDbEntity
  8
0
  6
Continuous
 62
     7
370
    25
100
AcDbLine
 10
14.2575027867
 20
6.0424115571
 30
0.0
 11
14.2575027867
 21
5.9280958434
 31
0.0
  0
LINE
  5
1E9
330
1F
100
AcDbEntity
  8
0
  6
Continuous
 62
     7
370
    25
100
AcDbLine
 10
14.0524418202
 20
6.1607907333
 30
0.0
 11
14.2575027867
 21
6.0424115571
 31
0.0
  0
LINE
  5
1EA
330
1F
100
AcDbEntity
  8
0
  6
Continuous
 62
     7
370
    25
100
AcDbLine
 10
14.0524418202
 20
6.0464750197
 30
0.0
 11
14.0524418202
 21
6.1607907333
 31
0.0
  0
LINE
  5
1EB
330
1F
100
AcDbEntity
  8
0
  6
Continuous
 62
     7
370
    25
100
AcDbLine
 10
14.2575027867
 20
5.9280958434
 30
0.0
 11
14.0524418202
 21
6.0464750197
 31
0.0
  0
LINE
  5
1EC
330
1F
100
AcDbEntity
  8
0
  6
Continuous
 62
     7
370
    25
100
AcDbLine
 10
12.0849172015
 20
7.7334462895
 30
0.0
 11
14.3759431726
 21
6.4108651483
 31
0.0
  0
ARC
  5
1ED
330
1F
100
AcDbEntity
  8
0
  6
Continuous
 62
     7
370
    25
100
AcDbCircle
 10
12.1677281335
 20
7.6039857175
 30
0.0
 40
0.1536804807572026
100
AcDbArc
 50
122.60547834
 51
177.3945215143
  0
ELLIPSE
  5
1EE
330
1F
100
AcDbEntity
  8
0
  6
Continuous
 62
     7
370
    25
100
AcDbEllipse
 10
14.6075206434
 20
5.6831637891
 30
0.0
 11
0.01999999995944357
 21
0.01154763095683542
 31
0.0
210
0.0
220
0.0
230
1.0
 40
0.0000703729
 41
2.356153858520388
 42
3.141633286494569
  0
ELLIPSE
  5
1EF
330
1F
100
AcDbEntity
  8
0
  6
Continuous
 62
     7
370
    25
100
AcDbEllipse
 10
14.6075206434
 20
5.5280210349
 30
0.0
 11
-0.01414271023574898
 21
0.02449456561252549
 31
0.0
210
0.0
220
0.0
230
1.0
 40
0.5773346305
 41
0.7853575313663513
 42
1.570755694763874
  0
ARC
  5
1F0
330
1F
100
AcDbEntity
  8
0
  6
Continuous
 62
     7
370
    25
100
AcDbCircle
 10
14.5392300161
 20
5.5674442234
 30
0.0
 40
0.0307360961514441
100
AcDbArc
 50
122.60547834
 51
177.3945215143
  0
ELLIPSE
  5
1F1
330
1F
100
AcDbEntity
  8
0
  6
Continuous
 62
     7
370
    25
100
AcDbEllipse
 10
14.0665839558
 20
6.1689548144
 30
0.0
 11
-0.01414271023575076
 21
0.02449456561252549
 31
0.0
210
0.0
220
0.0
230
1.0
 40
0.5773346305
 41
1.570755694763843
 42
2.356235122223445
  0
ELLIPSE
  5
1F2
330
1F
100
AcDbEntity
  8
0
  6
Continuous
 62
     7
370
    25
100
AcDbEllipse
 10
14.2716449223
 20
6.0505756382
 30
0.0
 11
0.02000000010712455
 21
0.01154763104210499
 31
0.0
210
0.0
220
0.0
230
1.0
 40
0.0000703729
 41
2.356153854481299
 42
3.141633284317742
  0
ELLIPSE
  5
1F3
330
1F
100
AcDbEntity
  8
0
  6
Continuous
 62
     7
370
    25
100
AcDbEllipse
 10
14.2716449223
 20
5.9362599246
 30
0.0
 11
-0.01414271023575076
 21
0.02449456561252461
 31
0.0
210
0.0
220
0.0
230
1.0
 40
0.5773346305
 41
0.785357531366391
 42
1.570755694763861
  0
ELLIPSE
  5
1F4
330
1F
100
AcDbEntity
  8
0
  6
Continuous
 62
     7
370
    25
100
AcDbEllipse
 10
14.0665839558
 20
6.0546391008
 30
0.0
 11
0.01999999995954482
 21
0.01154763095689316
 31
0.0
210
0.0
220
0.0
230
1.0
 40
0.0000703729
 41
0.7853575307635874
 42
2.35615385931801
  0
LINE
  5
1F5
330
1F
100
AcDbEntity
  8
0
  6
Continuous
 62
     7
370
    25
100
AcDbLine
 10
14.1455910718
 20
6.100251592
 30
0.0
 11
14.0807260914
 21
6.0628058359
 31
0.0
  0
ELLIPSE
  5
1F6
330
1F
100
AcDbEntity
  8
0
  6
Continuous
 62
     7
370
    25
100
AcDbEllipse
 10
14.3158390962
 20
5.6372059991
 30
0.0
 11
0.0199999998849254
 21
0.01154763091381028
 31
0.0
210
0.0
220
0.0
230
1.0
 40
0.0000703729
 41
2.35615386058088
 42
3.141552020580743
  0
ELLIPSE
  5
1F7
330
1F
100
AcDbEntity
  8
0
  6
Continuous
 62
     7
370
    25
100
AcDbEllipse
 10
14.3158390962
 20
5.5228902854
 30
0.0
 11
-0.01414271023575076
 21
0.02449456561252461
 31
0.0
210
0.0
220
0.0
230
1.0
 40
0.5773346305
 41
0.7853575313663584
 42
1.570755694763834
  0
ELLIPSE
  5
1F8
330
1F
100
AcDbEntity
  8
0
  6
Continuous
 62
     7
370
    25
100
AcDbEllipse
 10
14.022389782
 20
5.8066106823
 30
0.0
 11
-0.01414271023575076
 21
0.02449456561252461
 31
0.0
210
0.0
220
0.0
230
1.0
 40
0.5773346305
 41
1.570755694763834
 42
2.356235122223339
  0
ELLIPSE
  5
1F9
330
1F
100
AcDbEntity
  8
0
  6
Continuous
 62
     7
370
    25
100
AcDbEllipse
 10
14.022389782
 20
5.6922949686
 30
0.0
 11
0.01999999995979352
 21
0.0115476309570397
 31
0.0
210
0.0
220
0.0
230
1.0
 40
0.0000703729
 41
0.7853575303683393
 42
2.356153858188581
  0
LWPOLYLINE
  5
1FA
330
1F
100
AcDbEntity
  8
0
  6
Continuous
 62
     7
370
    25
100
AcDbPolyline
 90
       56
 70
   128
 43
0.0
 10
13.7165660991
 20
6.1036013602
 10
13.7143537267
 20
6.149556282
 10
13.7077454512
 20
6.197466462
 10
13.6968274216
 20
6.2467073175
 10
13.681741971
 20
6.2966369188
 10
13.6626857615
 20
6.3466043572
 10
13.6399072197
 20
6.3959582307
 10
13.6137032989
 20
6.4440551361
 10
13.5844156073
 20
6.4902680566
 10
13.5524259547
 20
6.5339945362
 10
13.518151375
 20
6.5746645334
 10
13.48203869
 20
6.6117478524
 10
13.4445586836
 20
6.6447610556
 10
13.4061999652
 20
6.6732737654
 10
13.3674625991
 20
6.696914275
 10
13.3288515863
 20
6.7153743941
 10
13.2908702803
 20
6.7284134669
 10
13.2540138255
 20
6.7358615092
 10
13.2187627023
 20
6.7376214243
 10
13.1855764629
 20
6.7336702691
 10
13.1548877406
 20
6.7240595528
 10
13.1270966099
 20
6.7089145659
 10
13.1025653708
 20
6.6884327465
 10
13.0816138253
 20
6.6628811064
 10
13.064515109
 20
6.6325927502
 10
13.0514921298
 20
6.5979625331
 10
13.0427146621
 20
6.5594419128
 10
13.0382971336
 20
6.5175330646
 10
13.0382971336
 20
6.4727823344
 10
13.0427146621
 20
6.4257731163
 10
13.0514921298
 20
6.3771182476
 10
13.064515109
 20
6.3274520187
 10
13.0816138253
 20
6.2774219049
 10
13.1025653708
 20
6.2276801253
 10
13.1270966099
 20
6.17887514
 10
13.1548877406
 20
6.1316431966
 10
13.1855764629
 20
6.0866000359
 10
13.2187627023
 20
6.0443328641
 10
13.2540138255
 20
6.0053926987
 10
13.2908702803
 20
5.9702871841
 10
13.3288515863
 20
5.9394739745
 10
13.3674625991
 20
5.9133547671
 10
13.4061999652
 20
5.8922700658
 10
13.4445586836
 20
5.8764947419
 10
13.48203869
 20
5.8662344509
 10
13.518151375
 20
5.8616229513
 10
13.5524259547
 20
5.8627203611
 10
13.5844156073
 20
5.8695123739
 10
13.6137032989
 20
5.8819104455
 10
13.6399072197
 20
5.8997529479
 10
13.6626857615
 20
5.9228072769
 10
13.681741971
 20
5.9507728841
 10
13.6968274216
 20
5.9832851949
 10
13.7077454512
 20
6.0199203618
 10
13.7143537267
 20
6.0602007892
 10
13.7165660991
 20
6.1036013602
  0
LWPOLYLINE
  5
1FB
330
1F
100
AcDbEntity
  8
0
  6
Continuous
 62
     7
370
    25
100
AcDbPolyline
 90
        3
 70
   128
 43
0.0
 10
13.6506066018
 20
5.8804828898
 10
13.6412969798
 20
5.8746906876
 10
13.6412766629
 20
5.874678957
  0
LINE
  5
1FC
330
1F
100
AcDbEntity
  8
0
  6
Continuous
 62
     7
370
    25
100
AcDbLine
 10
13.1413172966
 20
6.7407278194
 30
0.0
 11
13.1502109344
 21
6.7455090804
 31
0.0
  0
LINE
  5
1FD
330
1F
100
AcDbEntity
  8
0
  6
Continuous
 62
     7
370
    25
100
AcDbLine
 10
13.1722026534
 20
6.7575788725
 30
0.0
 11
13.1572271992
 21
6.7499124106
 31
0.0
  0
LINE
  5
1FE
330
1F
100
AcDbEntity
  8
0
  6
Continuous
 62
     7
370
    25
100
AcDbLine
 10
14.1013968979
 20
5.7379074598
 30
0.0
 11
14.0365319176
 21
5.7004617037
 31
0.0
  0
LINE
  5
1FF
330
1F
100
AcDbEntity
  8
0
  6
Continuous
 62
     7
370
    25
100
AcDbLine
 10
13.6246422175
 20
6.2342392646
 30
0.0
 11
13.7094950313
 21
6.1852547779
 31
0.0
  0
LWPOLYLINE
  5
200
330
1F
100
AcDbEntity
  8
0
  6
Continuous
 62
     7
370
    25
100
AcDbPolyline
 90
       13
 70
   128
 43
0.0
 10
13.6246422175
 20
6.0790965104
 10
13.6072560109
 20
6.0917765344
 10
13.5910546454
 20
6.1088787969
 10
13.5771422175
 20
6.129237807
 10
13.5664668362
 20
6.1514661317
 10
13.5597560109
 20
6.1740489475
 10
13.5574670733
 20
6.1954472728
 10
13.5597560109
 20
6.214202847
 10
13.5664668362
 20
6.2290375089
 10
13.5771422175
 20
6.2389403006
 10
13.5910546454
 20
6.2432363633
 10
13.6072560109
 20
6.2416329275
 10
13.6246422175
 20
6.2342392646
  0
LINE
  5
201
330
1F
100
AcDbEntity
  8
0
  6
Continuous
 62
     7
370
    25
100
AcDbLine
 10
13.7094950313
 20
6.0301120237
 30
0.0
 11
13.6246422175
 21
6.0790965104
 31
0.0
  0
LINE
  5
202
330
1F
100
AcDbEntity
  8
0
  6
Continuous
 62
     7
370
    25
100
AcDbLine
 10
13.7094950313
 20
6.1852547779
 30
0.0
 11
13.7094950313
 21
6.0301120237
 31
0.0
  0
LINE
  5
203
330
1F
100
AcDbEntity
  8
0
  6
Continuous
 62
     7
370
    25
100
AcDbLine
 10
13.4178134841
 20
6.0249812742
 30
0.0
 11
13.1243641699
 21
6.1943859574
 31
0.0
  0
LINE
  5
204
330
1F
100
AcDbEntity
  8
0
  6
Continuous
 62
     7
370
    25
100
AcDbLine
 10
13.4178134841
 20
6.1392969879
 30
0.0
 11
13.4178134841
 21
6.0249812742
 31
0.0
  0
LINE
  5
205
330
1F
100
AcDbEntity
  8
0
  6
Continuous
 62
     7
370
    25
100
AcDbLine
 10
13.1243641699
 20
6.3087016711
 30
0.0
 11
13.4178134841
 21
6.1392969879
 31
0.0
  0
LINE
  5
206
330
1F
100
AcDbEntity
  8
0
  6
Continuous
 62
     7
370
    25
100
AcDbLine
 10
13.1243641699
 20
6.1943859574
 30
0.0
 11
13.1243641699
 21
6.3087016711
 31
0.0
  0
LINE
  5
207
330
1F
100
AcDbEntity
  8
0
  6
Continuous
 62
     7
370
    25
100
AcDbLine
 10
13.3736193102
 20
6.552666627
 30
0.0
 11
13.3736193102
 21
6.4383509133
 31
0.0
  0
LINE
  5
208
330
1F
100
AcDbEntity
  8
0
  6
Continuous
 62
     7
370
    25
100
AcDbLine
 10
13.1685583437
 20
6.6710458032
 30
0.0
 11
13.3736193102
 21
6.552666627
 31
0.0
  0
LINE
  5
209
330
1F
100
AcDbEntity
  8
0
  6
Continuous
 62
     7
370
    25
100
AcDbLine
 10
13.1685583437
 20
6.5567300895
 30
0.0
 11
13.1685583437
 21
6.6710458032
 31
0.0
  0
LINE
  5
20A
330
1F
100
AcDbEntity
  8
0
  6
Continuous
 62
     7
370
    25
100
AcDbLine
 10
13.3736193102
 20
6.4383509133
 30
0.0
 11
13.1685583437
 21
6.5567300895
 31
0.0
  0
ELLIPSE
  5
20B
330
1F
100
AcDbEntity
  8
0
  6
Continuous
 62
     7
370
    25
100
AcDbEllipse
 10
13.7236371669
 20
6.193418859
 30
0.0
 11
0.01999999995944179
 21
0.01154763095683542
 31
0.0
210
0.0
220
0.0
230
1.0
 40
0.0000703729
 41
2.356153858134287
 42
3.141633285402828
  0
ELLIPSE
  5
20C
330
1F
100
AcDbEntity
  8
0
  6
Continuous
 62
     7
370
    25
100
AcDbEllipse
 10
13.7236371669
 20
6.0382761048
 30
0.0
 11
-0.01414271023575076
 21
0.02449456561252549
 31
0.0
210
0.0
220
0.0
230
1.0
 40
0.5773346305
 41
0.7853575313664871
 42
1.570755694763811
  0
ARC
  5
20D
330
1F
100
AcDbEntity
  8
0
  6
Continuous
 62
     7
370
    25
100
AcDbCircle
 10
13.6553465396
 20
6.0776992933
 30
0.0
 40
0.0307360961514365
100
AcDbArc
 50
122.60547834
 51
177.3945215144
  0
ELLIPSE
  5
20E
330
1F
100
AcDbEntity
  8
0
  6
Continuous
 62
     7
370
    25
100
AcDbEllipse
 10
13.1827004793
 20
6.6792098843
 30
0.0
 11
-0.01414271023574898
 21
0.02449456561252461
 31
0.0
210
0.0
220
0.0
230
1.0
 40
0.5773346305
 41
1.570755694763892
 42
2.356235122223553
  0
ELLIPSE
  5
20F
330
1F
100
AcDbEntity
  8
0
  6
Continuous
 62
     7
370
    25
100
AcDbEllipse
 10
13.3877614459
 20
6.5608307081
 30
0.0
 11
0.02000000010712277
 21
0.01154763104210499
 31
0.0
210
0.0
220
0.0
230
1.0
 40
0.0000703729
 41
2.356153854210003
 42
3.141633283768727
  0
ELLIPSE
  5
210
330
1F
100
AcDbEntity
  8
0
  6
Continuous
 62
     7
370
    25
100
AcDbEllipse
 10
13.3877614459
 20
6.4465149944
 30
0.0
 11
-0.01414271023575076
 21
0.02449456561252461
 31
0.0
210
0.0
220
0.0
230
1.0
 40
0.5773346305
 41
0.7853575313664823
 42
1.570755694763861
  0
ELLIPSE
  5
211
330
1F
100
AcDbEntity
  8
0
  6
Continuous
 62
     7
370
    25
100
AcDbEllipse
 10
13.1827004793
 20
6.5648941707
 30
0.0
 11
0.01999999995954305
 21
0.01154763095689315
 31
0.0
210
0.0
220
0.0
230
1.0
 40
0.0000703729
 41
0.785357531150079
 42
2.356153858385388
  0
LINE
  5
212
330
1F
100
AcDbEntity
  8
0
  6
Continuous
 62
     7
370
    25
100
AcDbLine
 10
13.2617075953
 20
6.6105066619
 30
0.0
 11
13.1968426149
 21
6.5730609058
 31
0.0
  0
ELLIPSE
  5
213
330
1F
100
AcDbEntity
  8
0
  6
Continuous
 62
     7
370
    25
100
AcDbEllipse
 10
13.1385063055
 20
6.3168657522
 30
0.0
 11
-0.01414271023575076
 21
0.02449456561252461
 31
0.0
210
0.0
220
0.0
230
1.0
 40
0.5773346305
 41
1.570755694763834
 42
2.356235122223497
  0
ELLIPSE
  5
214
330
1F
100
AcDbEntity
  8
0
  6
Continuous
 62
     7
370
    25
100
AcDbEllipse
 10
13.4319556197
 20
6.147461069
 30
0.0
 11
0.01999999988492718
 21
0.01154763091381028
 31
0.0
210
0.0
220
0.0
230
1.0
 40
0.0000703729
 41
2.356153861128592
 42
3.141633285875943
  0
ELLIPSE
  5
215
330
1F
100
AcDbEntity
  8
0
  6
Continuous
 62
     7
370
    25
100
AcDbEllipse
 10
13.4319556197
 20
6.0331453553
 30
0.0
 11
-0.01414271023575076
 21
0.02449456561252461
 31
0.0
210
0.0
220
0.0
230
1.0
 40
0.5773346305
 41
0.7853575313663611
 42
1.570755694763834
  0
ELLIPSE
  5
216
330
1F
100
AcDbEntity
  8
0
  6
Continuous
 62
     7
370
    25
100
AcDbEllipse
 10
12.4816251121
 20
8.2195283402
 30
0.0
 11
0.02414487098747919
 21
0.04478170267191395
 31
0.0
210
0.0
220
0.0
230
1.0
 40
0.5767273142
 41
0.7517526134556243
 42
2.322548940250493
  0
LINE
  5
217
330
1F
100
AcDbEntity
  8
0
  6
Continuous
 62
     7
370
    25
100
AcDbLine
 10
12.446269773
 20
8.1991181374
 30
0.0
 11
11.833871617
 21
8.7391094437
 31
0.0
  0
SPLINE
  5
218
330
1F
100
AcDbEntity
  8
0
  6
Continuous
 62
     7
370
    25
100
AcDbSpline
210
0.0
220
0.0
230
1.0
 70
     8
 71
     3
 72
     8
 73
     4
 74
     0
 42
0.000000001
 43
0.00000001
 40
0.0
 40
0.0
 40
0.0
 40
0.0
 40
1.0
 40
1.0
 40
1.0
 40
1.0
 10
11.79249318246247
 20
8.802484492646387
 30
0.0
 10
11.80575390563276
 20
8.781573929212037
 30
0.0
 10
11.81900840684804
 20
8.76011930850557
 30
0.0
 10
11.83387161699055
 20
8.73910944366947
 30
0.0
  0
SPLINE
  5
219
330
1F
100
AcDbEntity
  8
0
  6
Continuous
 62
     7
370
    25
100
AcDbSpline
210
0.0
220
0.0
230
1.0
 70
     8
 71
     3
 72
    14
 73
    10
 74
     0
 42
0.000000001
 43
0.00000001
 40
0.0
 40
0.0
 40
0.0
 40
0.0
 40
0.25
 40
0.25
 40
0.5
 40
0.5
 40
0.75
 40
0.75
 40
1.0
 40
1.0
 40
1.0
 40
1.0
 10
11.79249318246247
 20
8.802484492646387
 30
0.0
 10
11.78345489727408
 20
8.816736779896697
 30
0.0
 10
11.7745871332126
 20
8.830880579465857
 30
0.0
 10
11.75712384018932
 20
8.858545280390336
 30
0.0
 10
11.74850400452989
 20
8.87211033614683
 30
0.0
 10
11.73129234093854
 20
8.898686148860163
 30
0.0
 10
11.72270205889315
 20
8.911697153467731
 30
0.0
 10
11.70540330993149
 20
8.937135392129136
 30
0.0
 10
11.69666019756584
 20
8.949610849396608
 30
0.0
 10
11.68788259937289
 20
8.96164515809537
 30
0.0
  0
LINE
  5
21A
330
1F
100
AcDbEntity
  8
0
  6
Continuous
 62
     7
370
    25
100
AcDbLine
 10
11.6878825994
 20
8.9616451581
 30
0.0
 11
12.4816251121
 21
8.2617507315
 31
0.0
  0
LINE
  5
21B
330
1F
100
AcDbEntity
  8
0
  6
Continuous
 62
     7
370
    25
100
AcDbLine
 10
12.7644678245
 20
8.4250323538
 30
0.0
 11
11.9707253118
 21
9.1249267805
 31
0.0
  0
LINE
  5
21C
330
1F
100
AcDbEntity
  8
0
  6
Continuous
 62
     7
370
    25
100
AcDbLine
 10
12.7644678245
 20
8.4250323538
 30
0.0
 11
12.6230464683
 21
8.3433915426
 31
0.0
  0
LINE
  5
21D
330
1F
100
AcDbEntity
  8
0
  6
Continuous
 62
     7
370
    25
100
AcDbLine
 10
12.6230464683
 20
8.3433915426
 30
0.0
 11
12.4816251121
 21
8.2617507315
 31
0.0
  0
LINE
  5
21E
330
1F
100
AcDbEntity
  8
0
  6
Continuous
 62
     7
370
    25
100
AcDbLine
 10
11.9707253118
 20
9.1249267805
 30
0.0
 11
11.6878825994
 21
8.9616451581
 31
0.0
  0
ELLIPSE
  5
21F
330
1F
100
AcDbEntity
  8
0
  6
Continuous
 62
     7
370
    25
100
AcDbEllipse
 10
13.1385063055
 20
6.2025500385
 30
0.0
 11
0.01999999995979707
 21
0.0115476309570397
 31
0.0
210
0.0
220
0.0
230
1.0
 40
0.0000703729
 41
0.7853575306412306
 42
2.356153859010745
  0
LWPOLYLINE
  5
220
330
1F
100
AcDbEntity
  8
0
  6
Continuous
 62
     7
370
    25
100
AcDbPolyline
 90
       56
 70
   128
 43
0.0
 10
12.8326826226
 20
6.6138564301
 10
12.8304702502
 20
6.6598113519
 10
12.8238619747
 20
6.7077215318
 10
12.8129439451
 20
6.7569623874
 10
12.7978584945
 20
6.8068919887
 10
12.778802285
 20
6.8568594271
 10
12.7560237432
 20
6.9062133006
 10
12.7298198225
 20
6.954310206
 10
12.7005321308
 20
7.0005231265
 10
12.6685424782
 20
7.0442496061
 10
12.6342678985
 20
7.0849196033
 10
12.5981552135
 20
7.1220029223
 10
12.5606752072
 20
7.1550161255
 10
12.5223164887
 20
7.1835288353
 10
12.4835791226
 20
7.2071693448
 10
12.4449681098
 20
7.225629464
 10
12.4069868038
 20
7.2386685368
 10
12.3701303491
 20
7.2461165791
 10
12.3348792258
 20
7.2478764942
 10
12.3016929864
 20
7.243925339
 10
12.2710042641
 20
7.2343146227
 10
12.2432131335
 20
7.2191696358
 10
12.2186818943
 20
7.1986878164
 10
12.1977303489
 20
7.1731361762
 10
12.1806316326
 20
7.1428478201
 10
12.1676086533
 20
7.1082176029
 10
12.1588311856
 20
7.0696969827
 10
12.1544136572
 20
7.0277881345
 10
12.1544136572
 20
6.9830374043
 10
12.1588311856
 20
6.9360281862
 10
12.1676086533
 20
6.8873733175
 10
12.1806316326
 20
6.8377070886
 10
12.1977303489
 20
6.7876769748
 10
12.2186818943
 20
6.7379351952
 10
12.2432131335
 20
6.6891302099
 10
12.2710042641
 20
6.6418982665
 10
12.3016929864
 20
6.5968551058
 10
12.3348792258
 20
6.554587934
 10
12.3701303491
 20
6.5156477686
 10
12.4069868038
 20
6.480542254
 10
12.4449681098
 20
6.4497290444
 10
12.4835791226
 20
6.423609837
 10
12.5223164887
 20
6.4025251357
 10
12.5606752072
 20
6.3867498118
 10
12.5981552135
 20
6.3764895208
 10
12.6342678985
 20
6.3718780212
 10
12.6685424782
 20
6.372975431
 10
12.7005321308
 20
6.3797674438
 10
12.7298198225
 20
6.3921655154
 10
12.7560237432
 20
6.4100080178
 10
12.778802285
 20
6.4330623468
 10
12.7978584945
 20
6.4610279539
 10
12.8129439451
 20
6.4935402648
 10
12.8238619747
 20
6.5301754317
 10
12.8304702502
 20
6.5704558591
 10
12.8326826226
 20
6.6138564301
  0
LWPOLYLINE
  5
221
330
1F
100
AcDbEntity
  8
0
  6
Continuous
 62
     7
370
    25
100
AcDbPolyline
 90
        3
 70
   128
 43
0.0
 10
12.7667231253
 20
6.3907379597
 10
12.7574135033
 20
6.3849457574
 10
12.7573931864
 20
6.3849340269
  0
LINE
  5
222
330
1F
100
AcDbEntity
  8
0
  6
Continuous
 62
     7
370
    25
100
AcDbLine
 10
12.2574338201
 20
7.2509828893
 30
0.0
 11
12.2663274579
 21
7.2557641503
 31
0.0
  0
LINE
  5
223
330
1F
100
AcDbEntity
  8
0
  6
Continuous
 62
     7
370
    25
100
AcDbLine
 10
12.2883191769
 20
7.2678339424
 30
0.0
 11
12.2733437227
 21
7.2601674805
 31
0.0
  0
LINE
  5
224
330
1F
100
AcDbEntity
  8
0
  6
Continuous
 62
     7
370
    25
100
AcDbLine
 10
12.446269773
 20
8.1991181374
 30
0.0
 11
12.446269773
 21
7.9773601155
 31
0.0
  0
LINE
  5
225
330
1F
100
AcDbEntity
  8
0
  6
Continuous
 62
     7
370
    25
100
AcDbLine
 10
11.833871617
 20
8.1444286699
 30
0.0
 11
12.446269773
 21
7.9773601155
 31
0.0
  0
LWPOLYLINE
  5
226
330
1F
100
AcDbEntity
  8
0
  6
Continuous
 62
     7
370
    25
100
AcDbPolyline
 90
       15
 70
   128
 43
0.0
 10
11.833871617
 20
8.7391094437
 10
11.8601402316
 20
8.6882753766
 10
11.8829121364
 20
8.6363869533
 10
11.9019199066
 20
8.5840535317
 10
11.9169403222
 20
8.5318896958
 10
11.9277969891
 20
8.4805080381
 10
11.9343624106
 20
8.4305119653
 10
11.936559485
 20
8.3824886124
 10
11.9343624106
 20
8.3370019476
 10
11.9277969891
 20
8.2945861492
 10
11.9169403222
 20
8.2557393322
 10
11.9019199066
 20
8.220917699
 10
11.8829121364
 20
8.1905301818
 10
11.8601402316
 20
8.1649336401
 10
11.833871617
 20
8.1444286699
  0
LINE
  5
227
330
1F
100
AcDbEntity
  8
0
  6
Continuous
 62
     7
370
    25
100
AcDbLine
 10
13.2175134215
 20
6.2481625297
 30
0.0
 11
13.1526484411
 21
6.2107167736
 31
0.0
  0
LINE
  5
228
330
1F
100
AcDbEntity
  8
0
  6
Continuous
 62
     7
370
    25
100
AcDbLine
 10
12.5339300076
 20
6.5352363441
 30
0.0
 11
12.2404806934
 21
6.7046410273
 31
0.0
  0
LINE
  5
229
330
1F
100
AcDbEntity
  8
0
  6
Continuous
 62
     7
370
    25
100
AcDbLine
 10
12.5339300076
 20
6.6495520577
 30
0.0
 11
12.5339300076
 21
6.5352363441
 31
0.0
  0
LINE
  5
22A
330
1F
100
AcDbEntity
  8
0
  6
Continuous
 62
     7
370
    25
100
AcDbLine
 10
12.2404806934
 20
6.8189567409
 30
0.0
 11
12.5339300076
 21
6.6495520577
 31
0.0
  0
LINE
  5
22B
330
1F
100
AcDbEntity
  8
0
  6
Continuous
 62
     7
370
    25
100
AcDbLine
 10
12.2404806934
 20
6.7046410273
 30
0.0
 11
12.2404806934
 21
6.8189567409
 31
0.0
  0
LINE
  5
22C
330
1F
100
AcDbEntity
  8
0
  6
Continuous
 62
     7
370
    25
100
AcDbLine
 10
12.7407587411
 20
6.7444943345
 30
0.0
 11
12.8256115548
 21
6.6955098478
 31
0.0
  0
LWPOLYLINE
  5
22D
330
1F
100
AcDbEntity
  8
0
  6
Continuous
 62
     7
370
    25
100
AcDbPolyline
 90
       13
 70
   128
 43
0.0
 10
12.7407587411
 20
6.5893515803
 10
12.7233725344
 20
6.6020316043
 10
12.707171169
 20
6.6191338668
 10
12.6932587411
 20
6.6394928769
 10
12.6825833597
 20
6.6617212016
 10
12.6758725344
 20
6.6843040174
 10
12.6735835969
 20
6.7057023427
 10
12.6758725344
 20
6.7244579169
 10
12.6825833597
 20
6.7392925788
 10
12.6932587411
 20
6.7491953705
 10
12.707171169
 20
6.7534914332
 10
12.7233725344
 20
6.7518879974
 10
12.7407587411
 20
6.7444943345
  0
LINE
  5
22E
330
1F
100
AcDbEntity
  8
0
  6
Continuous
 62
     7
370
    25
100
AcDbLine
 10
12.8256115548
 20
6.5403670935
 30
0.0
 11
12.7407587411
 21
6.5893515803
 31
0.0
  0
LINE
  5
22F
330
1F
100
AcDbEntity
  8
0
  6
Continuous
 62
     7
370
    25
100
AcDbLine
 10
12.8256115548
 20
6.6955098478
 30
0.0
 11
12.8256115548
 21
6.5403670935
 31
0.0
  0
LINE
  5
230
330
1F
100
AcDbEntity
  8
0
  6
Continuous
 62
     7
370
    25
100
AcDbLine
 10
12.4897358337
 20
7.0629216969
 30
0.0
 11
12.4897358337
 21
6.9486059832
 31
0.0
  0
LINE
  5
231
330
1F
100
AcDbEntity
  8
0
  6
Continuous
 62
     7
370
    25
100
AcDbLine
 10
12.2846748672
 20
7.1813008731
 30
0.0
 11
12.4897358337
 21
7.0629216969
 31
0.0
  0
LINE
  5
232
330
1F
100
AcDbEntity
  8
0
  6
Continuous
 62
     7
370
    25
100
AcDbLine
 10
12.2846748672
 20
7.0669851594
 30
0.0
 11
12.2846748672
 21
7.1813008731
 31
0.0
  0
LINE
  5
233
330
1F
100
AcDbEntity
  8
0
  6
Continuous
 62
     7
370
    25
100
AcDbLine
 10
12.4897358337
 20
6.9486059832
 30
0.0
 11
12.2846748672
 21
7.0669851594
 31
0.0
  0
LINE
  5
234
330
1F
100
AcDbEntity
  8
0
  6
Continuous
 62
     7
370
    25
100
AcDbLine
 10
12.568135301
 20
8.0054891961
 30
0.0
 11
12.4816251121
 21
7.955547927
 31
0.0
  0
ELLIPSE
  5
235
330
1F
100
AcDbEntity
  8
0
  6
Continuous
 62
     7
370
    25
100
AcDbEllipse
 10
12.4816251121
 20
7.9977703183
 30
0.0
 11
0.02414487098747919
 21
0.04478170267191216
 31
0.0
210
0.0
220
0.0
230
1.0
 40
0.5767273142
 41
2.322548940250527
 42
3.893345267045438
  0
ELLIPSE
  5
236
330
1F
100
AcDbEntity
  8
0
  6
Continuous
 62
     7
370
    25
100
AcDbEllipse
 10
12.7644678245
 20
8.3828099625
 30
0.0
 11
0.02414487098747742
 21
0.04478170267191217
 31
0.0
210
0.0
220
0.0
230
1.0
 40
0.5767273142
 41
5.464141593840312
 42
7.034937920635143
  0
ELLIPSE
  5
237
330
1F
100
AcDbEntity
  8
0
  6
Continuous
 62
     7
370
    25
100
AcDbEllipse
 10
12.8397536904
 20
6.7036739289
 30
0.0
 11
0.01999999995944179
 21
0.01154763095683542
 31
0.0
210
0.0
220
0.0
230
1.0
 40
0.0000703729
 41
2.356153858792458
 42
3.141633285402806
  0
ELLIPSE
  5
238
330
1F
100
AcDbEntity
  8
0
  6
Continuous
 62
     7
370
    25
100
AcDbEllipse
 10
12.8397536904
 20
6.5485311747
 30
0.0
 11
-0.01414271023575076
 21
0.02449456561252461
 31
0.0
210
0.0
220
0.0
230
1.0
 40
0.5773346305
 41
0.7853575313664551
 42
1.570755694763834
  0
LINE
  5
239
330
1F
100
AcDbEntity
  8
0
  6
Continuous
 62
     7
370
    25
100
AcDbLine
 10
12.7998231636
 20
8.4032201653
 30
0.0
 11
12.7998231636
 21
8.3047396129
 31
0.0
  0
SPLINE
  5
23A
330
1F
100
AcDbEntity
  8
0
  6
Continuous
 62
     7
370
    25
100
AcDbSpline
210
0.0
220
0.0
230
1.0
 70
     8
 71
     3
 72
     8
 73
     4
 74
     0
 42
0.000000001
 43
0.00000001
 40
0.0
 40
0.0
 40
0.0
 40
0.0
 40
1.0
 40
1.0
 40
1.0
 40
1.0
 10
11.83387161699055
 20
8.144428669939202
 30
0.0
 10
11.81900840684795
 20
8.140579502257909
 30
0.0
 10
11.8057539056326
 20
8.138749367033153
 30
0.0
 10
11.79249318246223
 20
8.139033245957041
 30
0.0
  0
ARC
  5
23B
330
1F
100
AcDbEntity
  8
0
  6
Continuous
 62
     7
370
    25
100
AcDbCircle
 10
12.7714630631
 20
6.5879543632
 30
0.0
 40
0.0307360961514473
100
AcDbArc
 50
122.60547834
 51
177.3945215143
  0
LWPOLYLINE
  5
23C
330
1F
100
AcDbEntity
  8
0
  6
Continuous
 62
     7
370
    25
100
AcDbPolyline
 90
       55
 70
   128
 43
0.0
 10
11.8593711446
 20
8.3862280872
 10
11.8571239792
 20
8.4320788114
 10
11.8504128719
 20
8.4799040051
 10
11.8393285789
 20
8.5290569147
 10
11.8240209964
 20
8.5788728315
 10
11.8046971331
 20
8.6286780806
 10
11.7816183111
 20
8.6777991315
 10
11.7550966318
 20
8.7255717062
 10
11.7254907556
 20
8.7713497626
 10
11.693201051
 20
8.814514231
 10
11.658664181
 20
8.854481386
 10
11.6223471975
 20
8.8907107404
 10
11.5847412253
 20
8.9227123545
 10
11.5463548208
 20
8.9500534611
 10
11.5077070941
 20
8.9723643188
 10
11.4693206896
 20
8.9893432115
 10
11.4317147174
 20
9.0007605287
 10
11.3953977339
 20
9.0064618709
 10
11.3608608639
 20
9.0063701372
 10
11.3285711593
 20
9.0004865682
 10
11.2989652831
 20
8.9888907289
 10
11.2724436039
 20
8.9717394333
 10
11.2493647819
 20
8.9492646231
 10
11.2300409185
 20
8.9217702317
 10
11.214733336
 20
8.8896280735
 10
11.2036490431
 20
8.8532728161
 10
11.1969379358
 20
8.8131961019
 10
11.1946907703
 20
8.7699398998
 10
11.1969379358
 20
8.7240891757
 10
11.2036490431
 20
8.676263982
 10
11.214733336
 20
8.6271110723
 10
11.2300409185
 20
8.5772951555
 10
11.2493647819
 20
8.5274899064
 10
11.2724436039
 20
8.4783688556
 10
11.2989652831
 20
8.4305962809
 10
11.3285711593
 20
8.3848182245
 10
11.3608608639
 20
8.3416537561
 10
11.3953977339
 20
8.3016866011
 10
11.4317147174
 20
8.2654572466
 10
11.4693206896
 20
8.2334556326
 10
11.5077070941
 20
8.206114526
 10
11.5463548208
 20
8.1838036683
 10
11.5847412253
 20
8.1668247756
 10
11.6223471975
 20
8.1554074583
 10
11.658664181
 20
8.1497061161
 10
11.693201051
 20
8.1497978498
 10
11.7254907556
 20
8.1556814189
 10
11.7550966318
 20
8.1672772582
 10
11.7816183111
 20
8.1844285538
 10
11.8046971331
 20
8.2069033639
 10
11.8240209964
 20
8.2343977554
 10
11.8393285789
 20
8.2665399136
 10
11.8504128719
 20
8.302895171
 10
11.8571239792
 20
8.3429718851
 10
11.8593711446
 20
8.3862280872
  0
SPLINE
  5
23D
330
1F
100
AcDbEntity
  8
0
  6
Continuous
 62
     7
370
    25
100
AcDbSpline
210
0.0
220
0.0
230
1.0
 70
     8
 71
     3
 72
     8
 73
     4
 74
     0
 42
0.000000001
 43
0.00000001
 40
0.0
 40
0.0
 40
0.0
 40
0.0
 40
1.0
 40
1.0
 40
1.0
 40
1.0
 10
11.80101775883915
 20
8.721043867483676
 30
0.0
 10
11.78825443139752
 20
8.743951662357627
 30
0.0
 10
11.77615031246507
 20
8.767152003150066
 30
0.0
 10
11.76362701650669
 20
8.789759115545202
 30
0.0
  0
LWPOLYLINE
  5
23E
330
1F
100
AcDbEntity
  8
0
  6
Continuous
 62
     7
370
    25
100
AcDbPolyline
 90
       14
 70
   128
 43
0.0
 10
11.8010177588
 20
8.1596060977
 10
11.8275923745
 20
8.1806563442
 10
11.8503147668
 20
8.2072576074
 10
11.868875509
 20
8.2390476398
 10
11.8830218468
 20
8.2755935343
 10
11.8925611397
 20
8.3163976204
 10
11.8973634846
 20
8.3609042406
 10
11.8973634846
 20
8.4085073174
 10
11.8925611397
 20
8.458558607
 10
11.8830218468
 20
8.5103765262
 10
11.868875509
 20
8.5632554348
 10
11.8503147668
 20
8.616475244
 10
11.8275923745
 20
8.6693112229
 10
11.8010177588
 20
8.7210438675
  0
SPLINE
  5
23F
330
1F
100
AcDbEntity
  8
0
  6
Continuous
 62
     7
370
    25
100
AcDbSpline
210
0.0
220
0.0
230
1.0
 70
     8
 71
     3
 72
     8
 73
     4
 74
     0
 42
0.000000001
 43
0.00000001
 40
0.0
 40
0.0
 40
0.0
 40
0.0
 40
1.0
 40
1.0
 40
1.0
 40
1.0
 10
11.76362701650658
 20
8.14222536299008
 30
0.0
 10
11.77615074809719
 20
8.145545915627299
 30
0.0
 10
11.78825501069938
 20
8.15143489795669
 30
0.0
 10
11.80101775883915
 20
8.159606097744675
 30
0.0
  0
SPLINE
  5
240
330
1F
100
AcDbEntity
  8
0
  6
Continuous
 62
     7
370
    25
100
AcDbSpline
210
0.0
220
0.0
230
1.0
 70
     8
 71
     3
 72
    16
 73
    12
 74
     0
 42
0.000000001
 43
0.00000001
 40
0.0
 40
0.0
 40
0.0
 40
0.0
 40
0.2500000000000003
 40
0.2500000000000003
 40
0.5000000000000007
 40
0.5000000000000007
 40
0.750000000000001
 40
0.750000000000001
 40
0.8750000000000004
 40
0.8750000000000004
 40
1.0
 40
1.0
 40
1.0
 40
1.0
 10
11.76362701650677
 20
8.789759115545206
 30
0.0
 10
11.75675270128406
 20
8.805450698207789
 30
0.0
 10
11.75015485345446
 20
8.821110094948216
 30
0.0
 10
11.73743713988213
 20
8.851402882094954
 30
0.0
 10
11.7312725434278
 20
8.86614969260374
 30
0.0
 10
11.71901329900935
 20
8.894851024755363
 30
0.0
 10
11.71292146557686
 20
8.908805539843863
 30
0.0
 10
11.70365627714625
 20
8.929121756662406
 30
0.0
 10
11.70054695255708
 20
8.93579096422885
 30
0.0
 10
11.69425716532839
 20
8.94891651801448
 30
0.0
 10
11.69106428642107
 20
8.955395781701172
 30
0.0
 10
11.68788259937289
 20
8.96164515809537
 30
0.0
  0
ELLIPSE
  5
241
330
1F
100
AcDbEntity
  8
0
  6
Continuous
 62
     7
370
    25
100
AcDbEllipse
 10
12.2988170028
 20
7.1894649542
 30
0.0
 11
-0.01414271023575076
 21
0.02449456561252549
 31
0.0
210
0.0
220
0.0
230
1.0
 40
0.5773346305
 41
1.570755694763811
 42
2.35623512222331
  0
ELLIPSE
  5
242
330
1F
100
AcDbEntity
  8
0
  6
Continuous
 62
     7
370
    25
100
AcDbEllipse
 10
12.5038779694
 20
7.071085778
 30
0.0
 11
0.02000000010712277
 21
0.01154763104210499
 31
0.0
210
0.0
220
0.0
230
1.0
 40
0.0000703729
 41
2.356153854483263
 42
3.141633284715282
  0
ELLIPSE
  5
243
330
1F
100
AcDbEntity
  8
0
  6
Continuous
 62
     7
370
    25
100
AcDbEllipse
 10
12.5038779694
 20
6.9567700643
 30
0.0
 11
-0.01414271023575076
 21
0.02449456561252461
 31
0.0
210
0.0
220
0.0
230
1.0
 40
0.5773346305
 41
0.7853575313664823
 42
1.570755694763861
  0
ARC
  5
244
330
1F
100
AcDbEntity
  8
0
  6
Continuous
 62
     7
370
    25
100
AcDbCircle
 10
11.8077259796
 20
8.130979757
 30
0.0
 40
0.0294018300806547
100
AcDbArc
 50
27.2205915986
 51
103.1885657788
  0
ARC
  5
245
330
1F
100
AcDbEntity
  8
0
  6
Continuous
 62
     7
370
    25
100
AcDbCircle
 10
12.3382819966
 20
7.7828876546
 30
0.0
 40
1.081105887985341
100
AcDbArc
 50
117.8118055841
 51
119.798947243
  0
ARC
  5
246
330
1F
100
AcDbEntity
  8
0
  6
Continuous
 62
     7
370
    25
100
AcDbCircle
 10
11.7291799188
 20
8.9070013007
 30
0.0
 40
0.1221979235365654
100
AcDbArc
 50
286.3733925657
 51
301.2062704835
  0
ELLIPSE
  5
247
330
1F
100
AcDbEntity
  8
0
  6
Continuous
 62
     7
370
    25
100
AcDbEllipse
 10
12.2988170028
 20
7.0751492406
 30
0.0
 11
0.01999999995954305
 21
0.01154763095689315
 31
0.0
210
0.0
220
0.0
230
1.0
 40
0.0000703729
 41
0.785357531150079
 42
2.356153858385388
  0
LINE
  5
248
330
1F
100
AcDbEntity
  8
0
  6
Continuous
 62
     7
370
    25
100
AcDbLine
 10
12.3778241188
 20
7.1207617318
 30
0.0
 11
12.3129591384
 21
7.0833159757
 31
0.0
  0
ELLIPSE
  5
249
330
1F
100
AcDbEntity
  8
0
  6
Continuous
 62
     7
370
    25
100
AcDbEllipse
 10
12.254622829
 20
6.8271208221
 30
0.0
 11
-0.01414271023575076
 21
0.02449456561252461
 31
0.0
210
0.0
220
0.0
230
1.0
 40
0.5773346305
 41
1.570755694763834
 42
2.356235122223408
  0
ELLIPSE
  5
24A
330
1F
100
AcDbEntity
  8
0
  6
Continuous
 62
     7
370
    25
100
AcDbEllipse
 10
12.5480721432
 20
6.6577161389
 30
0.0
 11
0.0199999998849254
 21
0.01154763091381028
 31
0.0
210
0.0
220
0.0
230
1.0
 40
0.0000703729
 41
2.35615386024645
 42
3.141633285875965
  0
ELLIPSE
  5
24B
330
1F
100
AcDbEntity
  8
0
  6
Continuous
 62
     7
370
    25
100
AcDbEllipse
 10
12.5480721432
 20
6.5434004252
 30
0.0
 11
-0.01414271023575076
 21
0.02449456561252549
 31
0.0
210
0.0
220
0.0
230
1.0
 40
0.5773346305
 41
0.7853575313663459
 42
1.570755694763843
  0
ELLIPSE
  5
24C
330
1F
100
AcDbEntity
  8
0
  6
Continuous
 62
     7
370
    25
100
AcDbEllipse
 10
12.254622829
 20
6.7128051084
 30
0.0
 11
0.01999999995979707
 21
0.0115476309570397
 31
0.0
210
0.0
220
0.0
230
1.0
 40
0.0000703729
 41
0.7853575305279953
 42
2.356153858737484
  0
LINE
  5
24D
330
1F
100
AcDbEntity
  8
0
  6
Continuous
 62
     7
370
    25
100
AcDbLine
 10
12.333629945
 20
6.7584175996
 30
0.0
 11
12.2687649646
 21
6.7209718435
 31
0.0
  0
LINE
  5
24E
330
1F
100
AcDbEntity
  8
0
  6
Continuous
 62
     7
370
    25
100
AcDbLine
 10
12.6477983113
 20
8.980176734
 30
0.0
 11
12.3545738071
 21
8.8109018308
 31
0.0
  0
LINE
  5
24F
330
1F
100
AcDbEntity
  8
0
  6
Continuous
 62
     7
370
    25
100
AcDbLine
 10
12.711434816
 20
8.9434401618
 30
0.0
 11
12.711434816
 21
8.8944321844
 31
0.0
  0
LINE
  5
250
330
1F
100
AcDbEntity
  8
0
  6
Continuous
 62
     7
370
    25
100
AcDbLine
 10
12.711434816
 20
8.8944321844
 30
0.0
 11
12.4385194483
 21
8.7368814962
 31
0.0
  0
LINE
  5
251
330
1F
100
AcDbEntity
  8
0
  6
Continuous
 62
     7
370
    25
100
AcDbLine
 10
12.0555719586
 20
9.3220617302
 30
0.0
 11
11.9634976817
 21
9.2689083815
 31
0.0
  0
LINE
  5
252
330
1F
100
AcDbEntity
  8
0
  6
Continuous
 62
     7
370
    25
100
AcDbLine
 10
12.2323486539
 20
9.2200107162
 30
0.0
 11
12.1199428937
 21
9.1551202521
 31
0.0
  0
LINE
  5
253
330
1F
100
AcDbEntity
  8
0
  6
Continuous
 62
     7
370
    25
100
AcDbLine
 10
12.3030708254
 20
9.1791836756
 30
0.0
 11
12.1683404546
 21
9.1014054881
 31
0.0
  0
LINE
  5
254
330
1F
100
AcDbEntity
  8
0
  6
Continuous
 62
     7
370
    25
100
AcDbLine
 10
12.2252989039
 20
9.0832116315
 30
0.0
 11
12.1955489843
 21
9.0660373684
 31
0.0
  0
LINE
  5
255
330
1F
100
AcDbEntity
  8
0
  6
Continuous
 62
     7
370
    25
100
AcDbLine
 10
12.2252989039
 20
9.0832116315
 30
0.0
 11
12.4331139707
 21
8.963242547
 31
0.0
  0
LWPOLYLINE
  5
256
330
1F
100
AcDbEntity
  8
0
  6
Continuous
 62
     8
370
    25
100
AcDbPolyline
 90
       25
 70
   128
 43
0.0
 10
14.3759431726
 20
6.4108651483
 10
14.4230730101
 20
6.3809840026
 10
14.4697489615
 20
6.3460432892
 10
14.5155215119
 20
6.3063795064
 10
14.5599498466
 20
6.262374638
 10
14.6026060964
 20
6.2144524751
 10
14.6430794584
 20
6.1630745341
 10
14.6809801519
 20
6.1087356129
 10
14.7159431726
 20
6.0519590249
 10
14.7476318073
 20
5.9932915596
 10
14.7757408774
 20
5.933298217
 10
14.799999677
 20
5.8725567655
 10
14.8201745806
 20
5.8116521786
 10
14.836071293
 20
5.7511710009
 10
14.84753672
 20
5.691695699
 10
14.8544604433
 20
5.6337990527
 10
14.8567757838
 20
5.5780386382
 10
14.8544604433
 20
5.524951459
 10
14.84753672
 20
5.4750487735
 10
14.836071293
 20
5.4288111719
 10
14.8201745806
 20
5.3866839475
 10
14.799999677
 20
5.3490728086
 10
14.7757408774
 20
5.3163399709
 10
14.7476318073
 20
5.2888006697
 10
14.7172198464
 20
5.2674629277
  0
ARC
  5
257
330
1F
100
AcDbEntity
  8
0
  6
Continuous
 62
     8
370
    25
100
AcDbCircle
 10
14.3527972076
 20
5.335146007
 30
0.0
 40
0.0479488579688102
100
AcDbArc
 50
172.7425119351
 51
235.9601663175
  0
LINE
  5
258
330
1F
100
AcDbEntity
  8
0
  6
Continuous
 62
     8
370
    25
100
AcDbLine
 10
14.3759431726
 20
6.4108651483
 30
0.0
 11
14.8531738204
 21
6.6863645372
 31
0.0
  0
LWPOLYLINE
  5
259
330
1F
100
AcDbEntity
  8
0
  6
Continuous
 62
     8
370
    25
100
AcDbPolyline
 90
       23
 70
   128
 43
0.0
 10
15.2250324241
 20
5.5606110901
 10
15.225060055
 20
5.5606270437
 10
15.2567486898
 20
5.58270759
 10
15.2848577598
 20
5.6102468912
 10
15.3091165594
 20
5.6429797288
 10
15.3292914631
 20
5.6805908677
 10
15.3451881754
 20
5.7227180921
 10
15.3566536024
 20
5.7689556937
 10
15.3635773258
 20
5.8188583792
 10
15.3658926662
 20
5.8719455585
 10
15.3635773258
 20
5.9277059729
 10
15.3566536024
 20
5.9856026192
 10
15.3451881754
 20
6.0450779211
 10
15.3292914631
 20
6.1055590989
 10
15.3091165594
 20
6.1664636857
 10
15.2848577598
 20
6.2272051372
 10
15.2567486898
 20
6.2871984799
 10
15.225060055
 20
6.3458659451
 10
15.1900970344
 20
6.4026425332
 10
15.1521963409
 20
6.4569814544
 10
15.1117229789
 20
6.5083593953
 10
15.0690667291
 20
6.5562815583
 10
15.0572300234
 20
6.5685653986
  0
LWPOLYLINE
  5
25A
330
1F
100
AcDbEntity
  8
0
  6
Continuous
 62
     8
370
    25
100
AcDbPolyline
 90
       12
 70
   128
 43
0.0
 10
14.6729280207
 20
5.6025308816
 10
14.6706963579
 20
5.557109568
 10
14.6640284588
 20
5.5148162307
 10
14.6530052628
 20
5.4761642534
 10
14.6377605765
 20
5.4416228188
 10
14.6184794498
 20
5.4116112132
 10
14.5953959293
 20
5.3864937367
 10
14.5687902178
 20
5.3665752816
 10
14.5389852726
 20
5.3520976308
 10
14.5063428853
 20
5.3432365234
 10
14.4712592902
 20
5.3400995214
 10
14.4612160239
 20
5.3402479456
  0
LWPOLYLINE
  5
25B
330
1F
100
AcDbEntity
  8
0
  6
Continuous
 62
     8
370
    25
100
AcDbPolyline
 90
       26
 70
   128
 43
0.0
 10
13.9737788609
 20
6.1899570741
 10
13.9818539307
 20
6.2035673066
 10
14.0030684682
 20
6.2311737677
 10
14.0279508677
 20
6.2537259786
 10
14.0561990906
 20
6.2709501863
 10
14.0874702416
 20
6.2826373121
 10
14.1213847313
 20
6.2886454901
 10
14.1575308839
 20
6.2889017892
 10
14.1954699339
 20
6.2834030984
 10
14.2347413528
 20
6.2722161641
 10
14.2748684386
 20
6.2554767808
 10
14.3153641029
 20
6.2333881417
 10
14.3557367832
 20
6.2062183731
 10
14.3954964098
 20
6.1742972792
 10
14.4341603548
 20
6.1380123387
 10
14.4712592902
 20
6.0978040018
 10
14.5063428853
 20
6.0541603431
 10
14.5389852726
 20
6.0076111376
 10
14.5687902178
 20
5.9587214295
 10
14.5953959293
 20
5.9080846737
 10
14.6184794498
 20
5.8563155318
 10
14.6377605765
 20
5.8040424111
 10
14.6530052628
 20
5.7518998363
 10
14.6640284588
 20
5.7005207479
 10
14.6706963579
 20
5.6505288182
 10
14.6729280207
 20
5.6025308816
  0
LWPOLYLINE
  5
25C
330
1F
100
AcDbEntity
  8
0
  6
Continuous
 62
     8
370
    25
100
AcDbPolyline
 90
       12
 70
   128
 43
0.0
 10
12.9051610677
 20
6.6230410214
 10
12.9029294049
 20
6.5776197078
 10
12.8962615059
 20
6.5353263705
 10
12.8852383099
 20
6.4966743932
 10
12.8699936236
 20
6.4621329586
 10
12.8507124968
 20
6.432121353
 10
12.8276289763
 20
6.4070038765
 10
12.8010232648
 20
6.3870854214
 10
12.7712183196
 20
6.3726077706
 10
12.7385759323
 20
6.3637466632
 10
12.7034923373
 20
6.3606096611
 10
12.6934490709
 20
6.3607580854
  0
LWPOLYLINE
  5
25D
330
1F
100
AcDbEntity
  8
0
  6
Continuous
 62
     8
370
    25
100
AcDbPolyline
 90
       26
 70
   128
 43
0.0
 10
12.2060119079
 20
7.2104672139
 10
12.2140869777
 20
7.2240774464
 10
12.2353015153
 20
7.2516839074
 10
12.2601839148
 20
7.2742361184
 10
12.2884321376
 20
7.2914603261
 10
12.3197032886
 20
7.3031474518
 10
12.3536177784
 20
7.3091556299
 10
12.3897639309
 20
7.309411929
 10
12.427702981
 20
7.3039132381
 10
12.4669743998
 20
7.2927263039
 10
12.5071014856
 20
7.2759869205
 10
12.5475971499
 20
7.2538982815
 10
12.5879698302
 20
7.2267285129
 10
12.6277294568
 20
7.194807419
 10
12.6663934018
 20
7.1585224785
 10
12.7034923373
 20
7.1183141416
 10
12.7385759323
 20
7.0746704829
 10
12.7712183196
 20
7.0281212774
 10
12.8010232648
 20
6.9792315693
 10
12.8276289763
 20
6.9285948135
 10
12.8507124968
 20
6.8768256716
 10
12.8699936236
 20
6.8245525508
 10
12.8852383099
 20
6.7724099761
 10
12.8962615059
 20
6.7210308876
 10
12.9029294049
 20
6.671038958
 10
12.9051610677
 20
6.6230410214
  0
LWPOLYLINE
  5
25E
330
1F
100
AcDbEntity
  8
0
  6
Continuous
 62
     8
370
    25
100
AcDbPolyline
 90
       12
 70
   128
 43
0.0
 10
13.7890445442
 20
6.1127859515
 10
13.7868128814
 20
6.0673646379
 10
13.7801449823
 20
6.0250713006
 10
13.7691217863
 20
5.9864193233
 10
13.7538771
 20
5.9518778887
 10
13.7345959733
 20
5.9218662831
 10
13.7115124528
 20
5.8967488066
 10
13.6849067413
 20
5.8768303515
 10
13.6551017961
 20
5.8623527007
 10
13.6224594088
 20
5.8534915933
 10
13.5873758137
 20
5.8503545913
 10
13.5773325474
 20
5.8505030155
  0
LWPOLYLINE
  5
25F
330
1F
100
AcDbEntity
  8
0
  6
Continuous
 62
     8
370
    25
100
AcDbPolyline
 90
       26
 70
   128
 43
0.0
 10
13.0898953844
 20
6.700212144
 10
13.0979704542
 20
6.7138223765
 10
13.1191849918
 20
6.7414288375
 10
13.1440673913
 20
6.7639810485
 10
13.1723156141
 20
6.7812052562
 10
13.2035867651
 20
6.7928923819
 10
13.2375012548
 20
6.79890056
 10
13.2736474074
 20
6.7991568591
 10
13.3115864574
 20
6.7936581682
 10
13.3508578763
 20
6.782471234
 10
13.3909849621
 20
6.7657318506
 10
13.4314806264
 20
6.7436432116
 10
13.4718533067
 20
6.716473443
 10
13.5116129333
 20
6.6845523491
 10
13.5502768783
 20
6.6482674086
 10
13.5873758137
 20
6.6080590717
 10
13.6224594088
 20
6.564415413
 10
13.6551017961
 20
6.5178662075
 10
13.6849067413
 20
6.4689764994
 10
13.7115124528
 20
6.4183397436
 10
13.7345959733
 20
6.3665706017
 10
13.7538771
 20
6.314297481
 10
13.7691217863
 20
6.2621549062
 10
13.7801449823
 20
6.2107758178
 10
13.7868128814
 20
6.1607838881
 10
13.7890445442
 20
6.1127859515
  0
ARC
  5
260
330
1F
100
AcDbEntity
  8
0
  6
Continuous
 62
     8
370
    25
100
AcDbCircle
 10
14.3802254788
 20
5.566851376
 30
0.0
 40
0.2499167651290007
100
AcDbArc
 50
308.1166048042
 51
6.0856455368
  0
LWPOLYLINE
  5
261
330
1F
100
AcDbEntity
  8
0
  6
Continuous
 62
     8
370
    25
100
AcDbPolyline
 90
       22
 70
   128
 43
0.0
 10
14.0340944109
 20
6.2352540106
 10
14.0547435228
 20
6.243902508
 10
14.0870787117
 20
6.2517295766
 10
14.1217793892
 20
6.2538437948
 10
14.158409174
 20
6.2502185751
 10
14.1965074256
 20
6.2408995066
 10
14.2355950361
 20
6.2260037822
 10
14.2751804562
 20
6.2057187242
 10
14.3147658764
 20
6.180299429
 10
14.3538534869
 20
6.1500655589
 10
14.3919517384
 20
6.1153973224
 10
14.4285815233
 20
6.0767306927
 10
14.4632822008
 20
6.0345519251
 10
14.4956173897
 20
5.989391442
 10
14.5251804562
 20
5.9418171629
 10
14.5515996277
 20
5.8924273617
 10
14.5745426678
 20
5.841843144
 10
14.5937210543
 20
5.7907006355
 10
14.608893608
 20
5.7396429831
 10
14.6198695252
 20
5.6893122663
 10
14.6265107773
 20
5.6403414232
 10
14.6287338468
 20
5.5933462903
  0
LWPOLYLINE
  5
262
330
1F
100
AcDbEntity
  8
0
  6
Continuous
 62
     8
370
    25
100
AcDbPolyline
 90
       22
 70
   128
 43
0.0
 10
14.6446437494
 20
5.6025308816
 10
14.6424206799
 20
5.6495260144
 10
14.6357794278
 20
5.6984968576
 10
14.6248035106
 20
5.7488275744
 10
14.6096309569
 20
5.7998852268
 10
14.5904525704
 20
5.8510277352
 10
14.5675095303
 20
5.901611953
 10
14.5410903588
 20
5.9510017541
 10
14.5115272923
 20
5.9985760333
 10
14.4791921034
 20
6.0437365163
 10
14.4444914259
 20
6.0859152839
 10
14.407861641
 20
6.1245819136
 10
14.3697633895
 20
6.1592501501
 10
14.330675779
 20
6.1894840202
 10
14.2910903588
 20
6.2149033155
 10
14.2515049387
 20
6.2351883735
 10
14.2124173281
 20
6.2500840979
 10
14.1743190766
 20
6.2594031663
 10
14.1376892917
 20
6.263028386
 10
14.1029886143
 20
6.2609141678
 10
14.0706534254
 20
6.2530870992
 10
14.0560861298
 20
6.2473238026
  0
ARC
  5
263
330
1F
100
AcDbEntity
  8
0
  6
Continuous
 62
     8
370
    25
100
AcDbCircle
 10
14.4003895084
 20
5.5751496712
 30
0.0
 40
0.2457841836666205
100
AcDbArc
 50
304.9159547339
 51
6.3962256595
  0
ARC
  5
264
330
1F
100
AcDbEntity
  8
0
  6
Continuous
 62
     8
370
    25
100
AcDbCircle
 10
14.5183257321
 20
5.72290246
 30
0.0
 40
0.0098595586017103
100
AcDbArc
 50
173.7011524873
 51
234.9866671193
  0
LINE
  5
265
330
1F
100
AcDbEntity
  8
0
  6
Continuous
 62
     8
370
    25
100
AcDbLine
 10
12.0849172015
 20
7.7334462895
 30
0.0
 11
12.4622392852
 21
7.9512696919
 31
0.0
  0
LWPOLYLINE
  5
266
330
1F
100
AcDbEntity
  8
0
  6
Continuous
 62
     8
370
    25
100
AcDbPolyline
 90
        9
 70
   128
 43
0.0
 10
14.4851409919
 20
5.7195132835
 10
14.4797632244
 20
5.7153414986
 10
14.4722304413
 20
5.7026181573
 10
14.4696348211
 20
5.6851922029
 10
14.4722304413
 20
5.6647694092
 10
14.4797632244
 20
5.6433489016
 10
14.4914958093
 20
5.6230274685
 10
14.5062797287
 20
5.6057943135
 10
14.5226678297
 20
5.5933363378
  0
LINE
  5
267
330
1F
100
AcDbEntity
  8
0
  6
Continuous
 62
     8
370
    25
100
AcDbLine
 10
14.5875206434
 20
5.6307750703
 30
0.0
 11
14.5226678297
 21
5.5933363378
 31
0.0
  0
LINE
  5
268
330
1F
100
AcDbEntity
  8
0
  6
Continuous
 62
     8
370
    25
100
AcDbLine
 10
14.5226678297
 20
5.5933363378
 30
0.0
 11
14.5875206434
 21
5.5558976054
 31
0.0
  0
LINE
  5
269
330
1F
100
AcDbEntity
  8
0
  6
Continuous
 62
     8
370
    25
100
AcDbLine
 10
14.0807260914
 20
6.0628058359
 30
0.0
 11
14.2516449223
 21
5.964136495
 31
0.0
  0
LINE
  5
26A
330
1F
100
AcDbEntity
  8
0
  6
Continuous
 62
     8
370
    25
100
AcDbLine
 10
14.0807260914
 20
6.1376973481
 30
0.0
 11
14.0807260914
 21
6.0628058359
 31
0.0
  0
LINE
  5
26B
330
1F
100
AcDbEntity
  8
0
  6
Continuous
 62
     8
370
    25
100
AcDbLine
 10
14.0365319176
 20
5.7004617037
 30
0.0
 11
14.2958390962
 21
5.5507668559
 31
0.0
  0
ARC
  5
26C
330
1F
100
AcDbEntity
  8
0
  6
Continuous
 62
     8
370
    25
100
AcDbCircle
 10
13.4963420023
 20
6.0771064459
 30
0.0
 40
0.2499167651290119
100
AcDbArc
 50
308.1166048042
 51
6.0856455368
  0
LWPOLYLINE
  5
26D
330
1F
100
AcDbEntity
  8
0
  6
Continuous
 62
     8
370
    25
100
AcDbPolyline
 90
       22
 70
   128
 43
0.0
 10
13.1502109344
 20
6.7455090804
 10
13.1708600463
 20
6.7541575779
 10
13.2031952352
 20
6.7619846465
 10
13.2378959127
 20
6.7640988647
 10
13.2745256976
 20
6.7604736449
 10
13.3126239491
 20
6.7511545765
 10
13.3517115596
 20
6.7362588521
 10
13.3912969798
 20
6.7159737941
 10
13.4308823999
 20
6.6905544989
 10
13.4699700104
 20
6.6603206288
 10
13.508068262
 20
6.6256523923
 10
13.5446980468
 20
6.5869857626
 10
13.5793987243
 20
6.544806995
 10
13.6117339132
 20
6.4996465119
 10
13.6412969798
 20
6.4520722328
 10
13.6677161513
 20
6.4026824316
 10
13.6906591913
 20
6.3520982139
 10
13.7098375778
 20
6.3009557054
 10
13.7250101315
 20
6.249898053
 10
13.7359860487
 20
6.1995673362
 10
13.7426273008
 20
6.150596493
 10
13.7448503703
 20
6.1036013602
  0
LWPOLYLINE
  5
26E
330
1F
100
AcDbEntity
  8
0
  6
Continuous
 62
     8
370
    25
100
AcDbPolyline
 90
       22
 70
   128
 43
0.0
 10
13.7607602729
 20
6.1127859515
 10
13.7585372034
 20
6.1597810843
 10
13.7518959513
 20
6.2087519275
 10
13.7409200341
 20
6.2590826443
 10
13.7257474804
 20
6.3101402967
 10
13.7065690939
 20
6.3612828051
 10
13.6836260538
 20
6.4118670229
 10
13.6572068823
 20
6.461256824
 10
13.6276438158
 20
6.5088311032
 10
13.5953086269
 20
6.5539915862
 10
13.5606079494
 20
6.5961703538
 10
13.5239781645
 20
6.6348369835
 10
13.485879913
 20
6.66950522
 10
13.4467923025
 20
6.6997390901
 10
13.4072068823
 20
6.7251583854
 10
13.3676214622
 20
6.7454434434
 10
13.3285338517
 20
6.7603391678
 10
13.2904356001
 20
6.7696582362
 10
13.2538058152
 20
6.7732834559
 10
13.2191051378
 20
6.7711692377
 10
13.1867699489
 20
6.7633421691
 10
13.1722026534
 20
6.7575788725
  0
ARC
  5
26F
330
1F
100
AcDbEntity
  8
0
  6
Continuous
 62
     8
370
    25
100
AcDbCircle
 10
13.5165060319
 20
6.0854047411
 30
0.0
 40
0.2457841836666347
100
AcDbArc
 50
304.9159547339
 51
6.3962256595
  0
LINE
  5
270
330
1F
100
AcDbEntity
  8
0
  6
Continuous
 62
     8
370
    25
100
AcDbLine
 10
14.0365319176
 20
5.7753532159
 30
0.0
 11
14.0365319176
 21
5.7004617037
 31
0.0
  0
ARC
  5
271
330
1F
100
AcDbEntity
  8
0
  6
Continuous
 62
     8
370
    25
100
AcDbCircle
 10
12.0632067136
 20
6.6583757872
 30
0.0
 40
0.0492977929965001
100
AcDbArc
 50
173.701152479
 51
234.9866671276
  0
ARC
  5
272
330
1F
100
AcDbEntity
  8
0
  6
Continuous
 62
     8
370
    25
100
AcDbCircle
 10
13.6344422556
 20
6.2331575299
 30
0.0
 40
0.0098595585976897
100
AcDbArc
 50
173.7011524735
 51
234.9866671332
  0
LWPOLYLINE
  5
273
330
1F
100
AcDbEntity
  8
0
  6
Continuous
 62
     8
370
    25
100
AcDbPolyline
 90
        9
 70
   128
 43
0.0
 10
13.6012575154
 20
6.2297683534
 10
13.595879748
 20
6.2255965685
 10
13.5883469648
 20
6.2128732272
 10
13.5857513446
 20
6.1954472728
 10
13.5883469648
 20
6.1750244791
 10
13.595879748
 20
6.1536039715
 10
13.6076123328
 20
6.1332825384
 10
13.6223962523
 20
6.1160493834
 10
13.6387843532
 20
6.1035914077
  0
LINE
  5
274
330
1F
100
AcDbEntity
  8
0
  6
Continuous
 62
     8
370
    25
100
AcDbLine
 10
13.7036371669
 20
6.1410301402
 30
0.0
 11
13.6387843532
 21
6.1035914077
 31
0.0
  0
LINE
  5
275
330
1F
100
AcDbEntity
  8
0
  6
Continuous
 62
     8
370
    25
100
AcDbLine
 10
13.6387843532
 20
6.1035914077
 30
0.0
 11
13.7036371669
 21
6.0661526753
 31
0.0
  0
LINE
  5
276
330
1F
100
AcDbEntity
  8
0
  6
Continuous
 62
     8
370
    25
100
AcDbLine
 10
13.1968426149
 20
6.5730609058
 30
0.0
 11
13.3677614459
 21
6.4743915649
 31
0.0
  0
LINE
  5
277
330
1F
100
AcDbEntity
  8
0
  6
Continuous
 62
     8
370
    25
100
AcDbLine
 10
13.1968426149
 20
6.647952418
 30
0.0
 11
13.1968426149
 21
6.5730609058
 31
0.0
  0
LINE
  5
278
330
1F
100
AcDbEntity
  8
0
  6
Continuous
 62
     8
370
    25
100
AcDbLine
 10
13.1526484411
 20
6.2107167736
 30
0.0
 11
13.4119556197
 21
6.0610219258
 31
0.0
  0
ARC
  5
279
330
1F
100
AcDbEntity
  8
0
  6
Continuous
 62
     8
370
    25
100
AcDbCircle
 10
12.6124585258
 20
6.5873615158
 30
0.0
 40
0.2499167651290043
100
AcDbArc
 50
308.1166048042
 51
6.0856455368
  0
LWPOLYLINE
  5
27A
330
1F
100
AcDbEntity
  8
0
  6
Continuous
 62
     8
370
    25
100
AcDbPolyline
 90
       22
 70
   128
 43
0.0
 10
12.2663274579
 20
7.2557641503
 10
12.2869765698
 20
7.2644126478
 10
12.3193117587
 20
7.2722397164
 10
12.3540124362
 20
7.2743539346
 10
12.3906422211
 20
7.2707287148
 10
12.4287404726
 20
7.2614096464
 10
12.4678280831
 20
7.246513922
 10
12.5074135033
 20
7.226228864
 10
12.5469989234
 20
7.2008095688
 10
12.586086534
 20
7.1705756987
 10
12.6241847855
 20
7.1359074622
 10
12.6608145704
 20
7.0972408325
 10
12.6955152478
 20
7.0550620649
 10
12.7278504367
 20
7.0099015818
 10
12.7574135033
 20
6.9623273026
 10
12.7838326748
 20
6.9129375015
 10
12.8067757148
 20
6.8623532837
 10
12.8259541013
 20
6.8112107753
 10
12.841126655
 20
6.7601531229
 10
12.8521025722
 20
6.7098224061
 10
12.8587438244
 20
6.6608515629
 10
12.8609668939
 20
6.6138564301
  0
LWPOLYLINE
  5
27B
330
1F
100
AcDbEntity
  8
0
  6
Continuous
 62
     8
370
    25
100
AcDbPolyline
 90
       22
 70
   128
 43
0.0
 10
12.8768767964
 20
6.6230410214
 10
12.8746537269
 20
6.6700361542
 10
12.8680124748
 20
6.7190069974
 10
12.8570365576
 20
6.7693377142
 10
12.8418640039
 20
6.8203953666
 10
12.8226856174
 20
6.871537875
 10
12.7997425773
 20
6.9221220927
 10
12.7733234058
 20
6.9715118939
 10
12.7437603393
 20
7.0190861731
 10
12.7114251504
 20
7.0642466561
 10
12.6767244729
 20
7.1064254237
 10
12.640094688
 20
7.1450920534
 10
12.6019964365
 20
7.1797602899
 10
12.562908826
 20
7.20999416
 10
12.5233234058
 20
7.2354134553
 10
12.4837379857
 20
7.2556985133
 10
12.4446503752
 20
7.2705942377
 10
12.4065521237
 20
7.2799133061
 10
12.3699223388
 20
7.2835385258
 10
12.3352216613
 20
7.2814243076
 10
12.3028864724
 20
7.273597239
 10
12.2883191769
 20
7.2678339424
  0
ARC
  5
27C
330
1F
100
AcDbEntity
  8
0
  6
Continuous
 62
     8
370
    25
100
AcDbCircle
 10
12.6326225554
 20
6.595659811
 30
0.0
 40
0.2457841836666247
100
AcDbArc
 50
304.9159547339
 51
6.3962256595
  0
LINE
  5
27D
330
1F
100
AcDbEntity
  8
0
  6
Continuous
 62
     8
370
    25
100
AcDbLine
 10
13.1526484411
 20
6.2856082858
 30
0.0
 11
13.1526484411
 21
6.2107167736
 31
0.0
  0
SPLINE
  5
27E
330
1F
100
AcDbEntity
  8
0
  6
Continuous
 62
     8
370
    25
100
AcDbSpline
210
0.0
220
0.0
230
1.0
 70
     8
 71
     3
 72
    11
 73
     7
 74
     0
 42
0.000000001
 43
0.00000001
 40
0.0
 40
0.0
 40
0.0
 40
0.0
 40
0.3929456577855366
 40
0.8566224221951664
 40
0.9948835428402502
 40
1.0
 40
1.0
 40
1.0
 40
1.0
 10
12.11298533069724
 20
9.02319414793106
 30
0.0
 10
12.09530141842564
 20
9.038156538408465
 30
0.0
 10
12.05675044970045
 20
9.070774583470515
 30
0.0
 10
12.00804509494866
 20
9.102461251922106
 30
0.0
 10
11.9780851619253
 20
9.120590307750684
 30
0.0
 10
11.97097890019963
 20
9.124777364513026
 30
0.0
 10
11.97072531184751
 20
9.124926780459912
 30
0.0
  0
ARC
  5
27F
330
1F
100
AcDbEntity
  8
0
  6
Continuous
 62
     8
370
    25
100
AcDbCircle
 10
12.7505587791
 20
6.7434125998
 30
0.0
 40
0.0098595586017135
100
AcDbArc
 50
173.7011524873
 51
234.9866671193
  0
SPLINE
  5
280
330
1F
100
AcDbEntity
  8
0
  6
Continuous
 62
     8
370
    25
100
AcDbSpline
210
0.0
220
0.0
230
1.0
 70
     8
 71
     3
 72
     9
 73
     5
 74
     0
 42
0.000000001
 43
0.00000001
 40
0.0
 40
0.0
 40
0.0
 40
0.0
 40
0.3934572198961692
 40
1.0
 40
1.0
 40
1.0
 40
1.0
 10
11.79249318246223
 20
8.139033245957041
 30
0.0
 10
11.78888936845281
 20
8.139128729106147
 30
0.0
 10
11.77973001432944
 20
8.139371406439992
 30
0.0
 10
11.77091733452908
 20
8.141658576926622
 30
0.0
 10
11.7655720672228
 20
8.143045843672155
 30
0.0
  0
LWPOLYLINE
  5
281
330
1F
100
AcDbEntity
  8
0
  6
Continuous
 62
     8
370
    25
100
AcDbPolyline
 90
        9
 70
   128
 43
0.0
 10
12.717374039
 20
6.7400234233
 10
12.7119962715
 20
6.7358516384
 10
12.7044634883
 20
6.7231282971
 10
12.7018678681
 20
6.7057023427
 10
12.7044634883
 20
6.685279549
 10
12.7119962715
 20
6.6638590413
 10
12.7237288564
 20
6.6435376083
 10
12.7385127758
 20
6.6263044533
 10
12.7549008767
 20
6.6138464776
  0
LWPOLYLINE
  5
282
330
1F
100
AcDbEntity
  8
0
  6
Continuous
 62
     8
370
    25
100
AcDbPolyline
 90
       14
 70
   128
 43
0.0
 10
11.2987080893
 20
9.0236097307
 10
11.3258058443
 20
9.036082852
 10
11.3577031805
 20
9.0442335506
 10
11.3919581073
 20
9.0467680377
 10
11.4281467836
 20
9.0436549535
 10
11.4658214418
 20
9.0349328167
 10
11.504515928
 20
9.0207095475
 10
11.5437514699
 20
9.0011611326
 10
11.5830426004
 20
8.9765294471
 10
11.6219031649
 20
8.9471192625
 10
11.6598523361
 20
8.9132944751
 10
11.6964205635
 20
8.8754736038
 10
11.7311553833
 20
8.8341246116
 10
11.7636270165
 20
8.7897591155
  0
SPLINE
  5
283
330
1F
100
AcDbEntity
  8
0
  6
Continuous
 62
     8
370
    25
100
AcDbSpline
210
0.0
220
0.0
230
1.0
 70
     8
 71
     3
 72
    13
 73
     9
 74
     0
 42
0.000000001
 43
0.00000001
 40
0.0
 40
0.0
 40
0.0
 40
0.0
 40
0.0032454769317966
 40
0.0929972698900419
 40
0.3930494285989768
 40
0.6926460228112828
 40
0.878739962663732
 40
1.0
 40
1.0
 40
1.0
 40
1.0
 10
11.97072531184751
 20
9.124926780459914
 30
0.0
 10
11.97099194777486
 20
9.124807759046389
 30
0.0
 10
11.97863224651046
 20
9.121397269078706
 30
0.0
 10
12.01076451541764
 20
9.10642647100139
 30
0.0
 10
12.06596849310091
 20
9.076240432377814
 30
0.0
 10
12.12316921316151
 20
9.032814242612691
 30
0.0
 10
12.16295506189744
 20
8.993854357199744
 30
0.0
 10
12.17825305173825
 20
8.970333199505358
 30
0.0
 10
12.18428855138017
 20
8.961053422206552
 30
0.0
  0
LWPOLYLINE
  5
284
330
1F
100
AcDbEntity
  8
0
  6
Continuous
 62
     8
370
    25
100
AcDbPolyline
 90
       18
 70
   128
 43
0.0
 10
12.2894754998
 20
8.8683032447
 10
12.2824770429
 20
8.8857704353
 10
12.2595340028
 20
8.936354653
 10
12.2331148313
 20
8.9857444542
 10
12.2035517648
 20
9.0333187333
 10
12.1712165759
 20
9.0784792164
 10
12.1365158984
 20
9.120657984
 10
12.0998861135
 20
9.1593246137
 10
12.061787862
 20
9.1939928502
 10
12.0227002515
 20
9.2242267203
 10
11.9831148313
 20
9.2496460155
 10
11.9435294112
 20
9.2699310735
 10
11.9044418007
 20
9.2848267979
 10
11.8663435491
 20
9.2941458664
 10
11.8297137642
 20
9.2977710861
 10
11.7950130868
 20
9.2956568679
 10
11.7626778979
 20
9.2878297993
 10
11.7331351482
 20
9.2744000408
  0
LINE
  5
285
330
1F
100
AcDbEntity
  8
0
  6
Continuous
 62
     8
370
    25
100
AcDbLine
 10
12.8197536904
 20
6.6512852101
 30
0.0
 11
12.7549008767
 21
6.6138464776
 31
0.0
  0
LINE
  5
286
330
1F
100
AcDbEntity
  8
0
  6
Continuous
 62
     8
370
    25
100
AcDbLine
 10
12.7549008767
 20
6.6138464776
 30
0.0
 11
12.8197536904
 21
6.5764077451
 31
0.0
  0
LINE
  5
287
330
1F
100
AcDbEntity
  8
0
  6
Continuous
 62
     8
370
    25
100
AcDbLine
 10
12.3129591384
 20
7.0833159757
 30
0.0
 11
12.4838779694
 21
6.9846466348
 31
0.0
  0
LINE
  5
288
330
1F
100
AcDbEntity
  8
0
  6
Continuous
 62
     8
370
    25
100
AcDbLine
 10
12.3129591384
 20
7.1582074879
 30
0.0
 11
12.3129591384
 21
7.0833159757
 31
0.0
  0
LWPOLYLINE
  5
289
330
1F
100
AcDbEntity
  8
0
  6
Continuous
 62
     8
370
    25
100
AcDbPolyline
 90
       10
 70
   128
 43
0.0
 10
11.7436405277
 20
7.7663530059
 10
11.7449172015
 20
7.7670958103
 10
11.7798802222
 20
7.7835049539
 10
11.8177809157
 20
7.7940846658
 10
11.8582542776
 20
7.7987330577
 10
11.9009105275
 20
7.7974053629
 10
11.9453388622
 20
7.7901143679
 10
11.9911114126
 20
7.7769302889
 10
12.037787364
 20
7.7579800959
 10
12.0849172015
 20
7.7334462895
  0
LINE
  5
28A
330
1F
100
AcDbEntity
  8
0
  6
Continuous
 62
     8
370
    25
100
AcDbLine
 10
12.2687649646
 20
6.7209718435
 30
0.0
 11
12.5280721432
 21
6.5712769957
 31
0.0
  0
LINE
  5
28B
330
1F
100
AcDbEntity
  8
0
  6
Continuous
 62
     8
370
    25
100
AcDbLine
 10
12.2687649646
 20
6.7958633557
 30
0.0
 11
12.2687649646
 21
6.7209718435
 31
0.0
  0
ARC
  5
28C
330
1F
100
AcDbEntity
  8
0
  6
Continuous
 62
     8
370
    25
100
AcDbCircle
 10
11.7755699395
 20
8.1189744167
 30
0.0
 40
0.0262440999472221
100
AcDbArc
 50
49.8463267441
 51
100.7076143624
  0
LINE
  5
28D
330
1F
100
AcDbEntity
  8
0
  6
Continuous
 62
     8
370
    25
100
AcDbLine
 10
12.5770876332
 20
9.0209971396
 30
0.0
 11
12.3043193299
 21
8.8635313498
 31
0.0
  0
ENDSEC
  0
SECTION
  2
OBJECTS
  0
DICTIONARY
  5
C
330
0
100
AcDbDictionary
281
     1
  3
ACAD_GROUP
350
D
  3
ACAD_LAYOUT
350
1A
  3
ACAD_MLINESTYLE
350
17
  3
ACAD_PLOTSETTINGS
350
19
  3
ACAD_PLOTSTYLENAME
350
E
  3
ACAD_SCALELIST
350
47
  0
DICTIONARY
  5
D
102
{ACAD_REACTORS
330
C
102
}
330
C
100
AcDbDictionary
281
     1
  0
DICTIONARY
  5
1A
102
{ACAD_REACTORS
330
C
102
}
330
C
100
AcDbDictionary
281
     1
  3
Layout1
350
1E
  3
Layout2
350
26
  3
Model
350
22
  0
DICTIONARY
  5
17
102
{ACAD_REACTORS
330
C
102
}
330
C
100
AcDbDictionary
281
     1
  3
Standard
350
18
  0
DICTIONARY
  5
19
102
{ACAD_REACTORS
330
C
102
}
330
C
100
AcDbDictionary
281
     1
  0
ACDBDICTIONARYWDFLT
  5
E
102
{ACAD_REACTORS
330
C
102
}
330
C
100
AcDbDictionary
281
     1
  3
Normal
350
F
100
AcDbDictionaryWithDefault
340
F
  0
DICTIONARY
  5
47
102
{ACAD_REACTORS
330
C
102
}
330
C
100
AcDbDictionary
281
     1
  3
A0
350
48
  3
A1
350
49
  3
A2
350
4A
  3
A3
350
4B
  3
A4
350
4C
  3
A5
350
4D
  3
A6
350
4E
  3
A7
350
4F
  3
A8
350
50
  3
A9
350
51
  3
B0
350
52
  3
B1
350
53
  3
B2
350
54
  3
B3
350
55
  3
B4
350
56
  3
B5
350
57
  3
B6
350
58
  3
B7
350
59
  3
B8
350
5A
  3
B9
350
5B
  3
C0
350
5C
  3
C1
350
5D
  3
C2
350
5E
  3
C3
350
5F
  3
C4
350
60
  3
C5
350
61
  3
C6
350
62
  3
C7
350
63
  3
C8
350
64
  3
C9
350
65
  3
D0
350
66
  3
D1
350
67
  3
D2
350
68
  0
LAYOUT
  5
1E
102
{ACAD_REACTORS
330
1A
102
}
330
1A
100
AcDbPlotSettings
  1

  2
none_device
  4

  6

 40
0.0
 41
0.0
 42
0.0
 43
0.0
 44
0.0
 45
0.0
 46
0.0
 47
0.0
 48
0.0
 49
0.0
140
0.0
141
0.0
142
1.0
143
1.0
 70
   688
 72
     0
 73
     0
 74
     5
  7

 75
    16
147
1.0
148
0.0
149
0.0
100
AcDbLayout
  1
Layout1
 70
     1
 71
     1
 10
0.0
 20
0.0
 11
12.0
 21
9.0
 12
0.0
 22
0.0
 32
0.0
 14
1.0000000000E+20
 24
1.0000000000E+20
 34
1.0000000000E+20
 15
-1.0000000000E+20
 25
-1.0000000000E+20
 35
-1.0000000000E+20
146
0.0
 13
0.0
 23
0.0
 33
0.0
 16
1.0
 26
0.0
 36
0.0
 17
0.0
 27
1.0
 37
0.0
 76
     0
330
1B
  0
LAYOUT
  5
26
102
{ACAD_REACTORS
330
1A
102
}
330
1A
100
AcDbPlotSettings
  1

  2
none_device
  4

  6

 40
0.0
 41
0.0
 42
0.0
 43
0.0
 44
0.0
 45
0.0
 46
0.0
 47
0.0
 48
0.0
 49
0.0
140
0.0
141
0.0
142
1.0
143
1.0
 70
   688
 72
     0
 73
     0
 74
     5
  7

 75
    16
147
1.0
148
0.0
149
0.0
100
AcDbLayout
  1
Layout2
 70
     1
 71
     2
 10
0.0
 20
0.0
 11
0.0
 21
0.0
 12
0.0
 22
0.0
 32
0.0
 14
0.0
 24
0.0
 34
0.0
 15
0.0
 25
0.0
 35
0.0
146
0.0
 13
0.0
 23
0.0
 33
0.0
 16
1.0
 26
0.0
 36
0.0
 17
0.0
 27
1.0
 37
0.0
 76
     0
330
23
  0
LAYOUT
  5
22
102
{ACAD_REACTORS
330
1A
102
}
330
1A
100
AcDbPlotSettings
  1

  2
none_device
  4
Letter_(8.50_x_11.00_Inches)
  6

 40
6.35
 41
6.35
 42
6.35000508
 43
6.35000508
 44
215.9
 45
279.4
 46
0.0
 47
0.0
 48
0.0
 49
0.0
140
0.0
141
0.0
142
1.0
143
1.0
 70
  1712
 72
     0
 73
     0
 74
     0
  7

 75
     0
147
1.0
148
0.0
149
0.0
100
AcDbLayout
  1
Model
 70
     1
 71
     0
 10
0.0
 20
0.0
 11
17.0
 21
11.0
 12
0.0
 22
0.0
 32
0.0
 14
0.0
 24
0.0
 34
0.0
 15
17.0
 25
11.0
 35
0.0
146
0.0
 13
0.0
 23
0.0
 33
0.0
 16
1.0
 26
0.0
 36
0.0
 17
0.0
 27
1.0
 37
0.0
 76
     0
330
1F
331
29
  0
MLINESTYLE
  5
18
102
{ACAD_REACTORS
330
17
102
}
330
17
100
AcDbMlineStyle
  2
Standard
 70
     0
  3

 62
   256
 51
90.0
 52
90.0
 71
     2
 49
0.5
 62
   256
  6
BYLAYER
 49
-0.5
 62
   256
  6
BYLAYER
  0
ACDBPLACEHOLDER
  5
F
102
{ACAD_REACTORS
330
E
102
}
330
E
  0
SCALE
  5
48
102
{ACAD_REACTORS
330
47
102
}
330
47
100
AcDbScale
 70
     0
300
1:1
140
1.0
141
1.0
290
     1
  0
SCALE
  5
49
102
{ACAD_REACTORS
330
47
102
}
330
47
100
AcDbScale
 70
     0
300
1:2
140
1.0
141
2.0
290
     0
  0
SCALE
  5
4A
102
{ACAD_REACTORS
330
47
102
}
330
47
100
AcDbScale
 70
     0
300
1:4
140
1.0
141
4.0
290
     0
  0
SCALE
  5
4B
102
{ACAD_REACTORS
330
47
102
}
330
47
100
AcDbScale
 70
     0
300
1:5
140
1.0
141
5.0
290
     0
  0
SCALE
  5
4C
102
{ACAD_REACTORS
330
47
102
}
330
47
100
AcDbScale
 70
     0
300
1:8
140
1.0
141
8.0
290
     0
  0
SCALE
  5
4D
102
{ACAD_REACTORS
330
47
102
}
330
47
100
AcDbScale
 70
     0
300
1:10
140
1.0
141
10.0
290
     0
  0
SCALE
  5
4E
102
{ACAD_REACTORS
330
47
102
}
330
47
100
AcDbScale
 70
     0
300
1:16
140
1.0
141
16.0
290
     0
  0
SCALE
  5
4F
102
{ACAD_REACTORS
330
47
102
}
330
47
100
AcDbScale
 70
     0
300
1:20
140
1.0
141
20.0
290
     0
  0
SCALE
  5
50
102
{ACAD_REACTORS
330
47
102
}
330
47
100
AcDbScale
 70
     0
300
1:30
140
1.0
141
30.0
290
     0
  0
SCALE
  5
51
102
{ACAD_REACTORS
330
47
102
}
330
47
100
AcDbScale
 70
     0
300
1:40
140
1.0
141
40.0
290
     0
  0
SCALE
  5
52
102
{ACAD_REACTORS
330
47
102
}
330
47
100
AcDbScale
 70
     0
300
1:50
140
1.0
141
50.0
290
     0
  0
SCALE
  5
53
102
{ACAD_REACTORS
330
47
102
}
330
47
100
AcDbScale
 70
     0
300
1:100
140
1.0
141
100.0
290
     0
  0
SCALE
  5
54
102
{ACAD_REACTORS
330
47
102
}
330
47
100
AcDbScale
 70
     0
300
2:1
140
2.0
141
1.0
290
     0
  0
SCALE
  5
55
102
{ACAD_REACTORS
330
47
102
}
330
47
100
AcDbScale
 70
     0
300
4:1
140
4.0
141
1.0
290
     0
  0
SCALE
  5
56
102
{ACAD_REACTORS
330
47
102
}
330
47
100
AcDbScale
 70
     0
300
8:1
140
8.0
141
1.0
290
     0
  0
SCALE
  5
57
102
{ACAD_REACTORS
330
47
102
}
330
47
100
AcDbScale
 70
     0
300
10:1
140
10.0
141
1.0
290
     0
  0
SCALE
  5
58
102
{ACAD_REACTORS
330
47
102
}
330
47
100
AcDbScale
 70
     0
300
100:1
140
100.0
141
1.0
290
     0
  0
SCALE
  5
59
102
{ACAD_REACTORS
330
47
102
}
330
47
100
AcDbScale
 70
     0
300
1/128" = 1'-0"
140
0.0078125
141
12.0
290
     0
  0
SCALE
  5
5A
102
{ACAD_REACTORS
330
47
102
}
330
47
100
AcDbScale
 70
     0
300
1/64" = 1'-0"
140
0.015625
141
12.0
290
     0
  0
SCALE
  5
5B
102
{ACAD_REACTORS
330
47
102
}
330
47
100
AcDbScale
 70
     0
300
1/32" = 1'-0"
140
0.03125
141
12.0
290
     0
  0
SCALE
  5
5C
102
{ACAD_REACTORS
330
47
102
}
330
47
100
AcDbScale
 70
     0
300
1/16" = 1'-0"
140
0.0625
141
12.0
290
     0
  0
SCALE
  5
5D
102
{ACAD_REACTORS
330
47
102
}
330
47
100
AcDbScale
 70
     0
300
3/32" = 1'-0"
140
0.09375
141
12.0
290
     0
  0
SCALE
  5
5E
102
{ACAD_REACTORS
330
47
102
}
330
47
100
AcDbScale
 70
     0
300
1/8" = 1'-0"
140
0.125
141
12.0
290
     0
  0
SCALE
  5
5F
102
{ACAD_REACTORS
330
47
102
}
330
47
100
AcDbScale
 70
     0
300
3/16" = 1'-0"
140
0.1875
141
12.0
290
     0
  0
SCALE
  5
60
102
{ACAD_REACTORS
330
47
102
}
330
47
100
AcDbScale
 70
     0
300
1/4" = 1'-0"
140
0.25
141
12.0
290
     0
  0
SCALE
  5
61
102
{ACAD_REACTORS
330
47
102
}
330
47
100
AcDbScale
 70
     0
300
3/8" = 1'-0"
140
0.375
141
12.0
290
     0
  0
SCALE
  5
62
102
{ACAD_REACTORS
330
47
102
}
330
47
100
AcDbScale
 70
     0
300
1/2" = 1'-0"
140
0.5
141
12.0
290
     0
  0
SCALE
  5
63
102
{ACAD_REACTORS
330
47
102
}
330
47
100
AcDbScale
 70
     0
300
3/4" = 1'-0"
140
0.75
141
12.0
290
     0
  0
SCALE
  5
64
102
{ACAD_REACTORS
330
47
102
}
330
47
100
AcDbScale
 70
     0
300
1" = 1'-0"
140
1.0
141
12.0
290
     0
  0
SCALE
  5
65
102
{ACAD_REACTORS
330
47
102
}
330
47
100
AcDbScale
 70
     0
300
1-1/2" = 1'-0"
140
1.5
141
12.0
290
     0
  0
SCALE
  5
66
102
{ACAD_REACTORS
330
47
102
}
330
47
100
AcDbScale
 70
     0
300
3" = 1'-0"
140
3.0
141
12.0
290
     0
  0
SCALE
  5
67
102
{ACAD_REACTORS
330
47
102
}
330
47
100
AcDbScale
 70
     0
300
6" = 1'-0"
140
6.0
141
12.0
290
     0
  0
SCALE
  5
68
102
{ACAD_REACTORS
330
47
102
}
330
47
100
AcDbScale
 70
     0
300
1'-0" = 1'-0"
140
12.0
141
12.0
290
     0
  0
ENDSEC
  0
EOF
