  0
SECTION
  2
HEADER
  9
$ACADVER
  1
AC1015
  9
$ACADMAINTVER
 70
     6
  9
$DWGCODEPAGE
  3
ANSI_1252
  9
$INSBASE
 10
0.0
 20
0.0
 30
0.0
  9
$EXTMIN
 10
0.0
 20
0.0
 30
0.0
  9
$EXTMAX
 10
17.0
 20
11.0
 30
0.0
  9
$LIMMIN
 10
0.0
 20
0.0
  9
$LIMMAX
 10
17.0
 20
11.0
  9
$ORTHOMODE
 70
     0
  9
$REGENMODE
 70
     1
  9
$FILLMODE
 70
     1
  9
$QTEXTMODE
 70
     0
  9
$MIRRTEXT
 70
     1
  9
$LTSCALE
 40
1.0
  9
$ATTMODE
 70
     1
  9
$TEXTSIZE
 40
0.125
  9
$TRACEWID
 40
0.05
  9
$TEXTSTYLE
  7
Standard
  9
$CLAYER
  8
0
  9
$CELTYPE
  6
ByLayer
  9
$CECOLOR
 62
   256
  9
$CELTSCALE
 40
1.0
  9
$DISPSILH
 70
     0
  9
$DIMSCALE
 40
1.0
  9
$DIMASZ
 40
0.13
  9
$DIMEXO
 40
0.05
  9
$DIMDLI
 40
0.38
  9
$DIMRND
 40
0.0
  9
$DIMDLE
 40
0.0
  9
$DIMEXE
 40
0.125
  9
$DIMTP
 40
0.0
  9
$DIMTM
 40
0.0
  9
$DIMTXT
 40
0.125
  9
$DIMCEN
 40
0.09
  9
$DIMTSZ
 40
0.0
  9
$DIMTOL
 70
     0
  9
$DIMLIM
 70
     0
  9
$DIMTIH
 70
     1
  9
$DIMTOH
 70
     1
  9
$DIMSE1
 70
     0
  9
$DIMSE2
 70
     0
  9
$DIMTAD
 70
     0
  9
$DIMZIN
 70
     0
  9
$DIMBLK
  1

  9
$DIMASO
 70
     1
  9
$DIMSHO
 70
     1
  9
$DIMPOST
  1

  9
$DIMAPOST
  1

  9
$DIMALT
 70
     0
  9
$DIMALTD
 70
     2
  9
$DIMALTF
 40
25.4
  9
$DIMLFAC
 40
1.0
  9
$DIMTOFL
 70
     0
  9
$DIMTVP
 40
0.0
  9
$DIMTIX
 70
     0
  9
$DIMSOXD
 70
     0
  9
$DIMSAH
 70
     0
  9
$DIMBLK1
  1

  9
$DIMBLK2
  1

  9
$DIMSTYLE
  2
Standard
  9
$DIMCLRD
 70
     0
  9
$DIMCLRE
 70
     0
  9
$DIMCLRT
 70
     0
  9
$DIMTFAC
 40
1.0
  9
$DIMGAP
 40
0.06
  9
$DIMJUST
 70
     0
  9
$DIMSD1
 70
     0
  9
$DIMSD2
 70
     0
  9
$DIMTOLJ
 70
     1
  9
$DIMTZIN
 70
     0
  9
$DIMALTZ
 70
     0
  9
$DIMALTTZ
 70
     0
  9
$DIMUPT
 70
     0
  9
$DIMDEC
 70
     3
  9
$DIMTDEC
 70
     3
  9
$DIMALTU
 70
     2
  9
$DIMALTTD
 70
     2
  9
$DIMTXSTY
  7
Standard
  9
$DIMAUNIT
 70
     0
  9
$DIMADEC
 70
     2
  9
$DIMALTRND
 40
0.0
  9
$DIMAZIN
 70
     0
  9
$DIMDSEP
 70
    46
  9
$DIMATFIT
 70
     3
  9
$DIMFRAC
 70
     0
  9
$DIMLDRBLK
  1

  9
$DIMLUNIT
 70
     2
  9
$DIMLWD
 70
    -2
  9
$DIMLWE
 70
    -2
  9
$DIMTMOVE
 70
     0
  9
$LUNITS
 70
     2
  9
$LUPREC
 70
     3
  9
$SKETCHINC
 40
0.1
  9
$FILLETRAD
 40
0.5
  9
$AUNITS
 70
     0
  9
$AUPREC
 70
     2
  9
$MENU
  1
.
  9
$ELEVATION
 40
0.0
  9
$PELEVATION
 40
0.0
  9
$THICKNESS
 40
0.0
  9
$LIMCHECK
 70
     0
  9
$CHAMFERA
 40
0.0
  9
$CHAMFERB
 40
0.0
  9
$CHAMFERC
 40
0.0
  9
$CHAMFERD
 40
0.0
  9
$SKPOLY
 70
     0
  9
$TDCREATE
 40
2457680.578114757
  9
$TDUCREATE
 40
2457680.869781424
  9
$TDUPDATE
 40
2457680.57811566
  9
$TDUUPDATE
 40
2457680.869782326
  9
$TDINDWG
 40
0.0000000116
  9
$TDUSRTIMER
 40
0.0000000116
  9
$USRTIMER
 70
     1
  9
$ANGBASE
 50
0.0
  9
$ANGDIR
 70
     0
  9
$PDMODE
 70
     0
  9
$PDSIZE
 40
-1.0
  9
$PLINEWID
 40
0.0
  9
$SPLFRAME
 70
     0
  9
$SPLINETYPE
 70
     6
  9
$SPLINESEGS
 70
     8
  9
$HANDSEED
  5
299
  9
$SURFTAB1
 70
     6
  9
$SURFTAB2
 70
     6
  9
$SURFTYPE
 70
     6
  9
$SURFU
 70
     6
  9
$SURFV
 70
     6
  9
$UCSBASE
  2

  9
$UCSNAME
  2

  9
$UCSORG
 10
0.0
 20
0.0
 30
0.0
  9
$UCSXDIR
 10
1.0
 20
0.0
 30
0.0
  9
$UCSYDIR
 10
0.0
 20
1.0
 30
0.0
  9
$UCSORTHOREF
  2

  9
$UCSORTHOVIEW
 70
     0
  9
$UCSORGTOP
 10
0.0
 20
0.0
 30
0.0
  9
$UCSORGBOTTOM
 10
0.0
 20
0.0
 30
0.0
  9
$UCSORGLEFT
 10
0.0
 20
0.0
 30
0.0
  9
$UCSORGRIGHT
 10
0.0
 20
0.0
 30
0.0
  9
$UCSORGFRONT
 10
0.0
 20
0.0
 30
0.0
  9
$UCSORGBACK
 10
0.0
 20
0.0
 30
0.0
  9
$PUCSBASE
  2

  9
$PUCSNAME
  2

  9
$PUCSORG
 10
0.0
 20
0.0
 30
0.0
  9
$PUCSXDIR
 10
1.0
 20
0.0
 30
0.0
  9
$PUCSYDIR
 10
0.0
 20
1.0
 30
0.0
  9
$PUCSORTHOREF
  2

  9
$PUCSORTHOVIEW
 70
     0
  9
$PUCSORGTOP
 10
0.0
 20
0.0
 30
0.0
  9
$PUCSORGBOTTOM
 10
0.0
 20
0.0
 30
0.0
  9
$PUCSORGLEFT
 10
0.0
 20
0.0
 30
0.0
  9
$PUCSORGRIGHT
 10
0.0
 20
0.0
 30
0.0
  9
$PUCSORGFRONT
 10
0.0
 20
0.0
 30
0.0
  9
$PUCSORGBACK
 10
0.0
 20
0.0
 30
0.0
  9
$USERI1
 70
     0
  9
$USERI2
 70
     0
  9
$USERI3
 70
     0
  9
$USERI4
 70
     0
  9
$USERI5
 70
     0
  9
$USERR1
 40
0.0
  9
$USERR2
 40
0.0
  9
$USERR3
 40
0.0
  9
$USERR4
 40
0.0
  9
$USERR5
 40
0.0
  9
$WORLDVIEW
 70
     1
  9
$SHADEDGE
 70
     3
  9
$SHADEDIF
 70
    70
  9
$TILEMODE
 70
     1
  9
$MAXACTVP
 70
    64
  9
$PINSBASE
 10
0.0
 20
0.0
 30
0.0
  9
$PLIMCHECK
 70
     0
  9
$PEXTMIN
 10
1.0000000000E+20
 20
1.0000000000E+20
 30
1.0000000000E+20
  9
$PEXTMAX
 10
-1.0000000000E+20
 20
-1.0000000000E+20
 30
-1.0000000000E+20
  9
$PLIMMIN
 10
0.0
 20
0.0
  9
$PLIMMAX
 10
12.0
 20
9.0
  9
$UNITMODE
 70
     0
  9
$VISRETAIN
 70
     1
  9
$PLINEGEN
 70
     0
  9
$PSLTSCALE
 70
     1
  9
$TREEDEPTH
 70
  3020
  9
$CMLSTYLE
  2
Standard
  9
$CMLJUST
 70
     0
  9
$CMLSCALE
 40
1.0
  9
$PROXYGRAPHICS
 70
     1
  9
$MEASUREMENT
 70
     0
  9
$CELWEIGHT
370
    -1
  9
$ENDCAPS
280
     0
  9
$JOINSTYLE
280
     0
  9
$LWDISPLAY
290
     1
  9
$INSUNITS
 70
     1
  9
$HYPERLINKBASE
  1

  9
$STYLESHEET
  1

  9
$XEDIT
290
     1
  9
$CEPSNTYPE
380
     0
  9
$PSTYLEMODE
290
     1
  9
$FINGERPRINTGUID
  2
{D2E07292-D916-4BA8-A0B5-6B0090B9C46F}
  9
$VERSIONGUID
  2
{FAEB1C32-E019-11D5-929B-00C0DF256EC4}
  9
$EXTNAMES
290
     1
  9
$PSVPSCALE
 40
0.0
  9
$OLESTARTUP
290
     0
  0
ENDSEC
  0
SECTION
  2
CLASSES
  0
CLASS
  1
ACDBDICTIONARYWDFLT
  2
AcDbDictionaryWithDefault
  3
ObjectDBX Classes
 90
        0
280
     0
281
     0
  0
CLASS
  1
VISUALSTYLE
  2
AcDbVisualStyle
  3
ObjectDBX Classes
 90
     4095
280
     0
281
     0
  0
CLASS
  1
MATERIAL
  2
AcDbMaterial
  3
ObjectDBX Classes
 90
     1153
280
     0
281
     0
  0
CLASS
  1
SCALE
  2
AcDbScale
  3
ObjectDBX Classes
 90
     1153
280
     0
281
     0
  0
CLASS
  1
TABLESTYLE
  2
AcDbTableStyle
  3
ObjectDBX Classes
 90
     4095
280
     0
281
     0
  0
CLASS
  1
MLEADERSTYLE
  2
AcDbMLeaderStyle
  3
ACDB_MLEADERSTYLE_CLASS
 90
     4095
280
     0
281
     0
  0
CLASS
  1
SUN
  2
AcDbSun
  3
SCENEOE
 90
     1153
280
     0
281
     0
  0
CLASS
  1
ACDBPLACEHOLDER
  2
AcDbPlaceHolder
  3
ObjectDBX Classes
 90
        0
280
     0
281
     0
  0
CLASS
  1
LAYOUT
  2
AcDbLayout
  3
ObjectDBX Classes
 90
        0
280
     0
281
     0
  0
ENDSEC
  0
SECTION
  2
TABLES
  0
TABLE
  2
VPORT
  5
8
330
0
100
AcDbSymbolTable
 70
     1
  0
VPORT
  5
29
330
8
100
AcDbSymbolTableRecord
100
AcDbViewportTableRecord
  2
*Active
 70
     0
 10
0.0
 20
0.0
 11
1.0
 21
1.0
 12
8.5
 22
5.5
 13
0.0
 23
0.0
 14
0.5
 24
0.5
 15
0.5
 25
0.5
 16
0.0
 26
0.0
 36
1.0
 17
0.0
 27
0.0
 37
0.0
 40
11.0
 41
1.5454545455
 42
50.0
 43
0.0
 44
0.0
 50
0.0
 51
0.0
 71
     0
 72
  2000
 73
     1
 74
     3
 75
     0
 76
     0
 77
     0
 78
     0
281
     0
 65
     1
110
0.0
120
0.0
130
0.0
111
1.0
121
0.0
131
0.0
112
0.0
122
1.0
132
0.0
 79
     0
146
0.0
  0
ENDTAB
  0
TABLE
  2
LTYPE
  5
5
330
0
100
AcDbSymbolTable
 70
     6
  0
LTYPE
  5
14
330
5
100
AcDbSymbolTableRecord
100
AcDbLinetypeTableRecord
  2
ByBlock
 70
     0
  3

 72
    65
 73
     0
 40
0.0
  0
LTYPE
  5
15
330
5
100
AcDbSymbolTableRecord
100
AcDbLinetypeTableRecord
  2
ByLayer
 70
     0
  3

 72
    65
 73
     0
 40
0.0
  0
LTYPE
  5
16
330
5
100
AcDbSymbolTableRecord
100
AcDbLinetypeTableRecord
  2
Continuous
 70
     0
  3
Solid line
 72
    65
 73
     0
 40
0.0
  0
LTYPE
  5
6E
330
5
100
AcDbSymbolTableRecord
100
AcDbLinetypeTableRecord
  2
HIDDEN
 70
     0
  3
Hidden __ __ __ __ __ __ __ __ __ __ __ __ __ __
 72
    65
 73
     2
 40
0.075
 49
0.05
 74
     0
 49
-0.025
 74
     0
  0
LTYPE
  5
6F
330
5
100
AcDbSymbolTableRecord
100
AcDbLinetypeTableRecord
  2
PHANTOM
 70
     0
  3
Phantom ______  __  __  ______  __  __  ______
 72
    65
 73
     6
 40
0.5
 49
0.25
 74
     0
 49
-0.05
 74
     0
 49
0.05
 74
     0
 49
-0.05
 74
     0
 49
0.05
 74
     0
 49
-0.05
 74
     0
  0
LTYPE
  5
70
330
5
100
AcDbSymbolTableRecord
100
AcDbLinetypeTableRecord
  2
CENTER
 70
     0
  3
Center ____ _ ____ _ ____ _ ____ _ ____ _ ____
 72
    65
 73
     4
 40
0.4
 49
0.25
 74
     0
 49
-0.05
 74
     0
 49
0.05
 74
     0
 49
-0.05
 74
     0
  0
LTYPE
  5
71
330
5
100
AcDbSymbolTableRecord
100
AcDbLinetypeTableRecord
  2
CENTERX2
 70
     0
  3
Center (2x) ________  __  ________  __  _____
 72
    65
 73
     4
 40
0.8
 49
0.5
 74
     0
 49
-0.1
 74
     0
 49
0.1
 74
     0
 49
-0.1
 74
     0
  0
LTYPE
  5
72
330
5
100
AcDbSymbolTableRecord
100
AcDbLinetypeTableRecord
  2
DOT2
 70
     0
  3
Dot (.5x) ........................................
 72
    65
 73
     2
 40
0.025
 49
0.0
 74
     0
 49
-0.025
 74
     0
  0
ENDTAB
  0
TABLE
  2
LAYER
  5
2
330
0
100
AcDbSymbolTable
 70
     1
  0
LAYER
  5
10
330
2
100
AcDbSymbolTableRecord
100
AcDbLayerTableRecord
  2
0
 70
     0
 62
     7
  6
Continuous
370
    -3
390
F
  0
ENDTAB
  0
TABLE
  2
STYLE
  5
3
330
0
100
AcDbSymbolTable
 70
     2
  0
STYLE
  5
11
330
3
100
AcDbSymbolTableRecord
100
AcDbTextStyleTableRecord
  2
Standard
 70
     0
 40
0.0
 41
1.0
 50
0.0
 71
     0
 42
0.125
  3
txt
  4

  0
STYLE
  5
202
330
3
100
AcDbSymbolTableRecord
100
AcDbTextStyleTableRecord
  2
SLDTEXTSTYLE0
 70
     0
 40
0.0
 41
0.605
 50
0.0
 71
     0
 42
0.125
  3
TXT
  4

  0
ENDTAB
  0
TABLE
  2
VIEW
  5
6
330
0
100
AcDbSymbolTable
 70
     0
  0
ENDTAB
  0
TABLE
  2
UCS
  5
7
330
0
100
AcDbSymbolTable
 70
     0
  0
ENDTAB
  0
TABLE
  2
APPID
  5
9
330
0
100
AcDbSymbolTable
 70
     1
  0
APPID
  5
12
330
9
100
AcDbSymbolTableRecord
100
AcDbRegAppTableRecord
  2
ACAD
 70
     0
  0
ENDTAB
  0
TABLE
  2
DIMSTYLE
  5
A
330
0
100
AcDbSymbolTable
 70
     2
100
AcDbDimStyleTable
  0
DIMSTYLE
105
27
330
A
100
AcDbSymbolTableRecord
100
AcDbDimStyleTableRecord
  2
Standard
 70
     0
178
     0
340
11
  0
DIMSTYLE
105
203
102
{ACAD_REACTORS
330
201
330
247
330
28E
102
}
330
A
100
AcDbSymbolTableRecord
100
AcDbDimStyleTableRecord
  2
SLDDIMSTYLE0
 70
     0
 41
0.13
 44
0.0
 45
0.000000001
 78
    12
 79
     3
140
0.125
147
0.03125
173
     1
178
     0
271
     2
272
     2
276
     2
284
    12
340
202
  0
ENDTAB
  0
TABLE
  2
BLOCK_RECORD
  5
1
330
0
100
AcDbSymbolTable
 70
     4
  0
BLOCK_RECORD
  5
1F
330
1
100
AcDbSymbolTableRecord
100
AcDbBlockTableRecord
  2
*Model_Space
340
22
  0
BLOCK_RECORD
  5
1B
330
1
100
AcDbSymbolTableRecord
100
AcDbBlockTableRecord
  2
*Paper_Space
340
1E
  0
BLOCK_RECORD
  5
23
330
1
100
AcDbSymbolTableRecord
100
AcDbBlockTableRecord
  2
*Paper_Space0
340
26
  0
BLOCK_RECORD
  5
204
330
1
100
AcDbSymbolTableRecord
100
AcDbBlockTableRecord
  2
_D
340
0
  0
BLOCK_RECORD
  5
248
330
1
100
AcDbSymbolTableRecord
100
AcDbBlockTableRecord
  2
_D_1
340
0
  0
BLOCK_RECORD
  5
28F
330
1
100
AcDbSymbolTableRecord
100
AcDbBlockTableRecord
  2
_D_2
340
0
  0
ENDTAB
  0
ENDSEC
  0
SECTION
  2
BLOCKS
  0
BLOCK
  5
20
330
1F
100
AcDbEntity
  8
0
100
AcDbBlockBegin
  2
*Model_Space
 70
     0
 10
0.0
 20
0.0
 30
0.0
  3
*Model_Space
  1

  0
ENDBLK
  5
21
330
1F
100
AcDbEntity
  8
0
100
AcDbBlockEnd
  0
BLOCK
  5
1C
330
1B
100
AcDbEntity
 67
     1
  8
0
100
AcDbBlockBegin
  2
*Paper_Space
 70
     0
 10
0.0
 20
0.0
 30
0.0
  3
*Paper_Space
  1

  0
ENDBLK
  5
1D
330
1B
100
AcDbEntity
 67
     1
  8
0
100
AcDbBlockEnd
  0
BLOCK
  5
24
330
23
100
AcDbEntity
  8
0
100
AcDbBlockBegin
  2
*Paper_Space0
 70
     0
 10
0.0
 20
0.0
 30
0.0
  3
*Paper_Space0
  1

  0
ENDBLK
  5
25
330
23
100
AcDbEntity
  8
0
100
AcDbBlockEnd
  0
BLOCK
  5
205
330
204
100
AcDbEntity
  8
0
100
AcDbBlockBegin
  2
_D
 70
     0
 10
0.0
 20
0.0
 30
0.0
  3
_D
  1

  0
SOLID
  5
207
330
204
100
AcDbEntity
  8
0
  6
Continuous
 62
     7
370
     0
100
AcDbTrace
 10
7.5284787974
 20
3.7953693763
 30
0.0
 11
7.3984787974
 21
3.8153693763
 31
0.0
 12
7.3984787974
 22
3.7753693763
 32
0.0
 13
7.3984787974
 23
3.7753693763
 33
0.0
  0
SOLID
  5
208
330
204
100
AcDbEntity
  8
0
  6
Continuous
 62
     7
370
     0
100
AcDbTrace
 10
3.1934787974
 20
3.7953693763
 30
0.0
 11
3.3234787974
 21
3.7753693763
 31
0.0
 12
3.3234787974
 22
3.8153693763
 32
0.0
 13
3.3234787974
 23
3.8153693763
 33
0.0
  0
LINE
  5
209
330
204
100
AcDbEntity
  8
0
  6
Continuous
 62
     7
370
     0
100
AcDbLine
 10
7.5284787974
 20
4.0868150289
 30
0.0
 11
7.5284787974
 21
3.6703693763
 31
0.0
  0
LINE
  5
20A
330
204
100
AcDbEntity
  8
0
  6
Continuous
 62
     7
370
     0
100
AcDbLine
 10
3.1934787974
 20
4.6201483622
 30
0.0
 11
3.1934787974
 21
3.6703693763
 31
0.0
  0
LINE
  5
20B
330
204
100
AcDbEntity
  8
0
  6
Continuous
 62
     7
370
     0
100
AcDbLine
 10
7.5284787974
 20
3.7953693763
 30
0.0
 11
5.7426983753
 21
3.7953693763
 31
0.0
  0
LINE
  5
20C
330
204
100
AcDbEntity
  8
0
  6
Continuous
 62
     7
370
     0
100
AcDbLine
 10
3.1934787974
 20
3.7953693763
 30
0.0
 11
5.4084969727
 21
3.7953693763
 31
0.0
  0
MTEXT
  5
20D
330
204
100
AcDbEntity
  8
0
  6
Continuous
 62
     7
370
     0
100
AcDbMText
 10
5.4084969727
 20
3.8605827098
 30
0.0
 40
0.125
 41
0.0
 71
     1
 72
     1
  1
4.34
  7
SLDTEXTSTYLE0
 73
     1
 44
1.0
  0
ENDBLK
  5
206
330
204
100
AcDbEntity
  8
0
100
AcDbBlockEnd
  0
BLOCK
  5
249
330
248
100
AcDbEntity
  8
0
100
AcDbBlockBegin
  2
_D_1
 70
     0
 10
0.0
 20
0.0
 30
0.0
  3
_D_1
  1

  0
SOLID
  5
24B
330
248
100
AcDbEntity
  8
0
  6
Continuous
 62
     7
370
     0
100
AcDbTrace
 10
8.9973381053
 20
5.8868150289
 30
0.0
 11
8.9773381053
 21
5.7568150289
 31
0.0
 12
9.0173381053
 22
5.7568150289
 32
0.0
 13
9.0173381053
 23
5.7568150289
 33
0.0
  0
SOLID
  5
24C
330
248
100
AcDbEntity
  8
0
  6
Continuous
 62
     7
370
     0
100
AcDbTrace
 10
8.9973381053
 20
4.1368150289
 30
0.0
 11
9.0173381053
 21
4.2668150289
 31
0.0
 12
8.9773381053
 22
4.2668150289
 32
0.0
 13
8.9773381053
 23
4.2668150289
 33
0.0
  0
LINE
  5
24D
330
248
100
AcDbEntity
  8
0
  6
Continuous
 62
     7
370
     0
100
AcDbLine
 10
9.3410388927
 20
5.8868150289
 30
0.0
 11
8.8723381053
 21
5.8868150289
 31
0.0
  0
LINE
  5
24E
330
248
100
AcDbEntity
  8
0
  6
Continuous
 62
     7
370
     0
100
AcDbLine
 10
9.3410388927
 20
4.1368150289
 30
0.0
 11
8.8723381053
 21
4.1368150289
 31
0.0
  0
LINE
  5
24F
330
248
100
AcDbEntity
  8
0
  6
Continuous
 62
     7
370
     0
100
AcDbLine
 10
8.9973381053
 20
5.8868150289
 30
0.0
 11
8.9973381053
 21
5.0426659113
 31
0.0
  0
LINE
  5
250
330
248
100
AcDbEntity
  8
0
  6
Continuous
 62
     7
370
     0
100
AcDbLine
 10
8.9973381053
 20
4.1368150289
 30
0.0
 11
8.9973381053
 21
4.8508256341
 31
0.0
  0
MTEXT
  5
251
330
248
100
AcDbEntity
  8
0
  6
Continuous
 62
     7
370
     0
100
AcDbMText
 10
8.830237404
 20
5.0119591061
 30
0.0
 40
0.125
 41
0.0
 71
     1
 72
     1
  1
1.75
  7
SLDTEXTSTYLE0
 73
     1
 44
1.0
  0
ENDBLK
  5
24A
330
248
100
AcDbEntity
  8
0
100
AcDbBlockEnd
  0
BLOCK
  5
290
330
28F
100
AcDbEntity
  8
0
100
AcDbBlockBegin
  2
_D_2
 70
     0
 10
0.0
 20
0.0
 30
0.0
  3
_D_2
  1

  0
SOLID
  5
292
330
28F
100
AcDbEntity
  8
0
  6
Continuous
 62
     7
370
     0
100
AcDbTrace
 10
7.9221795848
 20
8.5589197111
 30
0.0
 11
7.9021795848
 21
8.4289197111
 31
0.0
 12
7.9421795848
 22
8.4289197111
 32
0.0
 13
7.9421795848
 23
8.4289197111
 33
0.0
  0
SOLID
  5
293
330
28F
100
AcDbEntity
  8
0
  6
Continuous
 62
     7
370
     0
100
AcDbTrace
 10
7.9221795848
 20
7.2939197111
 30
0.0
 11
7.9421795848
 21
7.4239197111
 31
0.0
 12
7.9021795848
 22
7.4239197111
 32
0.0
 13
7.9021795848
 23
7.4239197111
 33
0.0
  0
LINE
  5
294
330
28F
100
AcDbEntity
  8
0
  6
Continuous
 62
     7
370
     0
100
AcDbLine
 10
7.4603151191
 20
8.5589197111
 30
0.0
 11
8.0471795848
 21
8.5589197111
 31
0.0
  0
LINE
  5
295
330
28F
100
AcDbEntity
  8
0
  6
Continuous
 62
     7
370
     0
100
AcDbLine
 10
7.5184787974
 20
7.2939197111
 30
0.0
 11
8.0471795848
 21
7.2939197111
 31
0.0
  0
LINE
  5
296
330
28F
100
AcDbEntity
  8
0
  6
Continuous
 62
     7
370
     0
100
AcDbLine
 10
7.9221795848
 20
8.5589197111
 30
0.0
 11
7.9221795848
 21
8.1398566146
 31
0.0
  0
LINE
  5
297
330
28F
100
AcDbEntity
  8
0
  6
Continuous
 62
     7
370
     0
100
AcDbLine
 10
7.9221795848
 20
7.2939197111
 30
0.0
 11
7.9221795848
 21
7.9480163374
 31
0.0
  0
MTEXT
  5
298
330
28F
100
AcDbEntity
  8
0
  6
Continuous
 62
     7
370
     0
100
AcDbMText
 10
7.7550788835
 20
8.1091498095
 30
0.0
 40
0.125
 41
0.0
 71
     1
 72
     1
  1
1.27
  7
SLDTEXTSTYLE0
 73
     1
 44
1.0
  0
ENDBLK
  5
291
330
28F
100
AcDbEntity
  8
0
100
AcDbBlockEnd
  0
ENDSEC
  0
SECTION
  2
ENTITIES
  0
LINE
  5
73
330
1F
100
AcDbEntity
  8
0
  6
Continuous
 62
     7
370
    15
100
AcDbLine
 10
3.6476453627
 20
4.4183058485
 30
0.0
 11
3.6476453627
 21
4.3683363224
 31
0.0
  0
ARC
  5
74
330
1F
100
AcDbEntity
  8
0
  6
Continuous
 62
     7
370
    15
100
AcDbCircle
 10
3.6476454641
 20
4.5909816956
 30
0.0
 40
0.2226453884467074
100
AcDbArc
 50
170.4149516391
 51
270.0
  0
SPLINE
  5
75
330
1F
100
AcDbEntity
  8
0
  6
Continuous
 62
     7
370
    15
100
AcDbSpline
210
0.0
220
0.0
230
1.0
 70
     8
 71
     3
 72
    16
 73
    12
 74
     0
 42
0.000000001
 43
0.00000001
 40
0.0
 40
0.0
 40
0.0
 40
0.0
 40
0.0045986982598393
 40
0.1390426748133314
 40
0.3515882830284404
 40
0.5681293480919861
 40
0.7336975872705777
 40
0.8553915128691193
 40
0.9156456120353528
 40
0.9542699626227219
 40
1.0
 40
1.0
 40
1.0
 40
1.0
 10
3.556014367858413
 20
4.737339801329651
 30
0.0
 10
3.555755081632877
 20
4.737212443145008
 30
0.0
 10
3.547915504364759
 20
4.73336173982606
 30
0.0
 10
3.528649148271776
 20
4.722466540718873
 30
0.0
 10
3.500238019825975
 20
4.701156119540549
 30
0.0
 10
3.473231814563421
 20
4.67533981079936
 30
0.0
 10
3.451905619732205
 20
4.652833866142147
 30
0.0
 10
3.438396618057316
 20
4.638608187853194
 30
0.0
 10
3.431949030459276
 20
4.631964735656458
 30
0.0
 10
3.428961969440664
 20
4.628919411554015
 30
0.0
 10
3.42840848566015
 20
4.628358674490896
 30
0.0
 10
3.428108432105364
 20
4.628054688800597
 30
0.0
  0
ARC
  5
76
330
1F
100
AcDbEntity
  8
0
  6
Continuous
 62
     7
370
    15
100
AcDbCircle
 10
3.6476454641
 20
4.5909816956
 30
0.0
 40
0.1726758470957521
100
AcDbArc
 50
122.0496304135
 51
270.0
  0
ARC
  5
77
330
1F
100
AcDbEntity
  8
0
  6
Continuous
 62
     7
370
    15
100
AcDbCircle
 10
3.2800798242
 20
4.6529334516
 30
0.0
 40
0.150104702120897
100
AcDbArc
 50
350.459616257
 51
52.0208088238
  0
SPLINE
  5
78
330
1F
100
AcDbEntity
  8
0
  6
Continuous
 62
     7
370
    15
100
AcDbSpline
210
0.0
220
0.0
230
1.0
 70
     8
 71
     3
 72
    15
 73
    11
 74
     0
 42
0.000000001
 43
0.00000001
 40
0.0
 40
0.0
 40
0.0
 40
0.0
 40
0.0425066007995768
 40
0.0734915479493698
 40
0.1393546889461096
 40
0.2661740522875921
 40
0.4410856016172255
 40
0.847942042964462
 40
0.994804799806961
 40
0.9999999999999999
 40
0.9999999999999999
 40
0.9999999999999999
 40
0.9999999999999999
 10
3.37245054173673
 20
4.771251126249799
 30
0.0
 10
3.372953524794945
 20
4.77117418672534
 30
0.0
 10
3.37382315451939
 20
4.771041162568044
 30
0.0
 10
3.378654132076295
 20
4.770279863305939
 30
0.0
 10
3.389585959987824
 20
4.768472792449165
 30
0.0
 10
3.412426934502253
 20
4.764250246346123
 30
0.0
 10
3.458919223495809
 20
4.754558380809025
 30
0.0
 10
3.507738221404255
 20
4.744319196533894
 30
0.0
 10
3.545389057839878
 20
4.738716138536526
 30
0.0
 10
3.555663337623904
 20
4.737385271623849
 30
0.0
 10
3.556014367858413
 20
4.737339801329651
 30
0.0
  0
LINE
  5
79
330
1F
100
AcDbEntity
  8
0
  6
Continuous
 62
     7
370
    15
100
AcDbLine
 10
3.6476453627
 20
4.9516391836
 30
0.0
 11
3.6476453627
 21
4.9016696438
 31
0.0
  0
ARC
  5
7A
330
1F
100
AcDbEntity
  8
0
  6
Continuous
 62
     7
370
    15
100
AcDbCircle
 10
3.6476454641
 20
5.1243150289
 30
0.0
 40
0.2226453884467068
100
AcDbArc
 50
170.4149516391
 51
270.0
  0
SPLINE
  5
7B
330
1F
100
AcDbEntity
  8
0
  6
Continuous
 62
     7
370
    15
100
AcDbSpline
210
0.0
220
0.0
230
1.0
 70
     8
 71
     3
 72
    16
 73
    12
 74
     0
 42
0.000000001
 43
0.00000001
 40
0.0
 40
0.0
 40
0.0
 40
0.0
 40
0.0045986984535923
 40
0.1390426806714971
 40
0.3515882978416077
 40
0.5681293058852803
 40
0.7336975520396163
 40
0.8553914827653837
 40
0.9156456072919633
 40
0.9542699750236406
 40
1.0
 40
1.0
 40
1.0
 40
1.0
 10
3.556014367858413
 20
5.270673131884172
 30
0.0
 10
3.555755081632964
 20
5.270545773699435
 30
0.0
 10
3.54791550436746
 20
5.266695070377619
 30
0.0
 10
3.528649147681301
 20
5.255799871920873
 30
0.0
 10
3.500238026581784
 20
5.234489448844952
 30
0.0
 10
3.473231808935527
 20
5.208673159858826
 30
0.0
 10
3.451905620735937
 20
5.186167213746719
 30
0.0
 10
3.438396615946542
 20
5.171941537552816
 30
0.0
 10
3.431949030463955
 20
5.16529808023986
 30
0.0
 10
3.428961970185166
 20
5.162252735796718
 30
0.0
 10
3.428408485858169
 20
5.161692014650288
 30
0.0
 10
3.428108432105364
 20
5.161388037688239
 30
0.0
  0
ARC
  5
7C
330
1F
100
AcDbEntity
  8
0
  6
Continuous
 62
     7
370
    15
100
AcDbCircle
 10
3.6476454641
 20
5.1243150289
 30
0.0
 40
0.1726758470957521
100
AcDbArc
 50
122.0496304135
 51
270.0
  0
ARC
  5
7D
330
1F
100
AcDbEntity
  8
0
  6
Continuous
 62
     7
370
    15
100
AcDbCircle
 10
3.2800798095
 20
5.1862667948
 30
0.0
 40
0.1501047156236383
100
AcDbArc
 50
350.4596193271
 51
52.0208057537
  0
SPLINE
  5
7E
330
1F
100
AcDbEntity
  8
0
  6
Continuous
 62
     7
370
    15
100
AcDbSpline
210
0.0
220
0.0
230
1.0
 70
     8
 71
     3
 72
    15
 73
    11
 74
     0
 42
0.000000001
 43
0.00000001
 40
0.0
 40
0.0
 40
0.0
 40
0.0
 40
0.0425066039690105
 40
0.073491551016239
 40
0.1393546917949629
 40
0.2661740547166561
 40
0.4410856034673085
 40
0.8479420434677947
 40
0.9948047998241579
 40
1.0
 40
1.0
 40
1.0
 40
1.0
 10
3.37245054173673
 20
5.304584475137441
 30
0.0
 10
3.372953524758422
 20
5.304507527674474
 30
0.0
 10
3.373823154391169
 20
5.304374489796303
 30
0.0
 10
3.378654132083468
 20
5.30361319564176
 30
0.0
 10
3.389585959982841
 20
5.301806121765682
 30
0.0
 10
3.412426934504579
 20
5.297583577478941
 30
0.0
 10
3.458919223493999
 20
5.287891710914269
 30
0.0
 10
3.507738221404492
 20
5.277652527147005
 30
0.0
 10
3.545389057839876
 20
5.272049469090858
 30
0.0
 10
3.555663337623903
 20
5.270718602178365
 30
0.0
 10
3.556014367858413
 20
5.270673131884172
 30
0.0
  0
LINE
  5
7F
330
1F
100
AcDbEntity
  8
0
  6
Continuous
 62
     7
370
    15
100
AcDbLine
 10
3.2499697433
 20
5.1243150285
 30
0.0
 11
3.2000001072
 21
5.1243150285
 31
0.0
  0
ARC
  5
80
330
1F
100
AcDbEntity
  8
0
  6
Continuous
 62
     7
370
    15
100
AcDbCircle
 10
3.6476454641
 20
5.1243150289
 30
0.0
 40
0.3976758470957523
100
AcDbArc
 50
180.0
 51
256.6784069847
  0
ARC
  5
81
330
1F
100
AcDbEntity
  8
0
  6
Continuous
 62
     7
370
    15
100
AcDbCircle
 10
3.6476454641
 20
5.1243150289
 30
0.0
 40
0.4476453884467061
100
AcDbArc
 50
180.0
 51
232.0654342941
  0
LINE
  5
82
330
1F
100
AcDbEntity
  8
0
  6
Continuous
 62
     7
370
    15
100
AcDbLine
 10
3.2499697433
 20
5.6576483682
 30
0.0
 11
3.2000001072
 21
5.6576483682
 31
0.0
  0
ARC
  5
83
330
1F
100
AcDbEntity
  8
0
  6
Continuous
 62
     7
370
    15
100
AcDbCircle
 10
3.6476454641
 20
5.6576483622
 30
0.0
 40
0.3976758470957523
100
AcDbArc
 50
180.0
 51
256.6784069847
  0
ARC
  5
84
330
1F
100
AcDbEntity
  8
0
  6
Continuous
 62
     7
370
    15
100
AcDbCircle
 10
3.6476454641
 20
5.6576483622
 30
0.0
 40
0.4476453884467073
100
AcDbArc
 50
180.0
 51
232.0654342941
  0
LINE
  5
85
330
1F
100
AcDbEntity
  8
0
  6
Continuous
 62
     7
370
    15
100
AcDbLine
 10
6.175010633
 20
4.2681566664
 30
0.0
 11
6.175010633
 21
5.7554733914
 31
0.0
  0
ELLIPSE
  5
86
330
1F
100
AcDbEntity
  8
0
  6
Continuous
 62
     7
370
    15
100
AcDbEllipse
 10
6.225201674
 20
4.2685379055
 30
0.0
 11
-0.03562493039451198
 21
-0.03562493039451198
 31
-1.387778780781446E-16
210
-3.910379071294403E-15
220
1.485207541504285E-17
230
1.0
 40
0.9924325091
 41
5.50158524205542
 42
7.064785372303767
  0
LINE
  5
87
330
1F
100
AcDbEntity
  8
0
  6
Continuous
 62
     7
370
    15
100
AcDbLine
 10
7.4119879783
 20
4.2183468951
 30
0.0
 11
6.2248204043
 21
4.2183468951
 31
0.0
  0
LINE
  5
88
330
1F
100
AcDbEntity
  8
0
  6
Continuous
 62
     7
370
    15
100
AcDbLine
 10
7.4119879783
 20
4.1933058311
 30
0.0
 11
7.4119879783
 21
4.2183468951
 31
0.0
  0
LINE
  5
89
330
1F
100
AcDbEntity
  8
0
  6
Continuous
 62
     7
370
    15
100
AcDbLine
 10
3.6476453627
 20
4.1933058311
 30
0.0
 11
7.4119879783
 21
4.1933058311
 31
0.0
  0
ARC
  5
8A
330
1F
100
AcDbEntity
  8
0
  6
Continuous
 62
     7
370
    15
100
AcDbCircle
 10
3.6476454641
 20
4.5909816956
 30
0.0
 40
0.3976758470957522
100
AcDbArc
 50
180.0
 51
270.0
  0
LINE
  5
8B
330
1F
100
AcDbEntity
  8
0
  6
Continuous
 62
     7
370
    15
100
AcDbLine
 10
3.2499697433
 20
4.6701483792
 30
0.0
 11
3.2499697433
 21
4.5909817071
 31
0.0
  0
ARC
  5
8C
330
1F
100
AcDbEntity
  8
0
  6
Continuous
 62
     7
370
    15
100
AcDbCircle
 10
3.2684787974
 20
4.6701483622
 30
0.0
 40
0.0185091804290862
100
AcDbArc
 50
0.0
 51
180.0
  0
LINE
  5
8D
330
1F
100
AcDbEntity
  8
0
  6
Continuous
 62
     7
370
    15
100
AcDbLine
 10
3.2869879823
 20
4.5909817071
 30
0.0
 11
3.2869879823
 21
4.6701483792
 31
0.0
  0
ARC
  5
8E
330
1F
100
AcDbEntity
  8
0
  6
Continuous
 62
     7
370
    15
100
AcDbCircle
 10
3.6476454641
 20
4.5909816956
 30
0.0
 40
0.3606574862375815
100
AcDbArc
 50
180.0
 51
270.0
  0
LINE
  5
8F
330
1F
100
AcDbEntity
  8
0
  6
Continuous
 62
     7
370
    15
100
AcDbLine
 10
5.9250306008
 20
4.2303242168
 30
0.0
 11
3.6476453627
 21
4.2303242168
 31
0.0
  0
SPLINE
  5
90
330
1F
100
AcDbEntity
  8
0
  6
Continuous
 62
     7
370
    15
100
AcDbSpline
210
0.0
220
0.0
230
1.0
 70
     8
 71
     3
 72
    20
 73
    16
 74
     0
 42
0.000000001
 43
0.00000001
 40
0.0
 40
0.0
 40
0.0
 40
0.0
 40
0.171421493924132
 40
0.2460360203777503
 40
0.2825132207595519
 40
0.3192476798307698
 40
0.3698678372527758
 40
0.4233341722271185
 40
0.4532452993703153
 40
0.4873880065035526
 40
0.5258562138043836
 40
0.6073421811864644
 40
0.7422193871638543
 40
0.8626800310691233
 40
1.0
 40
1.0
 40
1.0
 40
1.0
 10
6.121538490704822
 20
4.33363348331282
 30
0.0
 10
6.120504944413005
 20
4.319005137213463
 30
0.0
 10
6.119021527073127
 20
4.298009520055983
 30
0.0
 10
6.107154010888075
 20
4.276944528848012
 30
0.0
 10
6.099039954093873
 20
4.267504153003193
 30
0.0
 10
6.091228245676922
 20
4.260570896310867
 30
0.0
 10
6.081225287018375
 20
4.254132260087802
 30
0.0
 10
6.070856380851956
 20
4.249610420126694
 30
0.0
 10
6.061419008313075
 20
4.246666343099414
 30
0.0
 10
6.053049715259431
 20
4.244588708669214
 30
0.0
 10
6.040347308267705
 20
4.242020279452789
 30
0.0
 10
6.019120116325889
 20
4.239036134721031
 30
0.0
 10
5.9910153791081
 20
4.235652690272337
 30
0.0
 10
5.958253799668111
 20
4.231377765905857
 30
0.0
 10
5.936577555782914
 20
4.23069038512357
 30
0.0
 10
5.925030600780735
 20
4.230324216750283
 30
0.0
  0
LINE
  5
91
330
1F
100
AcDbEntity
  8
0
  6
Continuous
 62
     7
370
    15
100
AcDbLine
 10
6.1215384907
 20
4.6233298767
 30
0.0
 11
6.1215384907
 21
4.3336334833
 31
0.0
  0
SPLINE
  5
92
330
1F
100
AcDbEntity
  8
0
  6
Continuous
 62
     7
370
    15
100
AcDbSpline
210
0.0
220
0.0
230
1.0
 70
     8
 71
     3
 72
    22
 73
    18
 74
     0
 42
0.000000001
 43
0.00000001
 40
0.0
 40
0.0
 40
0.0
 40
0.0
 40
0.0897787315444328
 40
0.1636732577531971
 40
0.2576918933872128
 40
0.3534763915878866
 40
0.425559671411911
 40
0.4739603716890013
 40
0.5299262442696085
 40
0.5764204594670901
 40
0.6297774449074668
 40
0.6804594453156735
 40
0.7410557026024142
 40
0.7717614165212068
 40
0.803215556547959
 40
0.896069997873417
 40
1.0
 40
1.0
 40
1.0
 40
1.0
 10
5.925030600780735
 20
4.726639179944142
 30
0.0
 10
5.932583565615502
 20
4.726491158255173
 30
0.0
 10
5.946353178294762
 20
4.7262213037848
 30
0.0
 10
5.967942470255807
 20
4.724162027846535
 30
0.0
 10
5.989960225550036
 20
4.721502035423182
 30
0.0
 10
6.011826915608894
 20
4.71883572653315
 30
0.0
 10
6.029857332545329
 20
4.716425884704909
 30
0.0
 10
6.044529557381903
 20
4.714172108242829
 30
0.0
 10
6.056953813240095
 20
4.711547671621401
 30
0.0
 10
6.06956542150098
 20
4.707917077732313
 30
0.0
 10
6.081217249005851
 20
4.702829955787942
 30
0.0
 10
6.092924683826351
 20
4.695320240968131
 30
0.0
 10
6.101555735843929
 20
4.686899664040932
 30
0.0
 10
6.107610810833467
 20
4.678511390227809
 30
0.0
 10
6.114041844506199
 20
4.667153057428086
 30
0.0
 10
6.120331963743388
 20
4.648683781236899
 30
0.0
 10
6.121121502590312
 20
4.63209244662041
 30
0.0
 10
6.121538490704822
 20
4.623329876715363
 30
0.0
  0
LINE
  5
93
330
1F
100
AcDbEntity
  8
0
  6
Continuous
 62
     7
370
    15
100
AcDbLine
 10
3.6476453627
 20
4.7266391799
 30
0.0
 11
5.9250306008
 21
4.7266391799
 31
0.0
  0
ARC
  5
94
330
1F
100
AcDbEntity
  8
0
  6
Continuous
 62
     7
370
    15
100
AcDbCircle
 10
3.6476454641
 20
4.5909816956
 30
0.0
 40
0.135657486237581
100
AcDbArc
 50
90.0
 51
270.0
  0
ARC
  5
95
330
1F
100
AcDbEntity
  8
0
  6
Continuous
 62
     7
370
    15
100
AcDbCircle
 10
3.6476454641
 20
4.4368150289
 30
0.0
 40
0.0185091804290858
100
AcDbArc
 50
270.0
 51
90.0
  0
LINE
  5
96
330
1F
100
AcDbEntity
  8
0
  6
Continuous
 62
     7
370
    15
100
AcDbLine
 10
3.2499697433
 20
5.2034816914
 30
0.0
 11
3.2499697433
 21
5.1243150285
 31
0.0
  0
ARC
  5
97
330
1F
100
AcDbEntity
  8
0
  6
Continuous
 62
     7
370
    15
100
AcDbCircle
 10
3.2684787974
 20
5.2034816956
 30
0.0
 40
0.0185091804290853
100
AcDbArc
 50
0.0
 51
180.0
  0
LINE
  5
98
330
1F
100
AcDbEntity
  8
0
  6
Continuous
 62
     7
370
    15
100
AcDbLine
 10
3.2869879823
 20
5.1243150285
 30
0.0
 11
3.2869879823
 21
5.2034816914
 31
0.0
  0
ARC
  5
99
330
1F
100
AcDbEntity
  8
0
  6
Continuous
 62
     7
370
    15
100
AcDbCircle
 10
3.6476454641
 20
5.1243150289
 30
0.0
 40
0.3606574862375815
100
AcDbArc
 50
180.0
 51
270.0
  0
LINE
  5
9A
330
1F
100
AcDbEntity
  8
0
  6
Continuous
 62
     7
370
    15
100
AcDbLine
 10
5.9250306008
 20
4.7636575473
 30
0.0
 11
3.6476453627
 21
4.7636575473
 31
0.0
  0
SPLINE
  5
9B
330
1F
100
AcDbEntity
  8
0
  6
Continuous
 62
     7
370
    15
100
AcDbSpline
210
0.0
220
0.0
230
1.0
 70
     8
 71
     3
 72
    20
 73
    16
 74
     0
 42
0.000000001
 43
0.00000001
 40
0.0
 40
0.0
 40
0.0
 40
0.0
 40
0.1714215555498562
 40
0.2460359509862909
 40
0.2825132043370792
 40
0.3192476129672393
 40
0.3698678861372705
 40
0.4233342179959271
 40
0.4532453433960891
 40
0.4873880307713979
 40
0.5258562358305406
 40
0.6073421875500912
 40
0.742219376555687
 40
0.8626800462060173
 40
1.0
 40
1.0
 40
1.0
 40
1.0
 10
6.121538490704822
 20
4.866966832200462
 30
0.0
 10
6.120504955580146
 20
4.85233847284266
 30
0.0
 10
6.11902155521978
 20
4.831342850125194
 30
0.0
 10
6.107153989671132
 20
4.810277894630986
 30
0.0
 10
6.099039968107335
 20
4.80083749952373
 30
0.0
 10
6.091228222272611
 20
4.793904271200464
 30
0.0
 10
6.081225308380902
 20
4.787465558013433
 30
0.0
 10
6.070856378494956
 20
4.782943737419119
 30
0.0
 10
6.061419011472464
 20
4.779999649870486
 30
0.0
 10
6.053049711838869
 20
4.777922046471653
 30
0.0
 10
6.040347310700827
 20
4.775353603671562
 30
0.0
 10
6.019120114662773
 20
4.772369489351656
 30
0.0
 10
5.991015372105148
 20
4.768986090890607
 30
0.0
 10
5.95825380664805
 20
4.764711022769431
 30
0.0
 10
5.936577557068365
 20
4.764023690030124
 30
0.0
 10
5.925030600780735
 20
4.763657547304804
 30
0.0
  0
LINE
  5
9C
330
1F
100
AcDbEntity
  8
0
  6
Continuous
 62
     7
370
    15
100
AcDbLine
 10
6.1215384907
 20
5.1566632256
 30
0.0
 11
6.1215384907
 21
4.8669668322
 31
0.0
  0
SPLINE
  5
9D
330
1F
100
AcDbEntity
  8
0
  6
Continuous
 62
     7
370
    15
100
AcDbSpline
210
0.0
220
0.0
230
1.0
 70
     8
 71
     3
 72
    22
 73
    18
 74
     0
 42
0.000000001
 43
0.00000001
 40
0.0
 40
0.0
 40
0.0
 40
0.0
 40
0.0897787347575032
 40
0.1636732719512899
 40
0.2576919134904919
 40
0.3534764177072635
 40
0.4255597020587434
 40
0.4739604053758176
 40
0.5299262814715674
 40
0.5764204995892891
 40
0.6297774883809475
 40
0.6804594919724237
 40
0.741055753065135
 40
0.7717614689125131
 40
0.8032155477859652
 40
0.8960700636570651
 40
0.9999999999999999
 40
0.9999999999999999
 40
0.9999999999999999
 40
0.9999999999999999
 10
5.925030600780735
 20
5.259972510498663
 30
0.0
 10
5.932583565905838
 20
5.259824499325322
 30
0.0
 10
5.946353179816067
 20
5.259554664011963
 30
0.0
 10
5.967942468959699
 20
5.25749534894191
 30
0.0
 10
5.989960225782979
 20
5.254835368871204
 30
0.0
 10
6.011826915562073
 20
5.252169056509174
 30
0.0
 10
6.029857332552933
 20
5.249759215346246
 30
0.0
 10
6.044529557378414
 20
5.247505438773691
 30
0.0
 10
6.056953813247373
 20
5.24488100218499
 30
0.0
 10
6.069565421478836
 20
5.241250408273012
 30
0.0
 10
6.08121724910024
 20
5.236163286395627
 30
0.0
 10
6.092924683467849
 20
5.228653571322062
 30
0.0
 10
6.101555737132224
 20
5.220232995315851
 30
0.0
 10
6.10761080544115
 20
5.211844723822072
 30
0.0
 10
6.114041859138521
 20
5.20048640176844
 30
0.0
 10
6.120331954845085
 20
5.182017120396561
 30
0.0
 10
6.121121499699837
 20
5.165425788261162
 30
0.0
 10
6.121538490704822
 20
5.156663225603005
 30
0.0
  0
LINE
  5
9E
330
1F
100
AcDbEntity
  8
0
  6
Continuous
 62
     7
370
    15
100
AcDbLine
 10
3.6476453627
 20
5.2599725105
 30
0.0
 11
5.9250306008
 21
5.2599725105
 31
0.0
  0
ARC
  5
9F
330
1F
100
AcDbEntity
  8
0
  6
Continuous
 62
     7
370
    15
100
AcDbCircle
 10
3.6476454641
 20
5.1243150289
 30
0.0
 40
0.135657486237581
100
AcDbArc
 50
90.0
 51
270.0
  0
ARC
  5
A0
330
1F
100
AcDbEntity
  8
0
  6
Continuous
 62
     7
370
    15
100
AcDbCircle
 10
3.6476454641
 20
4.9701483622
 30
0.0
 40
0.0185091804290867
100
AcDbArc
 50
270.0
 51
90.0
  0
LINE
  5
A1
330
1F
100
AcDbEntity
  8
0
  6
Continuous
 62
     7
370
    15
100
AcDbLine
 10
3.2499697433
 20
5.7368150403
 30
0.0
 11
3.2499697433
 21
5.6576483682
 31
0.0
  0
ARC
  5
A2
330
1F
100
AcDbEntity
  8
0
  6
Continuous
 62
     7
370
    15
100
AcDbCircle
 10
3.2684787974
 20
5.7368150289
 30
0.0
 40
0.0185091804290862
100
AcDbArc
 50
0.0
 51
180.0
  0
LINE
  5
A3
330
1F
100
AcDbEntity
  8
0
  6
Continuous
 62
     7
370
    15
100
AcDbLine
 10
3.2869879823
 20
5.6576483682
 30
0.0
 11
3.2869879823
 21
5.7368150403
 31
0.0
  0
ARC
  5
A4
330
1F
100
AcDbEntity
  8
0
  6
Continuous
 62
     7
370
    15
100
AcDbCircle
 10
3.6476454641
 20
5.6576483622
 30
0.0
 40
0.3606574862375806
100
AcDbArc
 50
180.0
 51
270.0
  0
LINE
  5
A5
330
1F
100
AcDbEntity
  8
0
  6
Continuous
 62
     7
370
    15
100
AcDbLine
 10
5.9250306008
 20
5.2969908779
 30
0.0
 11
3.6476453627
 21
5.2969908779
 31
0.0
  0
SPLINE
  5
A6
330
1F
100
AcDbEntity
  8
0
  6
Continuous
 62
     7
370
    15
100
AcDbSpline
210
0.0
220
0.0
230
1.0
 70
     8
 71
     3
 72
    20
 73
    16
 74
     0
 42
0.000000001
 43
0.00000001
 40
0.0
 40
0.0
 40
0.0
 40
0.0
 40
0.1714216133237949
 40
0.2460360027356088
 40
0.2825133082358078
 40
0.3192476655995891
 40
0.3698679742484617
 40
0.4233342724485102
 40
0.4532453954335459
 40
0.4873880622839013
 40
0.5258562787384297
 40
0.6073422238785265
 40
0.7422194019936781
 40
0.8626800537263488
 40
0.9999999999999999
 40
0.9999999999999999
 40
0.9999999999999999
 40
0.9999999999999999
 10
6.121538490704822
 20
5.400300181088105
 30
0.0
 10
6.120504959872926
 20
5.385671812350025
 30
0.0
 10
6.119021565861788
 20
5.364676178829407
 30
0.0
 10
6.107153977848348
 20
5.343611230042105
 30
0.0
 10
6.099039980871034
 20
5.334170810862279
 30
0.0
 10
6.091228207989874
 20
5.327237608011369
 30
0.0
 10
6.081225321554427
 20
5.320798858952655
 30
0.0
 10
6.070856373336619
 20
5.316277074293016
 30
0.0
 10
6.061419014925058
 20
5.313332973589957
 30
0.0
 10
6.053049706214691
 20
5.311255407263997
 30
0.0
 10
6.040347316094143
 20
5.308686915136954
 30
0.0
 10
6.019120112026633
 20
5.305702832737648
 30
0.0
 10
5.991015374382671
 20
5.302319409736483
 30
0.0
 10
5.958253804459642
 20
5.298044383763576
 30
0.0
 10
5.936577556638618
 20
5.29735703117464
 30
0.0
 10
5.925030600780735
 20
5.296990877859325
 30
0.0
  0
LINE
  5
A7
330
1F
100
AcDbEntity
  8
0
  6
Continuous
 62
     7
370
    15
100
AcDbLine
 10
6.1215384907
 20
5.6899965745
 30
0.0
 11
6.1215384907
 21
5.4003001811
 31
0.0
  0
SPLINE
  5
A8
330
1F
100
AcDbEntity
  8
0
  6
Continuous
 62
     7
370
    15
100
AcDbSpline
210
0.0
220
0.0
230
1.0
 70
     8
 71
     3
 72
    22
 73
    18
 74
     0
 42
0.000000001
 43
0.00000001
 40
0.0
 40
0.0
 40
0.0
 40
0.0
 40
0.0897787455752273
 40
0.1636732686483016
 40
0.2576919080466781
 40
0.3534764275672322
 40
0.4255597264957069
 40
0.4739604330291384
 40
0.5299263280853169
 40
0.5764205492927047
 40
0.6297775709515573
 40
0.6804594197586286
 40
0.7410556848781248
 40
0.7717615204720747
 40
0.8032155383068791
 40
0.8960701290619993
 40
0.9999999999999999
 40
0.9999999999999999
 40
0.9999999999999999
 40
0.9999999999999999
 10
5.925030600780735
 20
5.793305841053185
 30
0.0
 10
5.93258356516004
 20
5.793157806787011
 30
0.0
 10
5.946353175773603
 20
5.792887929411679
 30
0.0
 10
5.967942471439558
 20
5.790828719232181
 30
0.0
 10
5.98996022775134
 20
5.788168738369649
 30
0.0
 10
6.011826916523837
 20
5.785502411098682
 30
0.0
 10
6.029857330677981
 20
5.783092540222492
 30
0.0
 10
6.044529560307168
 20
5.78083877621073
 30
0.0
 10
6.056953809359747
 20
5.778214306413282
 30
0.0
 10
6.069565428949439
 20
5.774583730436929
 30
0.0
 10
6.081217220861733
 20
5.769496562707428
 30
0.0
 10
6.092924705681804
 20
5.761986952381174
 30
0.0
 10
6.101555755856297
 20
5.75356636180214
 30
0.0
 10
6.1076107895023
 20
5.745178062317084
 30
0.0
 10
6.114041878798303
 20
5.733819749414617
 30
0.0
 10
6.120331943977016
 20
5.715350458260996
 30
0.0
 10
6.121121496128593
 20
5.69875912945427
 30
0.0
 10
6.121538490704822
 20
5.689996574490648
 30
0.0
  0
LINE
  5
A9
330
1F
100
AcDbEntity
  8
0
  6
Continuous
 62
     7
370
    15
100
AcDbLine
 10
3.6476453627
 20
5.7933058411
 30
0.0
 11
5.9250306008
 21
5.7933058411
 31
0.0
  0
ARC
  5
AA
330
1F
100
AcDbEntity
  8
0
  6
Continuous
 62
     7
370
    15
100
AcDbCircle
 10
3.6476454641
 20
5.6576483622
 30
0.0
 40
0.1356574862375819
100
AcDbArc
 50
90.0
 51
270.0
  0
ARC
  5
AB
330
1F
100
AcDbEntity
  8
0
  6
Continuous
 62
     7
370
    15
100
AcDbCircle
 10
3.6476454641
 20
5.5034816956
 30
0.0
 40
0.0185091804290867
100
AcDbArc
 50
270.0
 51
90.0
  0
ARC
  5
AC
330
1F
100
AcDbEntity
  8
0
  6
Continuous
 62
     7
370
    15
100
AcDbCircle
 10
3.6476454641
 20
5.6576483622
 30
0.0
 40
0.1726758470957526
100
AcDbArc
 50
90.0
 51
270.0
  0
LINE
  5
AD
330
1F
100
AcDbEntity
  8
0
  6
Continuous
 62
     7
370
    15
100
AcDbLine
 10
7.4119879783
 20
5.8303242267
 30
0.0
 11
3.6476453627
 21
5.8303242267
 31
0.0
  0
LINE
  5
AE
330
1F
100
AcDbEntity
  8
0
  6
Continuous
 62
     7
370
    15
100
AcDbLine
 10
7.4119879783
 20
5.8052831627
 30
0.0
 11
7.4119879783
 21
5.8303242267
 31
0.0
  0
LINE
  5
AF
330
1F
100
AcDbEntity
  8
0
  6
Continuous
 62
     7
370
    15
100
AcDbLine
 10
6.2248204043
 20
5.8052831627
 30
0.0
 11
7.4119879783
 21
5.8052831627
 31
0.0
  0
ELLIPSE
  5
B0
330
1F
100
AcDbEntity
  8
0
  6
Continuous
 62
     7
370
    15
100
AcDbEllipse
 10
6.225201674
 20
5.7550921523
 30
0.0
 11
-0.03562493039451287
 21
0.03562493039451287
 31
-1.387778780781446E-16
210
-3.910379071294355E-15
220
-1.485207541509137E-17
230
1.0
 40
0.9924325091
 41
5.501585242055413
 42
7.064785372303738
  0
LINE
  5
B1
330
1F
100
AcDbEntity
  8
0
  6
Continuous
 62
     7
370
    15
100
AcDbLine
 10
3.6476453627
 20
4.2303242168
 30
0.0
 11
3.6476453627
 21
4.2802937795
 31
0.0
  0
LINE
  5
B2
330
1F
100
AcDbEntity
  8
0
  6
Continuous
 62
     7
370
    15
100
AcDbLine
 10
3.6476453627
 20
4.2802937795
 30
0.0
 11
5.9250306008
 21
4.2802937795
 31
0.0
  0
SPLINE
  5
B3
330
1F
100
AcDbEntity
  8
0
  6
Continuous
 62
     7
370
    15
100
AcDbSpline
210
0.0
220
0.0
230
1.0
 70
    24
 71
     3
 72
    11
 73
     7
 74
     0
 42
0.000000001
 43
0.00000001
 40
0.0
 40
0.0
 40
0.0
 40
0.0
 40
0.2499994609373486
 40
0.4999997112144335
 40
0.74999972968307
 40
1.0
 40
1.0
 40
1.0
 40
1.0
 10
5.925030600780735
 20
4.230324216750283
 30
0.0
 10
5.925030600780735
 20
4.236730355030548
 30
0.0
 10
5.925030600780735
 20
4.249542651817599
 30
0.0
 10
5.925030600780735
 20
4.265832344000088
 30
0.0
 10
5.925030600780735
 20
4.277470696099299
 30
0.0
 10
5.925030600780735
 20
4.279352751382191
 30
0.0
 10
5.925030600780735
 20
4.280293779497629
 30
0.0
  0
LINE
  5
B4
330
1F
100
AcDbEntity
  8
0
  6
Continuous
 62
     7
370
    15
100
AcDbLine
 10
5.9716298758
 20
4.3336334833
 30
0.0
 11
5.9716298758
 21
4.6233298767
 31
0.0
  0
SPLINE
  5
B5
330
1F
100
AcDbEntity
  8
0
  6
Continuous
 62
     7
370
    15
100
AcDbSpline
210
0.0
220
0.0
230
1.0
 70
    24
 71
     3
 72
    15
 73
    11
 74
     0
 42
0.000000001
 43
0.00000001
 40
0.0
 40
0.0
 40
0.0
 40
0.0
 40
0.1249999310024363
 40
0.2499998085724245
 40
0.374999823632763
 40
0.5000000708769841
 40
0.6249997622406303
 40
0.7499998682883918
 40
0.874999869052655
 40
0.9999999999999999
 40
0.9999999999999999
 40
0.9999999999999999
 40
0.9999999999999999
 10
5.971629875795267
 20
4.623329876715363
 30
0.0
 10
5.972498234237256
 20
4.623329876715363
 30
0.0
 10
5.974234950750047
 20
4.623329876715363
 30
0.0
 10
5.983728513282538
 20
4.623329876715362
 30
0.0
 10
5.997890756143984
 20
4.623329876715363
 30
0.0
 10
6.01670245175835
 20
4.623329876715363
 30
0.0
 10
6.039337904967657
 20
4.623329876715363
 30
0.0
 10
6.065001561326005
 20
4.623329876715363
 30
0.0
 10
6.09274067423109
 20
4.623329876715363
 30
0.0
 10
6.111939215214479
 20
4.623329876715363
 30
0.0
 10
6.121538490704822
 20
4.623329876715363
 30
0.0
  0
SPLINE
  5
B6
330
1F
100
AcDbEntity
  8
0
  6
Continuous
 62
     7
370
    15
100
AcDbSpline
210
0.0
220
0.0
230
1.0
 70
    24
 71
     3
 72
    15
 73
    11
 74
     0
 42
0.000000001
 43
0.00000001
 40
0.0
 40
0.0
 40
0.0
 40
0.0
 40
0.1249999310024363
 40
0.2499998085724245
 40
0.374999823632763
 40
0.5000000708769841
 40
0.6249997622406303
 40
0.7499998682883918
 40
0.874999869052655
 40
0.9999999999999999
 40
0.9999999999999999
 40
0.9999999999999999
 40
0.9999999999999999
 10
5.971629875795267
 20
4.33363348331282
 30
0.0
 10
5.972498234237256
 20
4.33363348331282
 30
0.0
 10
5.974234950750047
 20
4.33363348331282
 30
0.0
 10
5.983728513282538
 20
4.333633483312819
 30
0.0
 10
5.997890756143984
 20
4.33363348331282
 30
0.0
 10
6.01670245175835
 20
4.33363348331282
 30
0.0
 10
6.039337904967657
 20
4.33363348331282
 30
0.0
 10
6.065001561326005
 20
4.33363348331282
 30
0.0
 10
6.09274067423109
 20
4.33363348331282
 30
0.0
 10
6.111939215214479
 20
4.33363348331282
 30
0.0
 10
6.121538490704822
 20
4.33363348331282
 30
0.0
  0
LINE
  5
B7
330
1F
100
AcDbEntity
  8
0
  6
Continuous
 62
     7
370
    15
100
AcDbLine
 10
3.6476453627
 20
4.7266391799
 30
0.0
 11
3.6476453627
 21
4.6766696539
 31
0.0
  0
SPLINE
  5
B8
330
1F
100
AcDbEntity
  8
0
  6
Continuous
 62
     7
370
    15
100
AcDbSpline
210
0.0
220
0.0
230
1.0
 70
    24
 71
     3
 72
    11
 73
     7
 74
     0
 42
0.000000001
 43
0.00000001
 40
0.0
 40
0.0
 40
0.0
 40
0.0
 40
0.2500001720968761
 40
0.5000002004132075
 40
0.750000057636408
 40
0.9999999999999999
 40
0.9999999999999999
 40
0.9999999999999999
 40
0.9999999999999999
 10
5.925030600780735
 20
4.676669653863038
 30
0.0
 10
5.925030600780735
 20
4.677610666699009
 30
0.0
 10
5.925030600780735
 20
4.679492691829756
 30
0.0
 10
5.925030600780736
 20
4.691131052130576
 30
0.0
 10
5.925030600780735
 20
4.707420724057059
 30
0.0
 10
5.925030600780735
 20
4.720233027254551
 30
0.0
 10
5.925030600780735
 20
4.726639179944142
 30
0.0
  0
LINE
  5
B9
330
1F
100
AcDbEntity
  8
0
  6
Continuous
 62
     7
370
    15
100
AcDbLine
 10
5.9250306008
 20
4.6766696539
 30
0.0
 11
3.6476453627
 21
4.6766696539
 31
0.0
  0
LINE
  5
BA
330
1F
100
AcDbEntity
  8
0
  6
Continuous
 62
     7
370
    15
100
AcDbLine
 10
3.6476453627
 20
4.7636575473
 30
0.0
 11
3.6476453627
 21
4.8136270917
 31
0.0
  0
LINE
  5
BB
330
1F
100
AcDbEntity
  8
0
  6
Continuous
 62
     7
370
    15
100
AcDbLine
 10
3.6476453627
 20
4.8136270917
 30
0.0
 11
5.9250306008
 21
4.8136270917
 31
0.0
  0
SPLINE
  5
BC
330
1F
100
AcDbEntity
  8
0
  6
Continuous
 62
     7
370
    15
100
AcDbSpline
210
0.0
220
0.0
230
1.0
 70
    24
 71
     3
 72
    11
 73
     7
 74
     0
 42
0.000000001
 43
0.00000001
 40
0.0
 40
0.0
 40
0.0
 40
0.0
 40
0.2499999288551533
 40
0.4999997725699198
 40
0.7499997873778079
 40
0.9999999999999999
 40
0.9999999999999999
 40
0.9999999999999999
 40
0.9999999999999999
 10
5.925030600780735
 20
4.763657547304804
 30
0.0
 10
5.925030600780735
 20
4.770063699887011
 30
0.0
 10
5.925030600780735
 20
4.782876002869735
 30
0.0
 10
5.925030600780736
 20
4.799165676406975
 30
0.0
 10
5.925030600780735
 20
4.810804031425399
 30
0.0
 10
5.925030600780735
 20
4.812686071372957
 30
0.0
 10
5.925030600780735
 20
4.813627091719029
 30
0.0
  0
LINE
  5
BD
330
1F
100
AcDbEntity
  8
0
  6
Continuous
 62
     7
370
    15
100
AcDbLine
 10
5.9716298758
 20
4.8669668322
 30
0.0
 11
5.9716298758
 21
5.1566632256
 31
0.0
  0
SPLINE
  5
BE
330
1F
100
AcDbEntity
  8
0
  6
Continuous
 62
     7
370
    15
100
AcDbSpline
210
0.0
220
0.0
230
1.0
 70
    24
 71
     3
 72
    15
 73
    11
 74
     0
 42
0.000000001
 43
0.00000001
 40
0.0
 40
0.0
 40
0.0
 40
0.0
 40
0.1249999310024363
 40
0.2499998085724245
 40
0.374999823632763
 40
0.5000000708769841
 40
0.6249997622406303
 40
0.7499998682883918
 40
0.874999869052655
 40
0.9999999999999999
 40
0.9999999999999999
 40
0.9999999999999999
 40
0.9999999999999999
 10
5.971629875795267
 20
5.156663225603005
 30
0.0
 10
5.972498234237256
 20
5.156663225603005
 30
0.0
 10
5.974234950750047
 20
5.156663225603005
 30
0.0
 10
5.983728513282538
 20
5.156663225603005
 30
0.0
 10
5.997890756143984
 20
5.156663225603005
 30
0.0
 10
6.01670245175835
 20
5.156663225603005
 30
0.0
 10
6.039337904967657
 20
5.156663225603005
 30
0.0
 10
6.065001561326005
 20
5.156663225603005
 30
0.0
 10
6.09274067423109
 20
5.156663225603005
 30
0.0
 10
6.111939215214479
 20
5.156663225603005
 30
0.0
 10
6.121538490704822
 20
5.156663225603005
 30
0.0
  0
SPLINE
  5
BF
330
1F
100
AcDbEntity
  8
0
  6
Continuous
 62
     7
370
    15
100
AcDbSpline
210
0.0
220
0.0
230
1.0
 70
    24
 71
     3
 72
    15
 73
    11
 74
     0
 42
0.000000001
 43
0.00000001
 40
0.0
 40
0.0
 40
0.0
 40
0.0
 40
0.1249999310024363
 40
0.2499998085724245
 40
0.374999823632763
 40
0.5000000708769841
 40
0.6249997622406303
 40
0.7499998682883918
 40
0.874999869052655
 40
0.9999999999999999
 40
0.9999999999999999
 40
0.9999999999999999
 40
0.9999999999999999
 10
5.971629875795267
 20
4.866966832200462
 30
0.0
 10
5.972498234237256
 20
4.866966832200462
 30
0.0
 10
5.974234950750047
 20
4.866966832200462
 30
0.0
 10
5.983728513282538
 20
4.866966832200462
 30
0.0
 10
5.997890756143984
 20
4.866966832200462
 30
0.0
 10
6.01670245175835
 20
4.866966832200462
 30
0.0
 10
6.039337904967657
 20
4.866966832200462
 30
0.0
 10
6.065001561326005
 20
4.866966832200462
 30
0.0
 10
6.09274067423109
 20
4.866966832200462
 30
0.0
 10
6.111939215214479
 20
4.866966832200462
 30
0.0
 10
6.121538490704822
 20
4.866966832200462
 30
0.0
  0
LINE
  5
C0
330
1F
100
AcDbEntity
  8
0
  6
Continuous
 62
     7
370
    15
100
AcDbLine
 10
3.6476453627
 20
5.2599725105
 30
0.0
 11
3.6476453627
 21
5.2100029661
 31
0.0
  0
SPLINE
  5
C1
330
1F
100
AcDbEntity
  8
0
  6
Continuous
 62
     7
370
    15
100
AcDbSpline
210
0.0
220
0.0
230
1.0
 70
    24
 71
     3
 72
    11
 73
     7
 74
     0
 42
0.000000001
 43
0.00000001
 40
0.0
 40
0.0
 40
0.0
 40
0.0
 40
0.2500002126221919
 40
0.5000002274300801
 40
0.7500000711448466
 40
0.9999999999999999
 40
0.9999999999999999
 40
0.9999999999999999
 40
0.9999999999999999
 10
5.925030600780735
 20
5.210002966084438
 30
0.0
 10
5.925030600780735
 20
5.210943986430511
 30
0.0
 10
5.925030600780735
 20
5.212826026378067
 30
0.0
 10
5.925030600780735
 20
5.224464381396491
 30
0.0
 10
5.925030600780735
 20
5.240754054933732
 30
0.0
 10
5.925030600780735
 20
5.253566357916457
 30
0.0
 10
5.925030600780735
 20
5.259972510498663
 30
0.0
  0
LINE
  5
C2
330
1F
100
AcDbEntity
  8
0
  6
Continuous
 62
     7
370
    15
100
AcDbLine
 10
5.9250306008
 20
5.2100029661
 30
0.0
 11
3.6476453627
 21
5.2100029661
 31
0.0
  0
LINE
  5
C3
330
1F
100
AcDbEntity
  8
0
  6
Continuous
 62
     7
370
    15
100
AcDbLine
 10
3.6476453627
 20
5.2969908779
 30
0.0
 11
3.6476453627
 21
5.3469604039
 31
0.0
  0
LINE
  5
C4
330
1F
100
AcDbEntity
  8
0
  6
Continuous
 62
     7
370
    15
100
AcDbLine
 10
3.6476453627
 20
5.3469604039
 30
0.0
 11
5.9250306008
 21
5.3469604039
 31
0.0
  0
SPLINE
  5
C5
330
1F
100
AcDbEntity
  8
0
  6
Continuous
 62
     7
370
    15
100
AcDbSpline
210
0.0
220
0.0
230
1.0
 70
    24
 71
     3
 72
    11
 73
     7
 74
     0
 42
0.000000001
 43
0.00000001
 40
0.0
 40
0.0
 40
0.0
 40
0.0
 40
0.2499999423635919
 40
0.4999997995867925
 40
0.7499998279031238
 40
1.0
 40
1.0
 40
1.0
 40
1.0
 10
5.925030600780735
 20
5.296990877859325
 30
0.0
 10
5.925030600780735
 20
5.303397030548915
 30
0.0
 10
5.925030600780735
 20
5.316209333746407
 30
0.0
 10
5.925030600780735
 20
5.33249900567289
 30
0.0
 10
5.925030600780735
 20
5.34413736597371
 30
0.0
 10
5.925030600780735
 20
5.346019391104457
 30
0.0
 10
5.925030600780735
 20
5.346960403940429
 30
0.0
  0
LINE
  5
C6
330
1F
100
AcDbEntity
  8
0
  6
Continuous
 62
     7
370
    15
100
AcDbLine
 10
5.9716298758
 20
5.4003001811
 30
0.0
 11
5.9716298758
 21
5.6899965745
 31
0.0
  0
SPLINE
  5
C7
330
1F
100
AcDbEntity
  8
0
  6
Continuous
 62
     7
370
    15
100
AcDbSpline
210
0.0
220
0.0
230
1.0
 70
    24
 71
     3
 72
    15
 73
    11
 74
     0
 42
0.000000001
 43
0.00000001
 40
0.0
 40
0.0
 40
0.0
 40
0.0
 40
0.1249999310024363
 40
0.2499998085724245
 40
0.374999823632763
 40
0.5000000708769841
 40
0.6249997622406303
 40
0.7499998682883918
 40
0.874999869052655
 40
0.9999999999999999
 40
0.9999999999999999
 40
0.9999999999999999
 40
0.9999999999999999
 10
5.971629875795267
 20
5.689996574490648
 30
0.0
 10
5.972498234237256
 20
5.689996574490648
 30
0.0
 10
5.974234950750047
 20
5.689996574490648
 30
0.0
 10
5.983728513282538
 20
5.689996574490648
 30
0.0
 10
5.997890756143984
 20
5.689996574490648
 30
0.0
 10
6.01670245175835
 20
5.689996574490648
 30
0.0
 10
6.039337904967657
 20
5.689996574490648
 30
0.0
 10
6.065001561326005
 20
5.689996574490648
 30
0.0
 10
6.09274067423109
 20
5.689996574490648
 30
0.0
 10
6.111939215214479
 20
5.689996574490648
 30
0.0
 10
6.121538490704822
 20
5.689996574490648
 30
0.0
  0
SPLINE
  5
C8
330
1F
100
AcDbEntity
  8
0
  6
Continuous
 62
     7
370
    15
100
AcDbSpline
210
0.0
220
0.0
230
1.0
 70
    24
 71
     3
 72
    15
 73
    11
 74
     0
 42
0.000000001
 43
0.00000001
 40
0.0
 40
0.0
 40
0.0
 40
0.0
 40
0.1249999310024363
 40
0.2499998085724245
 40
0.374999823632763
 40
0.5000000708769841
 40
0.6249997622406303
 40
0.7499998682883918
 40
0.874999869052655
 40
0.9999999999999999
 40
0.9999999999999999
 40
0.9999999999999999
 40
0.9999999999999999
 10
5.971629875795267
 20
5.400300181088105
 30
0.0
 10
5.972498234237256
 20
5.400300181088105
 30
0.0
 10
5.974234950750047
 20
5.400300181088105
 30
0.0
 10
5.983728513282538
 20
5.400300181088105
 30
0.0
 10
5.997890756143984
 20
5.400300181088105
 30
0.0
 10
6.01670245175835
 20
5.400300181088105
 30
0.0
 10
6.039337904967657
 20
5.400300181088105
 30
0.0
 10
6.065001561326005
 20
5.400300181088105
 30
0.0
 10
6.09274067423109
 20
5.400300181088105
 30
0.0
 10
6.111939215214479
 20
5.400300181088105
 30
0.0
 10
6.121538490704822
 20
5.400300181088105
 30
0.0
  0
LINE
  5
C9
330
1F
100
AcDbEntity
  8
0
  6
Continuous
 62
     7
370
    15
100
AcDbLine
 10
3.6476453627
 20
5.7433362783
 30
0.0
 11
3.6476453627
 21
5.7933058411
 31
0.0
  0
SPLINE
  5
CA
330
1F
100
AcDbEntity
  8
0
  6
Continuous
 62
     7
370
    15
100
AcDbSpline
210
0.0
220
0.0
230
1.0
 70
    24
 71
     3
 72
    11
 73
     7
 74
     0
 42
0.000000001
 43
0.00000001
 40
0.0
 40
0.0
 40
0.0
 40
0.0
 40
0.2500002703169299
 40
0.5000002887855665
 40
0.7500005390626513
 40
1.0
 40
1.0
 40
1.0
 40
1.0
 10
5.925030600780735
 20
5.743336278305837
 30
0.0
 10
5.925030600780735
 20
5.744277306421274
 30
0.0
 10
5.925030600780735
 20
5.746159361704167
 30
0.0
 10
5.925030600780735
 20
5.757797713803379
 30
0.0
 10
5.925030600780736
 20
5.774087405985868
 30
0.0
 10
5.925030600780735
 20
5.786899702772919
 30
0.0
 10
5.925030600780735
 20
5.793305841053185
 30
0.0
  0
LINE
  5
CB
330
1F
100
AcDbEntity
  8
0
  6
Continuous
 62
     7
370
    15
100
AcDbLine
 10
5.9250306008
 20
5.7433362783
 30
0.0
 11
3.6476453627
 21
5.7433362783
 31
0.0
  0
SPLINE
  5
CC
330
1F
100
AcDbEntity
  8
0
  6
Continuous
 62
     7
370
    15
100
AcDbSpline
210
0.0
220
0.0
230
1.0
 70
     8
 71
     3
 72
    17
 73
    13
 74
     0
 42
0.000000001
 43
0.00000001
 40
0.0
 40
0.0
 40
0.0
 40
0.0
 40
0.0539652032477726
 40
0.1030606820049703
 40
0.2054783458335772
 40
0.4695658666395111
 40
0.6220154541065366
 40
0.7448404430738153
 40
0.8131403098988529
 40
0.8759676277747572
 40
0.9369406316903758
 40
0.9999999999999999
 40
0.9999999999999999
 40
0.9999999999999999
 40
0.9999999999999999
 10
5.971629875795267
 20
4.623329876715363
 30
0.0
 10
5.971541471538303
 20
4.625726611616068
 30
0.0
 10
5.971372640468156
 20
4.630303804299244
 30
0.0
 10
5.969878129795858
 20
4.638078183555205
 30
0.0
 10
5.967183070091489
 20
4.647150585950483
 30
0.0
 10
5.964762706614056
 20
4.653087572186593
 30
0.0
 10
5.960091905563173
 20
4.660596127940586
 30
0.0
 10
5.954438008883007
 20
4.666442858401767
 30
0.0
 10
5.947800720091313
 20
4.670966755048161
 30
0.0
 10
5.941187039916618
 20
4.674038695712055
 30
0.0
 10
5.933429633162173
 20
4.676246049211493
 30
0.0
 10
5.927861499006768
 20
4.676526877695244
 30
0.0
 10
5.925030600780735
 20
4.676669653863038
 30
0.0
  0
SPLINE
  5
CD
330
1F
100
AcDbEntity
  8
0
  6
Continuous
 62
     7
370
    15
100
AcDbSpline
210
0.0
220
0.0
230
1.0
 70
     8
 71
     3
 72
    17
 73
    13
 74
     0
 42
0.000000001
 43
0.00000001
 40
0.0
 40
0.0
 40
0.0
 40
0.0
 40
0.0539655330368399
 40
0.1030614326158723
 40
0.2054800494076639
 40
0.469569789463749
 40
0.6220207271998225
 40
0.7448467176268073
 40
0.8131232605754648
 40
0.8759437722737368
 40
0.9369242254216003
 40
0.9999999999999999
 40
0.9999999999999999
 40
0.9999999999999999
 40
0.9999999999999999
 10
5.971629875795267
 20
5.156663225603005
 30
0.0
 10
5.971541471247568
 20
5.159059954237878
 30
0.0
 10
5.971372639424311
 20
5.163637140319464
 30
0.0
 10
5.969878129372781
 20
5.171411514455504
 30
0.0
 10
5.967183068187583
 20
5.180483953556455
 30
0.0
 10
5.964762740986713
 20
5.186420860572377
 30
0.0
 10
5.960091840304198
 20
5.193929527396199
 30
0.0
 10
5.954438566320785
 20
5.199775685296534
 30
0.0
 10
5.947801923942332
 20
5.204299275412341
 30
0.0
 10
5.941188900982141
 20
5.207371250791637
 30
0.0
 10
5.933431208465962
 20
5.209579075605811
 30
0.0
 10
5.927862157276413
 20
5.209860087154343
 30
0.0
 10
5.925030600780735
 20
5.210002966084438
 30
0.0
  0
SPLINE
  5
CE
330
1F
100
AcDbEntity
  8
0
  6
Continuous
 62
     7
370
    15
100
AcDbSpline
210
0.0
220
0.0
230
1.0
 70
     8
 71
     3
 72
    16
 73
    12
 74
     0
 42
0.000000001
 43
0.00000001
 40
0.0
 40
0.0
 40
0.0
 40
0.0
 40
0.054058089804272
 40
0.1032051663804054
 40
0.205764695690229
 40
0.470218021590928
 40
0.744502315253319
 40
0.8128858705858755
 40
0.8757968339338007
 40
0.9368561534336326
 40
1.0
 40
1.0
 40
1.0
 40
1.0
 10
5.971629875795267
 20
4.33363348331282
 30
0.0
 10
5.971541416661806
 20
4.331235758926192
 30
0.0
 10
5.971372534638413
 20
4.326658136129082
 30
0.0
 10
5.96987773762679
 20
4.318886088636077
 30
0.0
 10
5.967187691758744
 20
4.309798832401591
 30
0.0
 10
5.964147736643475
 20
4.302628473358283
 30
0.0
 10
5.958363788130867
 20
4.293243827988062
 30
0.0
 10
5.94780232865
 20
4.285993041452794
 30
0.0
 10
5.941185487634301
 20
4.282925321677388
 30
0.0
 10
5.933429452466324
 20
4.280717222029518
 30
0.0
 10
5.927861368107719
 20
4.280436497493969
 30
0.0
 10
5.925030600780735
 20
4.280293779497629
 30
0.0
  0
SPLINE
  5
CF
330
1F
100
AcDbEntity
  8
0
  6
Continuous
 62
     7
370
    15
100
AcDbSpline
210
0.0
220
0.0
230
1.0
 70
     8
 71
     3
 72
    17
 73
    13
 74
     0
 42
0.000000001
 43
0.00000001
 40
0.0
 40
0.0
 40
0.0
 40
0.0
 40
0.0539656636883365
 40
0.103061561336756
 40
0.2054800990108048
 40
0.4695698730577101
 40
0.6220206741564462
 40
0.7448467110880383
 40
0.8131232513518368
 40
0.8759438561917522
 40
0.9369242398201748
 40
1.0
 40
1.0
 40
1.0
 40
1.0
 10
5.971629875795267
 20
5.689996574490648
 30
0.0
 10
5.971541471516512
 20
5.692393309389343
 30
0.0
 10
5.971372640404754
 20
5.69697050206868
 30
0.0
 10
5.969878130124824
 20
5.70474488136084
 30
0.0
 10
5.967183065280073
 20
5.713817283281878
 30
0.0
 10
5.964762746775202
 20
5.719754272633194
 30
0.0
 10
5.960091834299779
 20
5.727262816504028
 30
0.0
 10
5.954438570822289
 20
5.73310902829757
 30
0.0
 10
5.947801916336877
 20
5.737632590688524
 30
0.0
 10
5.941188913524122
 20
5.74070463856657
 30
0.0
 10
5.93343120273372
 20
5.742912396065626
 30
0.0
 10
5.927862156185561
 20
5.74319340211018
 30
0.0
 10
5.925030600780735
 20
5.743336278305837
 30
0.0
  0
SPLINE
  5
D0
330
1F
100
AcDbEntity
  8
0
  6
Continuous
 62
     7
370
    15
100
AcDbSpline
210
0.0
220
0.0
230
1.0
 70
     8
 71
     3
 72
    16
 73
    12
 74
     0
 42
0.000000001
 43
0.00000001
 40
0.0
 40
0.0
 40
0.0
 40
0.0
 40
0.0540581550855848
 40
0.1032050593383806
 40
0.2057646615698928
 40
0.4702179371754098
 40
0.7445023194059638
 40
0.8128859802033237
 40
0.8757968464223129
 40
0.9368561309700953
 40
1.0
 40
1.0
 40
1.0
 40
1.0
 10
5.971629875795267
 20
4.866966832200462
 30
0.0
 10
5.97154141727483
 20
4.864569103310281
 30
0.0
 10
5.971372536800899
 20
4.859991482191012
 30
0.0
 10
5.969877733410961
 20
4.852219456757728
 30
0.0
 10
5.967187695894731
 20
4.843132163220486
 30
0.0
 10
5.964147739679239
 20
4.835961842468157
 30
0.0
 10
5.958363770625341
 20
4.826577217869326
 30
0.0
 10
5.947802340399165
 20
4.81932632055537
 30
0.0
 10
5.941185482950972
 20
4.81625865572491
 30
0.0
 10
5.933429448674778
 20
4.814050582615139
 30
0.0
 10
5.927861367686138
 20
4.81376982605933
 30
0.0
 10
5.925030600780735
 20
4.813627091719029
 30
0.0
  0
SPLINE
  5
D1
330
1F
100
AcDbEntity
  8
0
  6
Continuous
 62
     7
370
    15
100
AcDbSpline
210
0.0
220
0.0
230
1.0
 70
     8
 71
     3
 72
    16
 73
    12
 74
     0
 42
0.000000001
 43
0.00000001
 40
0.0
 40
0.0
 40
0.0
 40
0.0
 40
0.0540583490154692
 40
0.1032051911837359
 40
0.2057647077742483
 40
0.4702180008777596
 40
0.7445023551680688
 40
0.8128860089994608
 40
0.8757968688099736
 40
0.936856113538774
 40
0.9999999999999999
 40
0.9999999999999999
 40
0.9999999999999999
 40
0.9999999999999999
 10
5.971629875795267
 20
5.400300181088105
 30
0.0
 10
5.971541417842163
 20
5.397902442310857
 30
0.0
 10
5.971372538841451
 20
5.393324812889661
 30
0.0
 10
5.969877732944719
 20
5.385552788537568
 30
0.0
 10
5.967187694325081
 20
5.376465524263656
 30
0.0
 10
5.964147740480827
 20
5.369295163028305
 30
0.0
 10
5.958363771243134
 20
5.359910545888702
 30
0.0
 10
5.947802339885633
 20
5.352659653596282
 30
0.0
 10
5.941185485912512
 20
5.349591977889259
 30
0.0
 10
5.933429443939212
 20
5.347383946541783
 30
0.0
 10
5.927861366946395
 20
5.347103155750768
 30
0.0
 10
5.925030600780735
 20
5.346960403940429
 30
0.0
  0
ARC
  5
D2
330
1F
100
AcDbEntity
  8
0
  6
Continuous
 62
     7
370
    15
100
AcDbCircle
 10
7.4119167024
 20
4.1933771586
 30
0.0
 40
0.0500408677476016
100
AcDbArc
 50
270.0816095301
 51
359.9183313483
  0
LINE
  5
D3
330
1F
100
AcDbEntity
  8
0
  6
Continuous
 62
     7
370
    15
100
AcDbLine
 10
7.4119879783
 20
4.1933058311
 30
0.0
 11
7.4119879783
 21
4.1433363416
 31
0.0
  0
LINE
  5
D4
330
1F
100
AcDbEntity
  8
0
  6
Continuous
 62
     7
370
    15
100
AcDbLine
 10
7.4619575193
 20
4.1933058311
 30
0.0
 11
7.4119879783
 21
4.1933058311
 31
0.0
  0
LINE
  5
D5
330
1F
100
AcDbEntity
  8
0
  6
Continuous
 62
     7
370
    15
100
AcDbLine
 10
7.4119879783
 20
4.1433363416
 30
0.0
 11
3.6476453627
 21
4.1433363416
 31
0.0
  0
LINE
  5
D6
330
1F
100
AcDbEntity
  8
0
  6
Continuous
 62
     7
370
    15
100
AcDbLine
 10
3.6476453627
 20
4.1933058311
 30
0.0
 11
3.6476453627
 21
4.1433363416
 31
0.0
  0
ARC
  5
D7
330
1F
100
AcDbEntity
  8
0
  6
Continuous
 62
     7
370
    15
100
AcDbCircle
 10
3.6476454641
 20
4.5909816956
 30
0.0
 40
0.4476453884467073
100
AcDbArc
 50
180.0
 51
270.0
  0
LINE
  5
D8
330
1F
100
AcDbEntity
  8
0
  6
Continuous
 62
     7
370
    15
100
AcDbLine
 10
3.2499697433
 20
4.5909817071
 30
0.0
 11
3.2000001072
 21
4.5909817071
 31
0.0
  0
ELLIPSE
  5
D9
330
1F
100
AcDbEntity
  8
0
  6
Continuous
 62
     7
370
    15
100
AcDbEllipse
 10
7.4119879778
 20
4.2205341302
 30
0.0
 11
0.05000000000000071
 21
0.0
 31
0.0
210
0.0
220
0.0
230
1.0
 40
0.0437443318
 41
4.71238898038469
 42
6.248278722139736
  0
LINE
  5
DA
330
1F
100
AcDbEntity
  8
0
  6
Continuous
 62
     7
370
    15
100
AcDbLine
 10
7.4619575193
 20
4.2204577707
 30
0.0
 11
7.4619575193
 21
4.1933058311
 31
0.0
  0
LINE
  5
DB
330
1F
100
AcDbEntity
  8
0
  6
Continuous
 62
     7
370
    15
100
AcDbLine
 10
6.2248204043
 20
4.2183468951
 30
0.0
 11
6.2248204043
 21
4.2432517807
 31
0.0
  0
LINE
  5
DC
330
1F
100
AcDbEntity
  8
0
  6
Continuous
 62
     7
370
    15
100
AcDbLine
 10
6.2248204043
 20
4.2432517807
 30
0.0
 11
7.4119879783
 21
4.2432517807
 31
0.0
  0
LINE
  5
DD
330
1F
100
AcDbEntity
  8
0
  6
Continuous
 62
     7
370
    15
100
AcDbLine
 10
7.4119879783
 20
4.2183468951
 30
0.0
 11
7.4119879783
 21
4.2432517807
 31
0.0
  0
LINE
  5
DE
330
1F
100
AcDbEntity
  8
0
  6
Continuous
 62
     7
370
    15
100
AcDbLine
 10
6.175010633
 20
4.2681566664
 30
0.0
 11
6.1999155186
 21
4.2681566664
 31
0.0
  0
ELLIPSE
  5
DF
330
1F
100
AcDbEntity
  8
0
  6
Continuous
 62
     7
370
    15
100
AcDbEllipse
 10
6.225201674
 20
4.2685379055
 30
0.0
 11
0.01808103646745973
 21
0.01808103646745973
 31
0.0
210
0.0
220
0.0
230
1.0
 40
0.9776911607
 41
2.359992588465574
 42
3.923192718713991
  0
ELLIPSE
  5
E0
330
1F
100
AcDbEntity
  8
0
  6
Continuous
 62
     7
370
    15
100
AcDbEllipse
 10
7.4119879778
 20
4.2454389977
 30
0.0
 11
0.02500000000000036
 21
0.0
 31
0.0
210
0.0
220
0.0
230
1.0
 40
0.0874886635
 41
4.712388980384691
 42
6.248278722139974
  0
ARC
  5
E1
330
1F
100
AcDbEntity
  8
0
  6
Continuous
 62
     7
370
    15
100
AcDbCircle
 10
7.4369237875
 20
4.2203286394
 30
0.0
 40
0.0250340648499603
100
AcDbArc
 50
0.2955458396
 51
89.8879428613
  0
LINE
  5
E2
330
1F
100
AcDbEntity
  8
0
  6
Continuous
 62
     7
370
    15
100
AcDbLine
 10
3.2869879823
 20
4.5909817071
 30
0.0
 11
3.3369576184
 21
4.5909817071
 31
0.0
  0
ARC
  5
E3
330
1F
100
AcDbEntity
  8
0
  6
Continuous
 62
     7
370
    15
100
AcDbCircle
 10
3.6476454641
 20
4.5909816956
 30
0.0
 40
0.3106879448866269
100
AcDbArc
 50
180.0
 51
270.0
  0
LINE
  5
E4
330
1F
100
AcDbEntity
  8
0
  6
Continuous
 62
     7
370
    15
100
AcDbLine
 10
6.175010633
 20
5.7554733914
 30
0.0
 11
6.1999155186
 21
5.7554733914
 31
0.0
  0
LINE
  5
E5
330
1F
100
AcDbEntity
  8
0
  6
Continuous
 62
     7
370
    15
100
AcDbLine
 10
6.1999155186
 20
5.7554733914
 30
0.0
 11
6.1999155186
 21
4.2681566664
 31
0.0
  0
LINE
  5
E6
330
1F
100
AcDbEntity
  8
0
  6
Continuous
 62
     7
370
    15
100
AcDbLine
 10
3.6476453627
 20
4.4553241975
 30
0.0
 11
3.6476453627
 21
4.5052937603
 31
0.0
  0
ARC
  5
E7
330
1F
100
AcDbEntity
  8
0
  6
Continuous
 62
     7
370
    15
100
AcDbCircle
 10
3.6476454641
 20
4.4368150289
 30
0.0
 40
0.06847872178004
100
AcDbArc
 50
270.0
 51
90.0
  0
ARC
  5
E8
330
1F
100
AcDbEntity
  8
0
  6
Continuous
 62
     7
370
    15
100
AcDbCircle
 10
3.6476454641
 20
4.5909816956
 30
0.0
 40
0.0856879448866268
100
AcDbArc
 50
90.0
 51
270.0
  0
LINE
  5
E9
330
1F
100
AcDbEntity
  8
0
  6
Continuous
 62
     7
370
    15
100
AcDbLine
 10
3.2000001072
 20
4.5909817071
 30
0.0
 11
3.2000001072
 21
4.6701483792
 31
0.0
  0
LINE
  5
EA
330
1F
100
AcDbEntity
  8
0
  6
Continuous
 62
     7
370
    15
100
AcDbLine
 10
3.2499697433
 20
4.6701483792
 30
0.0
 11
3.2000001072
 21
4.6701483792
 31
0.0
  0
LINE
  5
EB
330
1F
100
AcDbEntity
  8
0
  6
Continuous
 62
     7
370
    15
100
AcDbLine
 10
3.2869879823
 20
4.6701483792
 30
0.0
 11
3.3369576184
 21
4.6701483792
 31
0.0
  0
LINE
  5
EC
330
1F
100
AcDbEntity
  8
0
  6
Continuous
 62
     7
370
    15
100
AcDbLine
 10
3.3369576184
 20
4.6701483792
 30
0.0
 11
3.3369576184
 21
4.5909817071
 31
0.0
  0
ARC
  5
ED
330
1F
100
AcDbEntity
  8
0
  6
Continuous
 62
     7
370
    15
100
AcDbCircle
 10
3.2684787974
 20
4.6701483622
 30
0.0
 40
0.0684787217800404
100
AcDbArc
 50
0.0
 51
180.0
  0
LINE
  5
EE
330
1F
100
AcDbEntity
  8
0
  6
Continuous
 62
     7
370
    15
100
AcDbLine
 10
3.2869879823
 20
5.1243150285
 30
0.0
 11
3.3369576184
 21
5.1243150285
 31
0.0
  0
ARC
  5
EF
330
1F
100
AcDbEntity
  8
0
  6
Continuous
 62
     7
370
    15
100
AcDbCircle
 10
3.6476454641
 20
5.1243150289
 30
0.0
 40
0.3106879448866264
100
AcDbArc
 50
180.0
 51
270.0
  0
LINE
  5
F0
330
1F
100
AcDbEntity
  8
0
  6
Continuous
 62
     7
370
    15
100
AcDbLine
 10
3.6476453627
 20
4.9886575418
 30
0.0
 11
3.6476453627
 21
5.038627084
 31
0.0
  0
ARC
  5
F1
330
1F
100
AcDbEntity
  8
0
  6
Continuous
 62
     7
370
    15
100
AcDbCircle
 10
3.6476454641
 20
4.9701483622
 30
0.0
 40
0.06847872178004
100
AcDbArc
 50
270.0
 51
90.0
  0
ARC
  5
F2
330
1F
100
AcDbEntity
  8
0
  6
Continuous
 62
     7
370
    15
100
AcDbCircle
 10
3.6476454641
 20
5.1243150289
 30
0.0
 40
0.0856879448866268
100
AcDbArc
 50
90.0
 51
270.0
  0
LINE
  5
F3
330
1F
100
AcDbEntity
  8
0
  6
Continuous
 62
     7
370
    15
100
AcDbLine
 10
3.2869879823
 20
5.2034816914
 30
0.0
 11
3.3369576184
 21
5.2034816914
 31
0.0
  0
LINE
  5
F4
330
1F
100
AcDbEntity
  8
0
  6
Continuous
 62
     7
370
    15
100
AcDbLine
 10
3.3369576184
 20
5.2034816914
 30
0.0
 11
3.3369576184
 21
5.1243150285
 31
0.0
  0
LINE
  5
F5
330
1F
100
AcDbEntity
  8
0
  6
Continuous
 62
     7
370
    15
100
AcDbLine
 10
3.2000001072
 20
5.1243150285
 30
0.0
 11
3.2000001072
 21
5.2034816914
 31
0.0
  0
LINE
  5
F6
330
1F
100
AcDbEntity
  8
0
  6
Continuous
 62
     7
370
    15
100
AcDbLine
 10
3.2499697433
 20
5.2034816914
 30
0.0
 11
3.2000001072
 21
5.2034816914
 31
0.0
  0
ARC
  5
F7
330
1F
100
AcDbEntity
  8
0
  6
Continuous
 62
     7
370
    15
100
AcDbCircle
 10
3.2684787974
 20
5.2034816956
 30
0.0
 40
0.0684787217800404
100
AcDbArc
 50
0.0
 51
180.0
  0
LINE
  5
F8
330
1F
100
AcDbEntity
  8
0
  6
Continuous
 62
     7
370
    15
100
AcDbLine
 10
3.2869879823
 20
5.6576483682
 30
0.0
 11
3.3369576184
 21
5.6576483682
 31
0.0
  0
ARC
  5
F9
330
1F
100
AcDbEntity
  8
0
  6
Continuous
 62
     7
370
    15
100
AcDbCircle
 10
3.6476454641
 20
5.6576483622
 30
0.0
 40
0.3106879448866269
100
AcDbArc
 50
180.0
 51
270.0
  0
ARC
  5
FA
330
1F
100
AcDbEntity
  8
0
  6
Continuous
 62
     7
370
    15
100
AcDbCircle
 10
3.6476454641
 20
5.6576483622
 30
0.0
 40
0.2226453884467068
100
AcDbArc
 50
90.0
 51
270.0
  0
LINE
  5
FB
330
1F
100
AcDbEntity
  8
0
  6
Continuous
 62
     7
370
    15
100
AcDbLine
 10
3.6476453627
 20
5.8802937162
 30
0.0
 11
3.6476453627
 21
5.8303242267
 31
0.0
  0
LINE
  5
FC
330
1F
100
AcDbEntity
  8
0
  6
Continuous
 62
     7
370
    15
100
AcDbLine
 10
3.6476453627
 20
5.4350029835
 30
0.0
 11
3.6476453627
 21
5.4849725096
 31
0.0
  0
ARC
  5
FD
330
1F
100
AcDbEntity
  8
0
  6
Continuous
 62
     7
370
    15
100
AcDbCircle
 10
3.6476454641
 20
5.5034816956
 30
0.0
 40
0.0684787217800409
100
AcDbArc
 50
270.0
 51
90.0
  0
LINE
  5
FE
330
1F
100
AcDbEntity
  8
0
  6
Continuous
 62
     7
370
    15
100
AcDbLine
 10
3.6476453627
 20
5.5719604214
 30
0.0
 11
3.6476453627
 21
5.5219908586
 31
0.0
  0
ARC
  5
FF
330
1F
100
AcDbEntity
  8
0
  6
Continuous
 62
     7
370
    15
100
AcDbCircle
 10
3.6476454641
 20
5.6576483622
 30
0.0
 40
0.0856879448866259
100
AcDbArc
 50
90.0
 51
270.0
  0
LINE
  5
100
330
1F
100
AcDbEntity
  8
0
  6
Continuous
 62
     7
370
    15
100
AcDbLine
 10
3.2000001072
 20
5.6576483682
 30
0.0
 11
3.2000001072
 21
5.7368150403
 31
0.0
  0
LINE
  5
101
330
1F
100
AcDbEntity
  8
0
  6
Continuous
 62
     7
370
    15
100
AcDbLine
 10
3.2499697433
 20
5.7368150403
 30
0.0
 11
3.2000001072
 21
5.7368150403
 31
0.0
  0
LINE
  5
102
330
1F
100
AcDbEntity
  8
0
  6
Continuous
 62
     7
370
    15
100
AcDbLine
 10
3.2869879823
 20
5.7368150403
 30
0.0
 11
3.3369576184
 21
5.7368150403
 31
0.0
  0
LINE
  5
103
330
1F
100
AcDbEntity
  8
0
  6
Continuous
 62
     7
370
    15
100
AcDbLine
 10
3.3369576184
 20
5.7368150403
 30
0.0
 11
3.3369576184
 21
5.6576483682
 31
0.0
  0
ARC
  5
104
330
1F
100
AcDbEntity
  8
0
  6
Continuous
 62
     7
370
    15
100
AcDbCircle
 10
3.2684787974
 20
5.7368150289
 30
0.0
 40
0.0684787217800404
100
AcDbArc
 50
0.0
 51
180.0
  0
LINE
  5
105
330
1F
100
AcDbEntity
  8
0
  6
Continuous
 62
     7
370
    15
100
AcDbLine
 10
6.2248204043
 20
5.8052831627
 30
0.0
 11
6.2248204043
 21
5.7803782771
 31
0.0
  0
ELLIPSE
  5
106
330
1F
100
AcDbEntity
  8
0
  6
Continuous
 62
     7
370
    15
100
AcDbEllipse
 10
6.225201674
 20
5.7550921523
 30
0.0
 11
0.01808103646745973
 21
-0.01808103646745973
 31
0.0
210
0.0
220
0.0
230
1.0
 40
0.9776911607
 41
2.359992588465574
 42
3.923192718713955
  0
LINE
  5
107
330
1F
100
AcDbEntity
  8
0
  6
Continuous
 62
     7
370
    15
100
AcDbLine
 10
7.4119879783
 20
5.8052831627
 30
0.0
 11
7.4119879783
 21
5.7803782771
 31
0.0
  0
LINE
  5
108
330
1F
100
AcDbEntity
  8
0
  6
Continuous
 62
     7
370
    15
100
AcDbLine
 10
7.4119879783
 20
5.7803782771
 30
0.0
 11
6.2248204043
 21
5.7803782771
 31
0.0
  0
ELLIPSE
  5
109
330
1F
100
AcDbEntity
  8
0
  6
Continuous
 62
     7
370
    15
100
AcDbEllipse
 10
7.4119879778
 20
5.8030959276
 30
0.0
 11
0.05000000000000071
 21
0.0
 31
0.0
210
0.0
220
0.0
230
1.0
 40
0.0437443318
 41
0.0349065850406066
 42
1.570796326794897
  0
ARC
  5
10A
330
1F
100
AcDbEntity
  8
0
  6
Continuous
 62
     7
370
    15
100
AcDbCircle
 10
7.4369237875
 20
5.8033014184
 30
0.0
 40
0.0250340648499603
100
AcDbArc
 50
270.1120571387
 51
359.7044541604
  0
ELLIPSE
  5
10B
330
1F
100
AcDbEntity
  8
0
  6
Continuous
 62
     7
370
    15
100
AcDbEllipse
 10
7.4119879778
 20
5.7781910601
 30
0.0
 11
0.02500000000000036
 21
0.0
 31
0.0
210
0.0
220
0.0
230
1.0
 40
0.0874886635
 41
0.0349065850393743
 42
1.570796326794897
  0
LINE
  5
10C
330
1F
100
AcDbEntity
  8
0
  6
Continuous
 62
     7
370
    15
100
AcDbLine
 10
7.4119879783
 20
5.8303242267
 30
0.0
 11
7.4619575193
 21
5.8303242267
 31
0.0
  0
LINE
  5
10D
330
1F
100
AcDbEntity
  8
0
  6
Continuous
 62
     7
370
    15
100
AcDbLine
 10
7.4619575193
 20
5.8303242267
 30
0.0
 11
7.4619575193
 21
5.8031722871
 31
0.0
  0
LINE
  5
10E
330
1F
100
AcDbEntity
  8
0
  6
Continuous
 62
     7
370
    15
100
AcDbLine
 10
3.6476453627
 20
5.8802937162
 30
0.0
 11
7.4119879783
 21
5.8802937162
 31
0.0
  0
LINE
  5
10F
330
1F
100
AcDbEntity
  8
0
  6
Continuous
 62
     7
370
    15
100
AcDbLine
 10
7.4119879783
 20
5.8802937162
 30
0.0
 11
7.4119879783
 21
5.8303242267
 31
0.0
  0
ARC
  5
110
330
1F
100
AcDbEntity
  8
0
  6
Continuous
 62
     7
370
    15
100
AcDbCircle
 10
7.4119167024
 20
5.8302528992
 30
0.0
 40
0.0500408677476043
100
AcDbArc
 50
0.0816686517
 51
89.9183904699
  0
LINE
  5
111
330
1F
100
AcDbEntity
  8
0
  6
Continuous
 62
     7
370
    15
100
AcDbLine
 10
6.2433836431
 20
4.2618150196
 30
0.0
 11
6.2248204043
 21
4.2432517807
 31
0.0
  0
LINE
  5
112
330
1F
100
AcDbEntity
  8
0
  6
Continuous
 62
     7
370
    15
100
AcDbLine
 10
6.1999155186
 20
4.2681566664
 30
0.0
 11
6.2184787575
 21
4.2867199053
 31
0.0
  0
ELLIPSE
  5
113
330
1F
100
AcDbEntity
  8
0
  6
Continuous
 62
     7
370
    15
100
AcDbEllipse
 10
6.2435742933
 20
4.2869105248
 30
0.0
 11
-0.01781246519725688
 21
-0.01781246519725688
 31
-1.110223024625157E-16
210
-4.686514055387151E-15
220
-1.546329138019516E-15
230
1.0
 40
0.9924325091
 41
5.501585242055449
 42
7.064785372303772
  0
LINE
  5
114
330
1F
100
AcDbEntity
  8
0
  6
Continuous
 62
     7
370
    15
100
AcDbLine
 10
6.2184787575
 20
5.7369101525
 30
0.0
 11
6.1999155186
 21
5.7554733914
 31
0.0
  0
LINE
  5
115
330
1F
100
AcDbEntity
  8
0
  6
Continuous
 62
     7
370
    15
100
AcDbLine
 10
6.2248204043
 20
5.7803782771
 30
0.0
 11
6.2433836431
 21
5.7618150382
 31
0.0
  0
ELLIPSE
  5
116
330
1F
100
AcDbEntity
  8
0
  6
Continuous
 62
     7
370
    15
100
AcDbEllipse
 10
6.2435742933
 20
5.736719533
 30
0.0
 11
-0.01781246519725599
 21
0.01781246519725599
 31
-1.110223024625157E-16
210
-6.256606514071201E-15
220
-2.376332066422563E-17
230
1.0
 40
0.9924325091
 41
5.501585242055378
 42
7.064785372303773
  0
LINE
  5
117
330
1F
100
AcDbEntity
  8
0
  6
Continuous
 62
     7
370
    15
100
AcDbLine
 10
6.2433836431
 20
4.2618150196
 30
0.0
 11
6.4684788095
 21
4.2618150196
 31
0.0
  0
LINE
  5
118
330
1F
100
AcDbEntity
  8
0
  6
Continuous
 62
     7
370
    15
100
AcDbLine
 10
6.4715408808
 20
4.2587529483
 30
0.0
 11
6.4684788095
 21
4.2618150196
 31
0.0
  0
LINE
  5
119
330
1F
100
AcDbEntity
  8
0
  6
Continuous
 62
     7
370
    15
100
AcDbLine
 10
6.4784837806
 20
4.2518100485
 30
0.0
 11
6.4715408808
 21
4.2587529483
 31
0.0
  0
ELLIPSE
  5
11A
330
1F
100
AcDbEntity
  8
0
  6
Continuous
 62
     7
370
    15
100
AcDbEllipse
 10
6.5282935423
 20
4.2521912759
 30
0.0
 11
0.05000000000000071
 21
0.0
 31
0.0
210
0.0
220
0.0
230
1.0
 40
0.0874886635
 41
3.228859116189667
 42
4.712388980384691
  0
LINE
  5
11B
330
1F
100
AcDbEntity
  8
0
  6
Continuous
 62
     7
370
    15
100
AcDbLine
 10
6.5282935518
 20
4.2478168747
 30
0.0
 11
7.1586640397
 21
4.2478168747
 31
0.0
  0
ELLIPSE
  5
11C
330
1F
100
AcDbEntity
  8
0
  6
Continuous
 62
     7
370
    15
100
AcDbEllipse
 10
7.1586640525
 20
4.2521912759
 30
0.0
 11
0.04999999999999982
 21
0.0
 31
0.0
210
0.0
220
0.0
230
1.0
 40
0.0874886635
 41
4.712388980384691
 42
6.195918844580238
  0
LINE
  5
11D
330
1F
100
AcDbEntity
  8
0
  6
Continuous
 62
     7
370
    15
100
AcDbLine
 10
7.2084737927
 20
4.2518100485
 30
0.0
 11
7.2154166925
 21
4.2587529483
 31
0.0
  0
LINE
  5
11E
330
1F
100
AcDbEntity
  8
0
  6
Continuous
 62
     7
370
    15
100
AcDbLine
 10
7.2184788004
 20
4.2618150196
 30
0.0
 11
7.2154166925
 21
4.2587529483
 31
0.0
  0
LINE
  5
11F
330
1F
100
AcDbEntity
  8
0
  6
Continuous
 62
     7
370
    15
100
AcDbLine
 10
7.4435396472
 20
4.2618150196
 30
0.0
 11
7.2184788004
 21
4.2618150196
 31
0.0
  0
LINE
  5
120
330
1F
100
AcDbEntity
  8
0
  6
Continuous
 62
     7
370
    15
100
AcDbLine
 10
7.4369727482
 20
4.2453626564
 30
0.0
 11
7.4435396472
 21
4.2618150196
 31
0.0
  0
LINE
  5
121
330
1F
100
AcDbEntity
  8
0
  6
Continuous
 62
     7
370
    15
100
AcDbLine
 10
6.2184787575
 20
5.7369101525
 30
0.0
 11
6.2184787575
 21
4.2867199053
 31
0.0
  0
LINE
  5
122
330
1F
100
AcDbEntity
  8
0
  6
Continuous
 62
     7
370
    15
100
AcDbLine
 10
7.2154166925
 20
5.7648771095
 30
0.0
 11
7.2184788004
 21
5.7618150382
 31
0.0
  0
LINE
  5
123
330
1F
100
AcDbEntity
  8
0
  6
Continuous
 62
     7
370
    15
100
AcDbLine
 10
7.2084737927
 20
5.7718200093
 30
0.0
 11
7.2154166925
 21
5.7648771095
 31
0.0
  0
ELLIPSE
  5
124
330
1F
100
AcDbEntity
  8
0
  6
Continuous
 62
     7
370
    15
100
AcDbEllipse
 10
7.1586640525
 20
5.7714387819
 30
0.0
 11
0.04999999999999982
 21
0.0
 31
0.0
210
0.0
220
0.0
230
1.0
 40
0.0874886635
 41
0.087266462599697
 42
1.570796326794914
  0
LINE
  5
125
330
1F
100
AcDbEntity
  8
0
  6
Continuous
 62
     7
370
    15
100
AcDbLine
 10
7.1586640397
 20
5.7758131831
 30
0.0
 11
6.5282935518
 21
5.7758131831
 31
0.0
  0
ELLIPSE
  5
126
330
1F
100
AcDbEntity
  8
0
  6
Continuous
 62
     7
370
    15
100
AcDbEllipse
 10
6.5282935423
 20
5.7714387819
 30
0.0
 11
0.04999999999999982
 21
0.0
 31
0.0
210
0.0
220
0.0
230
1.0
 40
0.0874886635
 41
1.570796326794914
 42
3.054326190990299
  0
LINE
  5
127
330
1F
100
AcDbEntity
  8
0
  6
Continuous
 62
     7
370
    15
100
AcDbLine
 10
6.4784837806
 20
5.7718200093
 30
0.0
 11
6.4715408808
 21
5.7648771095
 31
0.0
  0
LINE
  5
128
330
1F
100
AcDbEntity
  8
0
  6
Continuous
 62
     7
370
    15
100
AcDbLine
 10
6.4684788095
 20
5.7618150382
 30
0.0
 11
6.4715408808
 21
5.7648771095
 31
0.0
  0
LINE
  5
129
330
1F
100
AcDbEntity
  8
0
  6
Continuous
 62
     7
370
    15
100
AcDbLine
 10
6.2433836431
 20
5.7618150382
 30
0.0
 11
6.4684788095
 21
5.7618150382
 31
0.0
  0
LINE
  5
12A
330
1F
100
AcDbEntity
  8
0
  6
Continuous
 62
     7
370
    15
100
AcDbLine
 10
7.4435396472
 20
5.7618150382
 30
0.0
 11
7.4369727482
 21
5.7782674014
 31
0.0
  0
LINE
  5
12B
330
1F
100
AcDbEntity
  8
0
  6
Continuous
 62
     7
370
    15
100
AcDbLine
 10
7.4435396472
 20
5.7618150382
 30
0.0
 11
7.2184788004
 21
5.7618150382
 31
0.0
  0
ELLIPSE
  5
12C
330
1F
100
AcDbEntity
  8
0
  6
Continuous
 62
     7
370
    15
100
AcDbEllipse
 10
5.9351115826
 20
4.6367811474
 30
0.0
 11
-0.0157045459862255
 21
0.0519566622619454
 31
0.0
210
0.0
220
0.0
230
1.0
 40
0.5666341432
 41
4.222352606177157
 42
4.22417661100746
  0
ELLIPSE
  5
12D
330
1F
100
AcDbEntity
  8
0
  6
Continuous
 62
     7
370
    15
100
AcDbEllipse
 10
5.9184178058
 20
4.6200873706
 30
0.0
 11
0.03544151559196429
 21
0.0354415155919634
 31
0.0
210
0.0
220
0.0
230
1.0
 40
0.9975684862
 41
5.50022013619809
 42
7.06615047816114
  0
ELLIPSE
  5
12E
330
1F
100
AcDbEntity
  8
0
  6
Continuous
 62
     7
370
    15
100
AcDbEllipse
 10
5.9351115826
 20
4.6367811474
 30
0.0
 11
0.0519566622619454
 21
-0.01570454598622373
 31
0.0
210
0.0
220
0.0
230
1.0
 40
0.5666341432
 41
2.059008696172109
 42
2.060832701002403
  0
LINE
  5
12F
330
1F
100
AcDbEntity
  8
0
  6
Continuous
 62
     7
370
    15
100
AcDbLine
 10
5.9185092894
 20
4.6701483792
 30
0.0
 11
5.9250306008
 21
4.6766696539
 31
0.0
  0
LINE
  5
130
330
1F
100
AcDbEntity
  8
0
  6
Continuous
 62
     7
370
    15
100
AcDbLine
 10
5.9716298758
 20
4.6233298767
 30
0.0
 11
5.9684787789
 21
4.6201788165
 31
0.0
  0
ELLIPSE
  5
131
330
1F
100
AcDbEntity
  8
0
  6
Continuous
 62
     7
370
    15
100
AcDbEllipse
 10
5.9351115826
 20
5.1701144808
 30
0.0
 11
-0.0157045459862255
 21
0.0519566622619454
 31
0.0
210
0.0
220
0.0
230
1.0
 40
0.5666341432
 41
4.222352606177157
 42
4.22417661100746
  0
ELLIPSE
  5
132
330
1F
100
AcDbEntity
  8
0
  6
Continuous
 62
     7
370
    15
100
AcDbEllipse
 10
5.9184178058
 20
5.153420704
 30
0.0
 11
0.03544151559196251
 21
0.03544151559196429
 31
0.0
210
0.0
220
0.0
230
1.0
 40
0.9975684862
 41
5.500220136198058
 42
7.066150478161095
  0
ELLIPSE
  5
133
330
1F
100
AcDbEntity
  8
0
  6
Continuous
 62
     7
370
    15
100
AcDbEllipse
 10
5.9351115826
 20
5.1701144808
 30
0.0
 11
0.05195666226194539
 21
-0.01570454598622284
 31
0.0
210
0.0
220
0.0
230
1.0
 40
0.5666341432
 41
2.059008696172086
 42
2.060832701002371
  0
LINE
  5
134
330
1F
100
AcDbEntity
  8
0
  6
Continuous
 62
     7
370
    15
100
AcDbLine
 10
5.9185092894
 20
5.2034816914
 30
0.0
 11
5.9250306008
 21
5.2100029661
 31
0.0
  0
LINE
  5
135
330
1F
100
AcDbEntity
  8
0
  6
Continuous
 62
     7
370
    15
100
AcDbLine
 10
5.9716298758
 20
5.1566632256
 30
0.0
 11
5.9684787789
 21
5.1535121562
 31
0.0
  0
ELLIPSE
  5
136
330
1F
100
AcDbEntity
  8
0
  6
Continuous
 62
     7
370
    15
100
AcDbEllipse
 10
5.9351115826
 20
5.7034478141
 30
0.0
 11
-0.0157045459862255
 21
0.0519566622619454
 31
0.0
210
0.0
220
0.0
230
1.0
 40
0.5666341432
 41
4.222352606177161
 42
4.224176611007463
  0
ELLIPSE
  5
137
330
1F
100
AcDbEntity
  8
0
  6
Continuous
 62
     7
370
    15
100
AcDbEllipse
 10
5.9184178058
 20
5.6867540373
 30
0.0
 11
0.03544151559196429
 21
0.0354415155919634
 31
0.0
210
0.0
220
0.0
230
1.0
 40
0.9975684862
 41
5.500220136198102
 42
7.066150478161145
  0
ELLIPSE
  5
138
330
1F
100
AcDbEntity
  8
0
  6
Continuous
 62
     7
370
    15
100
AcDbEllipse
 10
5.9351115826
 20
5.7034478141
 30
0.0
 11
0.05195666226194539
 21
-0.01570454598622284
 31
0.0
210
0.0
220
0.0
230
1.0
 40
0.5666341432
 41
2.059008696172098
 42
2.060832701002383
  0
LINE
  5
139
330
1F
100
AcDbEntity
  8
0
  6
Continuous
 62
     7
370
    15
100
AcDbLine
 10
5.9185092894
 20
5.7368150403
 30
0.0
 11
5.9250306008
 21
5.7433362783
 31
0.0
  0
LINE
  5
13A
330
1F
100
AcDbEntity
  8
0
  6
Continuous
 62
     7
370
    15
100
AcDbLine
 10
5.9716298758
 20
5.6899965745
 30
0.0
 11
5.9684787789
 21
5.6868454776
 31
0.0
  0
ELLIPSE
  5
13B
330
1F
100
AcDbEntity
  8
0
  6
Continuous
 62
     7
370
    15
100
AcDbEllipse
 10
5.9184178058
 20
5.4035426872
 30
0.0
 11
0.03544151559196428
 21
-0.03544151559196163
 31
0.0
210
0.0
220
0.0
230
1.0
 40
0.9975684862
 41
5.500220136198021
 42
7.066150478161108
  0
ELLIPSE
  5
13C
330
1F
100
AcDbEntity
  8
0
  6
Continuous
 62
     7
370
    15
100
AcDbEllipse
 10
5.9351115826
 20
5.3868489104
 30
0.0
 11
0.01570454598622639
 21
0.0519566622619454
 31
0.0
210
0.0
220
0.0
230
1.0
 40
0.5666341432
 41
5.200601349761971
 42
5.202425354592274
  0
LINE
  5
13D
330
1F
100
AcDbEntity
  8
0
  6
Continuous
 62
     7
370
    15
100
AcDbLine
 10
5.9684787789
 20
5.4034512414
 30
0.0
 11
5.9716298758
 21
5.4003001811
 31
0.0
  0
LINE
  5
13E
330
1F
100
AcDbEntity
  8
0
  6
Continuous
 62
     7
370
    15
100
AcDbLine
 10
5.9250306008
 20
5.3469604039
 30
0.0
 11
5.9185092894
 21
5.3534816786
 31
0.0
  0
ELLIPSE
  5
13F
330
1F
100
AcDbEntity
  8
0
  6
Continuous
 62
     7
370
    15
100
AcDbEllipse
 10
5.9351115826
 20
5.3868489104
 30
0.0
 11
0.0519566622619454
 21
0.01570454598622373
 31
0.0
210
0.0
220
0.0
230
1.0
 40
0.5666341432
 41
4.222352606177198
 42
4.224176611007484
  0
ELLIPSE
  5
140
330
1F
100
AcDbEntity
  8
0
  6
Continuous
 62
     7
370
    15
100
AcDbEllipse
 10
5.9184178058
 20
4.8702093538
 30
0.0
 11
-0.0354415155919634
 21
0.03544151559196429
 31
0.0
210
0.0
220
0.0
230
1.0
 40
0.9975684862
 41
2.358627482608265
 42
3.924557824571343
  0
ELLIPSE
  5
141
330
1F
100
AcDbEntity
  8
0
  6
Continuous
 62
     7
370
    15
100
AcDbEllipse
 10
5.9351115826
 20
4.853515577
 30
0.0
 11
0.01570454598622639
 21
0.05195666226194628
 31
0.0
210
0.0
220
0.0
230
1.0
 40
0.5666341432
 41
5.200601349761943
 42
5.202425354592246
  0
LINE
  5
142
330
1F
100
AcDbEntity
  8
0
  6
Continuous
 62
     7
370
    15
100
AcDbLine
 10
5.9684787789
 20
4.8701179016
 30
0.0
 11
5.9716298758
 21
4.8669668322
 31
0.0
  0
LINE
  5
143
330
1F
100
AcDbEntity
  8
0
  6
Continuous
 62
     7
370
    15
100
AcDbLine
 10
5.9250306008
 20
4.8136270917
 30
0.0
 11
5.9185092894
 21
4.8201483664
 31
0.0
  0
ELLIPSE
  5
144
330
1F
100
AcDbEntity
  8
0
  6
Continuous
 62
     7
370
    15
100
AcDbEllipse
 10
5.9351115826
 20
4.853515577
 30
0.0
 11
0.0519566622619454
 21
0.01570454598622373
 31
0.0
210
0.0
220
0.0
230
1.0
 40
0.5666341432
 41
4.222352606177198
 42
4.224176611007493
  0
ELLIPSE
  5
145
330
1F
100
AcDbEntity
  8
0
  6
Continuous
 62
     7
370
    15
100
AcDbEllipse
 10
5.9184178058
 20
4.3368760205
 30
0.0
 11
0.03544151559196429
 21
-0.03544151559196251
 31
0.0
210
0.0
220
0.0
230
1.0
 40
0.9975684862
 41
5.500220136198022
 42
7.066150478161095
  0
ELLIPSE
  5
146
330
1F
100
AcDbEntity
  8
0
  6
Continuous
 62
     7
370
    15
100
AcDbEllipse
 10
5.9351115826
 20
4.3201822437
 30
0.0
 11
0.01570454598622639
 21
0.0519566622619454
 31
0.0
210
0.0
220
0.0
230
1.0
 40
0.5666341432
 41
5.200601349761945
 42
5.202425354592256
  0
LINE
  5
147
330
1F
100
AcDbEntity
  8
0
  6
Continuous
 62
     7
370
    15
100
AcDbLine
 10
5.9684787789
 20
4.3367845802
 30
0.0
 11
5.9716298758
 21
4.3336334833
 31
0.0
  0
LINE
  5
148
330
1F
100
AcDbEntity
  8
0
  6
Continuous
 62
     7
370
    15
100
AcDbLine
 10
5.9250306008
 20
4.2802937795
 30
0.0
 11
5.9185092894
 21
4.2868150175
 31
0.0
  0
ELLIPSE
  5
149
330
1F
100
AcDbEntity
  8
0
  6
Continuous
 62
     7
370
    15
100
AcDbEllipse
 10
5.9351115826
 20
4.3201822437
 30
0.0
 11
0.0519566622619454
 21
0.01570454598622373
 31
0.0
210
0.0
220
0.0
230
1.0
 40
0.5666341432
 41
4.222352606177211
 42
4.224176611007504
  0
LINE
  5
14A
330
1F
100
AcDbEntity
  8
0
  6
Continuous
 62
     7
370
    15
100
AcDbLine
 10
3.6476453627
 20
4.2802937795
 30
0.0
 11
3.6476453627
 21
4.2868150175
 31
0.0
  0
LINE
  5
14B
330
1F
100
AcDbEntity
  8
0
  6
Continuous
 62
     7
370
    15
100
AcDbLine
 10
5.9185092894
 20
4.2868150175
 30
0.0
 11
3.6476453627
 21
4.2868150175
 31
0.0
  0
LINE
  5
14C
330
1F
100
AcDbEntity
  8
0
  6
Continuous
 62
     7
370
    15
100
AcDbLine
 10
3.6476453627
 20
4.6766696539
 30
0.0
 11
3.6476453627
 21
4.6701483792
 31
0.0
  0
LINE
  5
14D
330
1F
100
AcDbEntity
  8
0
  6
Continuous
 62
     7
370
    15
100
AcDbLine
 10
5.9185092894
 20
4.6701483792
 30
0.0
 11
3.6476453627
 21
4.6701483792
 31
0.0
  0
LINE
  5
14E
330
1F
100
AcDbEntity
  8
0
  6
Continuous
 62
     7
370
    15
100
AcDbLine
 10
3.6476453627
 20
4.8136270917
 30
0.0
 11
3.6476453627
 21
4.8201483664
 31
0.0
  0
LINE
  5
14F
330
1F
100
AcDbEntity
  8
0
  6
Continuous
 62
     7
370
    15
100
AcDbLine
 10
5.9185092894
 20
4.8201483664
 30
0.0
 11
3.6476453627
 21
4.8201483664
 31
0.0
  0
LINE
  5
150
330
1F
100
AcDbEntity
  8
0
  6
Continuous
 62
     7
370
    15
100
AcDbLine
 10
3.6476453627
 20
5.2100029661
 30
0.0
 11
3.6476453627
 21
5.2034816914
 31
0.0
  0
LINE
  5
151
330
1F
100
AcDbEntity
  8
0
  6
Continuous
 62
     7
370
    15
100
AcDbLine
 10
5.9185092894
 20
5.2034816914
 30
0.0
 11
3.6476453627
 21
5.2034816914
 31
0.0
  0
LINE
  5
152
330
1F
100
AcDbEntity
  8
0
  6
Continuous
 62
     7
370
    15
100
AcDbLine
 10
3.6476453627
 20
5.3469604039
 30
0.0
 11
3.6476453627
 21
5.3534816786
 31
0.0
  0
LINE
  5
153
330
1F
100
AcDbEntity
  8
0
  6
Continuous
 62
     7
370
    15
100
AcDbLine
 10
5.9185092894
 20
5.3534816786
 30
0.0
 11
3.6476453627
 21
5.3534816786
 31
0.0
  0
LINE
  5
154
330
1F
100
AcDbEntity
  8
0
  6
Continuous
 62
     7
370
    15
100
AcDbLine
 10
3.6476453627
 20
5.7433362783
 30
0.0
 11
3.6476453627
 21
5.7368150403
 31
0.0
  0
LINE
  5
155
330
1F
100
AcDbEntity
  8
0
  6
Continuous
 62
     7
370
    15
100
AcDbLine
 10
5.9185092894
 20
5.7368150403
 30
0.0
 11
3.6476453627
 21
5.7368150403
 31
0.0
  0
LINE
  5
156
330
1F
100
AcDbEntity
  8
0
  6
Continuous
 62
     7
370
    15
100
AcDbLine
 10
7.4684787974
 20
4.236795882
 30
0.0
 11
7.4619575193
 21
4.2204577707
 31
0.0
  0
ELLIPSE
  5
157
330
1F
100
AcDbEntity
  8
0
  6
Continuous
 62
     7
370
    15
100
AcDbEllipse
 10
7.4434635588
 20
4.236719533
 30
0.0
 11
-0.009308703617628034
 21
-0.02332153759835176
 31
0.0
210
0.0
220
0.0
230
1.0
 40
0.9955924488
 41
1.952089755465295
 42
3.519844386013383
  0
LINE
  5
158
330
1F
100
AcDbEntity
  8
0
  6
Continuous
 62
     7
370
    15
100
AcDbLine
 10
7.4619575193
 20
5.8031722871
 30
0.0
 11
7.4684787974
 21
5.7868341758
 31
0.0
  0
ELLIPSE
  5
159
330
1F
100
AcDbEntity
  8
0
  6
Continuous
 62
     7
370
    15
100
AcDbEllipse
 10
7.4434635588
 20
5.7869105248
 30
0.0
 11
0.009308703617627147
 21
-0.02332153759835088
 31
0.0
210
0.0
220
0.0
230
1.0
 40
0.9955924488
 41
5.90493357475606
 42
7.472688205304088
  0
LINE
  5
15A
330
1F
100
AcDbEntity
  8
0
  6
Continuous
 62
     7
370
    15
100
AcDbLine
 10
7.4619575193
 20
4.1933058311
 30
0.0
 11
7.4684787974
 21
4.1867845931
 31
0.0
  0
ELLIPSE
  5
15B
330
1F
100
AcDbEntity
  8
0
  6
Continuous
 62
     7
370
    15
100
AcDbEllipse
 10
7.4184178058
 20
4.1868760205
 30
0.0
 11
0.03544151559196251
 21
-0.03544151559196429
 31
0.0
210
0.0
220
0.0
230
1.0
 40
0.9975684862
 41
5.500220136198073
 42
7.066150478161147
  0
ELLIPSE
  5
15C
330
1F
100
AcDbEntity
  8
0
  6
Continuous
 62
     7
370
    15
100
AcDbEllipse
 10
7.4351115826
 20
4.1701822437
 30
0.0
 11
0.05195666226194629
 21
0.0157045459862255
 31
0.0
210
0.0
220
0.0
230
1.0
 40
0.5666341432
 41
4.22235260617715
 42
4.224176611007417
  0
LINE
  5
15D
330
1F
100
AcDbEntity
  8
0
  6
Continuous
 62
     7
370
    15
100
AcDbLine
 10
7.4185092576
 20
4.1368150303
 30
0.0
 11
7.4119879783
 21
4.1433363416
 31
0.0
  0
LINE
  5
15E
330
1F
100
AcDbEntity
  8
0
  6
Continuous
 62
     7
370
    15
100
AcDbLine
 10
7.4119879783
 20
5.8802937162
 30
0.0
 11
7.4185092576
 21
5.8868150275
 31
0.0
  0
ELLIPSE
  5
15F
330
1F
100
AcDbEntity
  8
0
  6
Continuous
 62
     7
370
    15
100
AcDbEllipse
 10
7.4351115826
 20
5.8534478141
 30
0.0
 11
0.05195666226194628
 21
-0.01570454598622462
 31
0.0
210
0.0
220
0.0
230
1.0
 40
0.5666341432
 41
2.059008696172157
 42
2.060832701002434
  0
ELLIPSE
  5
160
330
1F
100
AcDbEntity
  8
0
  6
Continuous
 62
     7
370
    15
100
AcDbEllipse
 10
7.4184178058
 20
5.8367540373
 30
0.0
 11
0.03544151559196251
 21
0.03544151559196429
 31
0.0
210
0.0
220
0.0
230
1.0
 40
0.9975684862
 41
5.500220136198058
 42
7.066150478161113
  0
LINE
  5
161
330
1F
100
AcDbEntity
  8
0
  6
Continuous
 62
     7
370
    15
100
AcDbLine
 10
7.4684787974
 20
5.8368454647
 30
0.0
 11
7.4619575193
 21
5.8303242267
 31
0.0
  0
ARC
  5
162
330
1F
100
AcDbEntity
  8
0
  6
Continuous
 62
     7
370
    15
100
AcDbCircle
 10
3.6476454641
 20
4.5909816956
 30
0.0
 40
0.4541666666666666
100
AcDbArc
 50
180.0
 51
270.0
  0
LINE
  5
163
330
1F
100
AcDbEntity
  8
0
  6
Continuous
 62
     7
370
    15
100
AcDbLine
 10
3.2000001072
 20
4.5909817071
 30
0.0
 11
3.1934787959
 21
4.5909817071
 31
0.0
  0
LINE
  5
164
330
1F
100
AcDbEntity
  8
0
  6
Continuous
 62
     7
370
    15
100
AcDbLine
 10
3.6476453627
 20
4.1433363416
 30
0.0
 11
3.6476453627
 21
4.1368150303
 31
0.0
  0
LINE
  5
165
330
1F
100
AcDbEntity
  8
0
  6
Continuous
 62
     7
370
    15
100
AcDbLine
 10
7.4185092576
 20
4.1368150303
 30
0.0
 11
3.6476453627
 21
4.1368150303
 31
0.0
  0
ARC
  5
166
330
1F
100
AcDbEntity
  8
0
  6
Continuous
 62
     7
370
    15
100
AcDbCircle
 10
3.6476454641
 20
4.5909816956
 30
0.0
 40
0.3041666666666663
100
AcDbArc
 50
180.0
 51
270.0
  0
LINE
  5
167
330
1F
100
AcDbEntity
  8
0
  6
Continuous
 62
     7
370
    15
100
AcDbLine
 10
3.3369576184
 20
4.5909817071
 30
0.0
 11
3.3434789298
 21
4.5909817071
 31
0.0
  0
LINE
  5
168
330
1F
100
AcDbEntity
  8
0
  6
Continuous
 62
     7
370
    15
100
AcDbLine
 10
3.6476453627
 20
4.3683363224
 30
0.0
 11
3.6476453627
 21
4.3618150111
 31
0.0
  0
ARC
  5
169
330
1F
100
AcDbEntity
  8
0
  6
Continuous
 62
     7
370
    15
100
AcDbCircle
 10
3.6476454641
 20
4.5909816956
 30
0.0
 40
0.2291666666666661
100
AcDbArc
 50
171.0026167186
 51
270.0
  0
LINE
  5
16A
330
1F
100
AcDbEntity
  8
0
  6
Continuous
 62
     7
370
    15
100
AcDbLine
 10
3.4281084321
 20
4.6280546888
 30
0.0
 11
3.4212984841
 21
4.6268209064
 31
0.0
  0
ARC
  5
16B
330
1F
100
AcDbEntity
  8
0
  6
Continuous
 62
     7
370
    15
100
AcDbCircle
 10
3.6476454641
 20
4.4368150289
 30
0.0
 40
0.0750000000000002
100
AcDbArc
 50
270.0
 51
90.0
  0
LINE
  5
16C
330
1F
100
AcDbEntity
  8
0
  6
Continuous
 62
     7
370
    15
100
AcDbLine
 10
3.6476453627
 20
4.5052937603
 30
0.0
 11
3.6476453627
 21
4.5118150349
 31
0.0
  0
ARC
  5
16D
330
1F
100
AcDbEntity
  8
0
  6
Continuous
 62
     7
370
    15
100
AcDbCircle
 10
3.6476454641
 20
4.5909816956
 30
0.0
 40
0.0791666666666666
100
AcDbArc
 50
90.0
 51
270.0
  0
LINE
  5
16E
330
1F
100
AcDbEntity
  8
0
  6
Continuous
 62
     7
370
    15
100
AcDbLine
 10
3.1934787959
 20
4.5909817071
 30
0.0
 11
3.1934787959
 21
4.6701483792
 31
0.0
  0
LINE
  5
16F
330
1F
100
AcDbEntity
  8
0
  6
Continuous
 62
     7
370
    15
100
AcDbLine
 10
3.2000001072
 20
4.6701483792
 30
0.0
 11
3.1934787959
 21
4.6701483792
 31
0.0
  0
LINE
  5
170
330
1F
100
AcDbEntity
  8
0
  6
Continuous
 62
     7
370
    15
100
AcDbLine
 10
3.3434789298
 20
4.5909817071
 30
0.0
 11
3.3434789298
 21
4.6701483792
 31
0.0
  0
LINE
  5
171
330
1F
100
AcDbEntity
  8
0
  6
Continuous
 62
     7
370
    15
100
AcDbLine
 10
3.3369576184
 20
4.6701483792
 30
0.0
 11
3.3434789298
 21
4.6701483792
 31
0.0
  0
LINE
  5
172
330
1F
100
AcDbEntity
  8
0
  6
Continuous
 62
     7
370
    15
100
AcDbLine
 10
3.4212984841
 20
4.6268209064
 30
0.0
 11
3.4213137373
 21
4.6269167886
 31
0.0
  0
SPLINE
  5
173
330
1F
100
AcDbEntity
  8
0
  6
Continuous
 62
     7
370
    15
100
AcDbSpline
210
0.0
220
0.0
230
1.0
 70
     8
 71
     3
 72
    11
 73
     7
 74
     0
 42
0.000000001
 43
0.00000001
 40
0.0
 40
0.0
 40
0.0
 40
0.0
 40
0.0443994690852723
 40
0.3628347571650966
 40
0.6814212061552855
 40
1.0
 40
1.0
 40
1.0
 40
1.0
 10
3.421313737264926
 20
4.626916788612383
 30
0.0
 10
3.421644419912453
 20
4.629230065328906
 30
0.0
 10
3.424346775606931
 20
4.648134282270856
 30
0.0
 10
3.42191608522235
 20
4.684574156396409
 30
0.0
 10
3.402820350537504
 20
4.732591753503891
 30
0.0
 10
3.378435805927831
 20
4.756085002422756
 30
0.0
 10
3.366243680105592
 20
4.767831485753777
 30
0.0
  0
LINE
  5
174
330
1F
100
AcDbEntity
  8
0
  6
Continuous
 62
     7
370
    15
100
AcDbLine
 10
3.3662436801
 20
4.7678314858
 30
0.0
 11
3.3661492279
 21
4.7679063032
 31
0.0
  0
LWPOLYLINE
  5
175
330
1F
100
AcDbEntity
  8
0
  6
Continuous
 62
     7
370
    15
100
AcDbPolyline
 90
        3
 70
   128
 43
0.0
 10
3.3661492279
 20
4.7679063032
 10
3.3694750028
 20
4.7696710128
 10
3.3724505417
 20
4.7712511262
  0
ARC
  5
176
330
1F
100
AcDbEntity
  8
0
  6
Continuous
 62
     7
370
    15
100
AcDbCircle
 10
3.2684787974
 20
4.6701483622
 30
0.0
 40
0.0750000000000006
100
AcDbArc
 50
0.0
 51
180.0
  0
LINE
  5
177
330
1F
100
AcDbEntity
  8
0
  6
Continuous
 62
     7
370
    15
100
AcDbLine
 10
3.2000001072
 20
5.1243150285
 30
0.0
 11
3.1934787959
 21
5.1243150285
 31
0.0
  0
ARC
  5
178
330
1F
100
AcDbEntity
  8
0
  6
Continuous
 62
     7
370
    15
100
AcDbCircle
 10
3.6476454641
 20
5.1243150289
 30
0.0
 40
0.4541666666666666
100
AcDbArc
 50
180.0
 51
231.6978542145
  0
ARC
  5
179
330
1F
100
AcDbEntity
  8
0
  6
Continuous
 62
     7
370
    15
100
AcDbCircle
 10
3.6476454641
 20
5.1243150289
 30
0.0
 40
0.3041666666666676
100
AcDbArc
 50
180.0
 51
270.0
  0
LINE
  5
17A
330
1F
100
AcDbEntity
  8
0
  6
Continuous
 62
     7
370
    15
100
AcDbLine
 10
3.3369576184
 20
5.1243150285
 30
0.0
 11
3.3434789298
 21
5.1243150285
 31
0.0
  0
LINE
  5
17B
330
1F
100
AcDbEntity
  8
0
  6
Continuous
 62
     7
370
    15
100
AcDbLine
 10
3.6476453627
 20
4.9016696438
 30
0.0
 11
3.6476453627
 21
4.89514836
 31
0.0
  0
ARC
  5
17C
330
1F
100
AcDbEntity
  8
0
  6
Continuous
 62
     7
370
    15
100
AcDbCircle
 10
3.6476454641
 20
5.1243150289
 30
0.0
 40
0.2291666666666661
100
AcDbArc
 50
171.0026167186
 51
270.0
  0
LINE
  5
17D
330
1F
100
AcDbEntity
  8
0
  6
Continuous
 62
     7
370
    15
100
AcDbLine
 10
3.4281084321
 20
5.1613880377
 30
0.0
 11
3.4212984841
 21
5.1601542553
 31
0.0
  0
ARC
  5
17E
330
1F
100
AcDbEntity
  8
0
  6
Continuous
 62
     7
370
    15
100
AcDbCircle
 10
3.6476454641
 20
4.9701483622
 30
0.0
 40
0.0750000000000011
100
AcDbArc
 50
270.0
 51
90.0
  0
LINE
  5
17F
330
1F
100
AcDbEntity
  8
0
  6
Continuous
 62
     7
370
    15
100
AcDbLine
 10
3.6476453627
 20
5.038627084
 30
0.0
 11
3.6476453627
 21
5.0451483632
 31
0.0
  0
ARC
  5
180
330
1F
100
AcDbEntity
  8
0
  6
Continuous
 62
     7
370
    15
100
AcDbCircle
 10
3.6476454641
 20
5.1243150289
 30
0.0
 40
0.0791666666666666
100
AcDbArc
 50
90.0
 51
270.0
  0
LINE
  5
181
330
1F
100
AcDbEntity
  8
0
  6
Continuous
 62
     7
370
    15
100
AcDbLine
 10
3.1934787959
 20
5.1243150285
 30
0.0
 11
3.1934787959
 21
5.2034816914
 31
0.0
  0
LINE
  5
182
330
1F
100
AcDbEntity
  8
0
  6
Continuous
 62
     7
370
    15
100
AcDbLine
 10
3.2000001072
 20
5.2034816914
 30
0.0
 11
3.1934787959
 21
5.2034816914
 31
0.0
  0
LINE
  5
183
330
1F
100
AcDbEntity
  8
0
  6
Continuous
 62
     7
370
    15
100
AcDbLine
 10
3.3434789298
 20
5.1243150285
 30
0.0
 11
3.3434789298
 21
5.2034816914
 31
0.0
  0
LINE
  5
184
330
1F
100
AcDbEntity
  8
0
  6
Continuous
 62
     7
370
    15
100
AcDbLine
 10
3.3369576184
 20
5.2034816914
 30
0.0
 11
3.3434789298
 21
5.2034816914
 31
0.0
  0
LINE
  5
185
330
1F
100
AcDbEntity
  8
0
  6
Continuous
 62
     7
370
    15
100
AcDbLine
 10
3.4212984841
 20
5.1601542553
 30
0.0
 11
3.4213137373
 21
5.16025011
 31
0.0
  0
SPLINE
  5
186
330
1F
100
AcDbEntity
  8
0
  6
Continuous
 62
     7
370
    15
100
AcDbSpline
210
0.0
220
0.0
230
1.0
 70
     8
 71
     3
 72
    11
 73
     7
 74
     0
 42
0.000000001
 43
0.00000001
 40
0.0
 40
0.0
 40
0.0
 40
0.0
 40
0.0443995240713839
 40
0.3628347938281561
 40
0.6814212244865948
 40
0.9999999999999999
 40
0.9999999999999999
 40
0.9999999999999999
 40
0.9999999999999999
 10
3.421313737264926
 20
5.160250110000344
 30
0.0
 10
3.421644419932674
 20
5.162563389770145
 30
0.0
 10
3.424346772718744
 20
5.181467610162087
 30
0.0
 10
3.421916086518724
 20
5.217907486777525
 30
0.0
 10
3.402820350213356
 20
5.26592508410177
 30
0.0
 10
3.378435805819785
 20
5.28941833299173
 30
0.0
 10
3.366243680105592
 20
5.301164816308298
 30
0.0
  0
LINE
  5
187
330
1F
100
AcDbEntity
  8
0
  6
Continuous
 62
     7
370
    15
100
AcDbLine
 10
3.3662436801
 20
5.3011648163
 30
0.0
 11
3.3661492279
 21
5.3012396338
 31
0.0
  0
LWPOLYLINE
  5
188
330
1F
100
AcDbEntity
  8
0
  6
Continuous
 62
     7
370
    15
100
AcDbPolyline
 90
        3
 70
   128
 43
0.0
 10
3.3661492279
 20
5.3012396338
 10
3.3694750028
 20
5.3030043617
 10
3.3724505417
 20
5.3045844751
  0
ARC
  5
189
330
1F
100
AcDbEntity
  8
0
  6
Continuous
 62
     7
370
    15
100
AcDbCircle
 10
3.2684787974
 20
5.2034816956
 30
0.0
 40
0.0749999999999997
100
AcDbArc
 50
0.0
 51
180.0
  0
LINE
  5
18A
330
1F
100
AcDbEntity
  8
0
  6
Continuous
 62
     7
370
    15
100
AcDbLine
 10
3.2000001072
 20
5.6576483682
 30
0.0
 11
3.1934787959
 21
5.6576483682
 31
0.0
  0
ARC
  5
18B
330
1F
100
AcDbEntity
  8
0
  6
Continuous
 62
     7
370
    15
100
AcDbCircle
 10
3.6476454641
 20
5.6576483622
 30
0.0
 40
0.4541666666666666
100
AcDbArc
 50
180.0
 51
231.6978542145
  0
ARC
  5
18C
330
1F
100
AcDbEntity
  8
0
  6
Continuous
 62
     7
370
    15
100
AcDbCircle
 10
3.6476454641
 20
5.6576483622
 30
0.0
 40
0.3041666666666663
100
AcDbArc
 50
180.0
 51
270.0
  0
LINE
  5
18D
330
1F
100
AcDbEntity
  8
0
  6
Continuous
 62
     7
370
    15
100
AcDbLine
 10
3.3369576184
 20
5.6576483682
 30
0.0
 11
3.3434789298
 21
5.6576483682
 31
0.0
  0
ARC
  5
18E
330
1F
100
AcDbEntity
  8
0
  6
Continuous
 62
     7
370
    15
100
AcDbCircle
 10
3.6476454641
 20
5.6576483622
 30
0.0
 40
0.229166666666667
100
AcDbArc
 50
90.0
 51
270.0
  0
LINE
  5
18F
330
1F
100
AcDbEntity
  8
0
  6
Continuous
 62
     7
370
    15
100
AcDbLine
 10
3.6476453627
 20
5.8802937162
 30
0.0
 11
3.6476453627
 21
5.8868150275
 31
0.0
  0
LINE
  5
190
330
1F
100
AcDbEntity
  8
0
  6
Continuous
 62
     7
370
    15
100
AcDbLine
 10
3.6476453627
 20
5.4350029835
 30
0.0
 11
3.6476453627
 21
5.4284817089
 31
0.0
  0
ARC
  5
191
330
1F
100
AcDbEntity
  8
0
  6
Continuous
 62
     7
370
    15
100
AcDbCircle
 10
3.6476454641
 20
5.5034816956
 30
0.0
 40
0.0750000000000011
100
AcDbArc
 50
270.0
 51
90.0
  0
LINE
  5
192
330
1F
100
AcDbEntity
  8
0
  6
Continuous
 62
     7
370
    15
100
AcDbLine
 10
3.6476453627
 20
5.5719604214
 30
0.0
 11
3.6476453627
 21
5.5784816961
 31
0.0
  0
ARC
  5
193
330
1F
100
AcDbEntity
  8
0
  6
Continuous
 62
     7
370
    15
100
AcDbCircle
 10
3.6476454641
 20
5.6576483622
 30
0.0
 40
0.0791666666666666
100
AcDbArc
 50
90.0
 51
270.0
  0
LINE
  5
194
330
1F
100
AcDbEntity
  8
0
  6
Continuous
 62
     7
370
    15
100
AcDbLine
 10
3.1934787959
 20
5.6576483682
 30
0.0
 11
3.1934787959
 21
5.7368150403
 31
0.0
  0
LINE
  5
195
330
1F
100
AcDbEntity
  8
0
  6
Continuous
 62
     7
370
    15
100
AcDbLine
 10
3.2000001072
 20
5.7368150403
 30
0.0
 11
3.1934787959
 21
5.7368150403
 31
0.0
  0
LINE
  5
196
330
1F
100
AcDbEntity
  8
0
  6
Continuous
 62
     7
370
    15
100
AcDbLine
 10
3.3434789298
 20
5.6576483682
 30
0.0
 11
3.3434789298
 21
5.7368150403
 31
0.0
  0
LINE
  5
197
330
1F
100
AcDbEntity
  8
0
  6
Continuous
 62
     7
370
    15
100
AcDbLine
 10
3.3369576184
 20
5.7368150403
 30
0.0
 11
3.3434789298
 21
5.7368150403
 31
0.0
  0
ARC
  5
198
330
1F
100
AcDbEntity
  8
0
  6
Continuous
 62
     7
370
    15
100
AcDbCircle
 10
3.2684787974
 20
5.7368150289
 30
0.0
 40
0.0750000000000006
100
AcDbArc
 50
0.0
 51
180.0
  0
LINE
  5
199
330
1F
100
AcDbEntity
  8
0
  6
Continuous
 62
     7
370
    15
100
AcDbLine
 10
7.4185092576
 20
5.8868150275
 30
0.0
 11
3.6476453627
 21
5.8868150275
 31
0.0
  0
LINE
  5
19A
330
1F
100
AcDbEntity
  8
0
  6
Continuous
 62
     7
370
    15
100
AcDbLine
 10
7.1586640397
 20
4.2478168747
 30
0.0
 11
7.1586640397
 21
4.55466064
 31
0.0
  0
LINE
  5
19B
330
1F
100
AcDbEntity
  8
0
  6
Continuous
 62
     7
370
    15
100
AcDbLine
 10
7.1586640397
 20
4.55466064
 30
0.0
 11
7.2084737927
 21
4.55466064
 31
0.0
  0
LINE
  5
19C
330
1F
100
AcDbEntity
  8
0
  6
Continuous
 62
     7
370
    15
100
AcDbLine
 10
7.2084737927
 20
4.55466064
 30
0.0
 11
7.2084737927
 21
4.2518100485
 31
0.0
  0
LINE
  5
19D
330
1F
100
AcDbEntity
  8
0
  6
Continuous
 62
     7
370
    15
100
AcDbLine
 10
6.5282935518
 20
4.55466064
 30
0.0
 11
6.5282935518
 21
4.2478168747
 31
0.0
  0
LINE
  5
19E
330
1F
100
AcDbEntity
  8
0
  6
Continuous
 62
     7
370
    15
100
AcDbLine
 10
7.1586640397
 20
4.55466064
 30
0.0
 11
6.5282935518
 21
4.55466064
 31
0.0
  0
LINE
  5
19F
330
1F
100
AcDbEntity
  8
0
  6
Continuous
 62
     7
370
    15
100
AcDbLine
 10
6.4784837806
 20
4.2518100485
 30
0.0
 11
6.4784837806
 21
4.55466064
 31
0.0
  0
LINE
  5
1A0
330
1F
100
AcDbEntity
  8
0
  6
Continuous
 62
     7
370
    15
100
AcDbLine
 10
6.4784837806
 20
4.55466064
 30
0.0
 11
6.5282935518
 21
4.55466064
 31
0.0
  0
ELLIPSE
  5
1A1
330
1F
100
AcDbEntity
  8
0
  6
Continuous
 62
     7
370
    15
100
AcDbEllipse
 10
7.1980339511
 20
4.5546606405
 30
0.0
 11
0.0
 21
0.5
 31
0.0
210
0.0
220
0.0
230
1.0
 40
0.0787397972
 41
1.370461484471779
 42
1.570796326794897
  0
ELLIPSE
  5
1A2
330
1F
100
AcDbEntity
  8
0
  6
Continuous
 62
     7
370
    15
100
AcDbEllipse
 10
6.4889236437
 20
4.5546606405
 30
0.0
 11
0.0
 21
0.5
 31
0.0
210
0.0
220
0.0
230
1.0
 40
0.0787397972
 41
4.712388980384691
 42
4.912723822707815
  0
LINE
  5
1A3
330
1F
100
AcDbEntity
  8
0
  6
Continuous
 62
     7
370
    15
100
AcDbLine
 10
6.5275061809
 20
4.6541593672
 30
0.0
 11
7.1594514473
 21
4.6541593672
 31
0.0
  0
ARC
  5
1A4
330
1F
100
AcDbEntity
  8
0
  6
Continuous
 62
     7
370
    15
100
AcDbCircle
 10
7.1686307639
 20
4.570461181
 30
0.0
 40
0.084200036991488
100
AcDbArc
 50
61.148161355
 51
96.2587086197
  0
ELLIPSE
  5
1A5
330
1F
100
AcDbEntity
  8
0
  6
Continuous
 62
     7
370
    15
100
AcDbEllipse
 10
7.247843686
 20
4.5546606405
 30
0.0
 11
0.0
 21
0.4500000000000002
 31
0.0
210
0.0
220
0.0
230
1.0
 40
0.0874886635
 41
1.370461484471776
 42
1.570796326794897
  0
ELLIPSE
  5
1A6
330
1F
100
AcDbEntity
  8
0
  6
Continuous
 62
     7
370
    15
100
AcDbEllipse
 10
6.4391139088
 20
4.5546606405
 30
0.0
 11
0.0
 21
0.4500000000000002
 31
0.0
210
0.0
220
0.0
230
1.0
 40
0.0874886635
 41
4.712388980384691
 42
4.912723822707814
  0
ARC
  5
1A7
330
1F
100
AcDbEntity
  8
0
  6
Continuous
 62
     7
370
    15
100
AcDbCircle
 10
6.5183268544
 20
4.5704610809
 30
0.0
 40
0.0842001376435861
100
AcDbArc
 50
83.7412921151
 51
118.8518217064
  0
ELLIPSE
  5
1A8
330
1F
100
AcDbEntity
  8
0
  6
Continuous
 62
     7
370
    15
100
AcDbEllipse
 10
6.4391139088
 20
5.4689694173
 30
0.0
 11
0.0
 21
0.4499999999999993
 31
0.0
210
0.0
220
0.0
230
1.0
 40
0.0874886635
 41
4.512054138061584
 42
4.712388980384691
  0
LINE
  5
1A9
330
1F
100
AcDbEntity
  8
0
  6
Continuous
 62
     7
370
    15
100
AcDbLine
 10
6.4784837806
 20
5.4689694178
 30
0.0
 11
6.5282935518
 21
5.4689694178
 31
0.0
  0
ELLIPSE
  5
1AA
330
1F
100
AcDbEntity
  8
0
  6
Continuous
 62
     7
370
    15
100
AcDbEllipse
 10
6.4889236437
 20
5.4689694173
 30
0.0
 11
0.0
 21
0.4999999999999991
 31
0.0
210
0.0
220
0.0
230
1.0
 40
0.0787397972
 41
4.512054138061579
 42
4.712388980384691
  0
ARC
  5
1AB
330
1F
100
AcDbEntity
  8
0
  6
Continuous
 62
     7
370
    15
100
AcDbCircle
 10
6.5183268544
 20
5.453168977
 30
0.0
 40
0.084200137643587
100
AcDbArc
 50
241.1481782936
 51
276.2587078849
  0
ELLIPSE
  5
1AC
330
1F
100
AcDbEntity
  8
0
  6
Continuous
 62
     7
370
    15
100
AcDbEllipse
 10
7.1980339511
 20
5.4689694173
 30
0.0
 11
0.0
 21
0.4999999999999991
 31
0.0
210
0.0
220
0.0
230
1.0
 40
0.0787397972
 41
1.570796326794897
 42
1.771131169118015
  0
LINE
  5
1AD
330
1F
100
AcDbEntity
  8
0
  6
Continuous
 62
     7
370
    15
100
AcDbLine
 10
7.1594514473
 20
5.3694706906
 30
0.0
 11
6.5275061809
 21
5.3694706906
 31
0.0
  0
LINE
  5
1AE
330
1F
100
AcDbEntity
  8
0
  6
Continuous
 62
     7
370
    15
100
AcDbLine
 10
6.5282935518
 20
5.4689694178
 30
0.0
 11
7.1586640397
 21
5.4689694178
 31
0.0
  0
LINE
  5
1AF
330
1F
100
AcDbEntity
  8
0
  6
Continuous
 62
     7
370
    15
100
AcDbLine
 10
7.1586640397
 20
5.4689694178
 30
0.0
 11
7.2084737927
 21
5.4689694178
 31
0.0
  0
ELLIPSE
  5
1B0
330
1F
100
AcDbEntity
  8
0
  6
Continuous
 62
     7
370
    15
100
AcDbEllipse
 10
7.247843686
 20
5.4689694173
 30
0.0
 11
0.0
 21
0.4499999999999993
 31
0.0
210
0.0
220
0.0
230
1.0
 40
0.0874886635
 41
1.570796326794897
 42
1.771131169118018
  0
ARC
  5
1B1
330
1F
100
AcDbEntity
  8
0
  6
Continuous
 62
     7
370
    15
100
AcDbCircle
 10
7.1686307639
 20
5.4531688768
 30
0.0
 40
0.0842000369914887
100
AcDbArc
 50
263.7412913803
 51
298.851838645
  0
LINE
  5
1B2
330
1F
100
AcDbEntity
  8
0
  6
Continuous
 62
     7
370
    15
100
AcDbLine
 10
6.5282935518
 20
5.7758131831
 30
0.0
 11
6.5282935518
 21
5.4689694178
 31
0.0
  0
LINE
  5
1B3
330
1F
100
AcDbEntity
  8
0
  6
Continuous
 62
     7
370
    15
100
AcDbLine
 10
6.4784837806
 20
5.4689694178
 30
0.0
 11
6.4784837806
 21
5.7718200093
 31
0.0
  0
LINE
  5
1B4
330
1F
100
AcDbEntity
  8
0
  6
Continuous
 62
     7
370
    15
100
AcDbLine
 10
7.1586640397
 20
5.4689694178
 30
0.0
 11
7.1586640397
 21
5.7758131831
 31
0.0
  0
LINE
  5
1B5
330
1F
100
AcDbEntity
  8
0
  6
Continuous
 62
     7
370
    15
100
AcDbLine
 10
7.2084737927
 20
5.7718200093
 30
0.0
 11
7.2084737927
 21
5.4689694178
 31
0.0
  0
ELLIPSE
  5
1B6
330
1F
100
AcDbEntity
  8
0
  6
Continuous
 62
     7
370
    15
100
AcDbEllipse
 10
6.5034180765
 20
4.703908756
 30
0.0
 11
0.0
 21
0.2999999999999998
 31
0.0
210
0.0
220
0.0
230
1.0
 40
0.0874886635
 41
1.570796326794897
 42
1.771131169118013
  0
LINE
  5
1B7
330
1F
100
AcDbEntity
  8
0
  6
Continuous
 62
     7
370
    15
100
AcDbLine
 10
6.4771714957
 20
4.7039087492
 30
0.0
 11
6.5269811937
 21
4.7039087492
 31
0.0
  0
ELLIPSE
  5
1B8
330
1F
100
AcDbEntity
  8
0
  6
Continuous
 62
     7
370
    15
100
AcDbEllipse
 10
6.5532278114
 20
4.703908756
 30
0.0
 11
0.0
 21
0.25
 31
0.0
210
0.0
220
0.0
230
1.0
 40
0.1049863962
 41
1.570796326794897
 42
1.771131169118017
  0
ELLIPSE
  5
1B9
330
1F
100
AcDbEntity
  8
0
  6
Continuous
 62
     7
370
    15
100
AcDbEllipse
 10
7.1337297834
 20
4.703908756
 30
0.0
 11
0.0
 21
0.25
 31
0.0
210
0.0
220
0.0
230
1.0
 40
0.1049863962
 41
4.512054138061569
 42
4.712388980384691
  0
LINE
  5
1BA
330
1F
100
AcDbEntity
  8
0
  6
Continuous
 62
     7
370
    15
100
AcDbLine
 10
7.1599763979
 20
4.7039087492
 30
0.0
 11
7.2097861142
 21
4.7039087492
 31
0.0
  0
ELLIPSE
  5
1BB
330
1F
100
AcDbEntity
  8
0
  6
Continuous
 62
     7
370
    15
100
AcDbEllipse
 10
7.1835395183
 20
4.703908756
 30
0.0
 11
0.0
 21
0.2999999999999998
 31
0.0
210
0.0
220
0.0
230
1.0
 40
0.0874886635
 41
4.512054138061575
 42
4.712388980384691
  0
ELLIPSE
  5
1BC
330
1F
100
AcDbEntity
  8
0
  6
Continuous
 62
     7
370
    15
100
AcDbEllipse
 10
6.5034180765
 20
5.3197213018
 30
0.0
 11
0.0
 21
0.3000000000000007
 31
0.0
210
0.0
220
0.0
230
1.0
 40
0.0874886635
 41
1.370461484471774
 42
1.570796326794897
  0
ELLIPSE
  5
1BD
330
1F
100
AcDbEntity
  8
0
  6
Continuous
 62
     7
370
    15
100
AcDbEllipse
 10
6.5532278114
 20
5.3197213018
 30
0.0
 11
0.0
 21
0.25
 31
0.0
210
0.0
220
0.0
230
1.0
 40
0.1049863962
 41
1.370461484471776
 42
1.570796326794897
  0
LINE
  5
1BE
330
1F
100
AcDbEntity
  8
0
  6
Continuous
 62
     7
370
    15
100
AcDbLine
 10
6.4771714957
 20
5.3197213086
 30
0.0
 11
6.5269811937
 21
5.3197213086
 31
0.0
  0
ELLIPSE
  5
1BF
330
1F
100
AcDbEntity
  8
0
  6
Continuous
 62
     7
370
    15
100
AcDbEllipse
 10
7.1337297834
 20
5.3197213018
 30
0.0
 11
0.0
 21
0.25
 31
0.0
210
0.0
220
0.0
230
1.0
 40
0.1049863962
 41
4.712388980384691
 42
4.912723822707823
  0
ELLIPSE
  5
1C0
330
1F
100
AcDbEntity
  8
0
  6
Continuous
 62
     7
370
    15
100
AcDbEllipse
 10
7.1835395183
 20
5.3197213018
 30
0.0
 11
0.0
 21
0.3000000000000007
 31
0.0
210
0.0
220
0.0
230
1.0
 40
0.0874886635
 41
4.712388980384691
 42
4.912723822707819
  0
LINE
  5
1C1
330
1F
100
AcDbEntity
  8
0
  6
Continuous
 62
     7
370
    15
100
AcDbLine
 10
7.1599763979
 20
5.3197213086
 30
0.0
 11
7.2097861142
 21
5.3197213086
 31
0.0
  0
LINE
  5
1C2
330
1F
100
AcDbEntity
  8
0
  6
Continuous
 62
     7
370
    15
100
AcDbLine
 10
6.5269811937
 20
4.7039087492
 30
0.0
 11
7.1599763979
 21
4.7039087492
 31
0.0
  0
LINE
  5
1C3
330
1F
100
AcDbEntity
  8
0
  6
Continuous
 62
     7
370
    15
100
AcDbLine
 10
7.1599763979
 20
5.3197213086
 30
0.0
 11
6.5269811937
 21
5.3197213086
 31
0.0
  0
LINE
  5
1C4
330
1F
100
AcDbEntity
  8
0
  6
Continuous
 62
     7
370
    15
100
AcDbLine
 10
7.1599763979
 20
4.7039087492
 30
0.0
 11
7.1599763979
 21
5.3197213086
 31
0.0
  0
LINE
  5
1C5
330
1F
100
AcDbEntity
  8
0
  6
Continuous
 62
     7
370
    15
100
AcDbLine
 10
7.2097861142
 20
5.3197213086
 30
0.0
 11
7.2097861142
 21
4.7039087492
 31
0.0
  0
LINE
  5
1C6
330
1F
100
AcDbEntity
  8
0
  6
Continuous
 62
     7
370
    15
100
AcDbLine
 10
6.4771714957
 20
4.7039087492
 30
0.0
 11
6.4771714957
 21
5.3197213086
 31
0.0
  0
LINE
  5
1C7
330
1F
100
AcDbEntity
  8
0
  6
Continuous
 62
     7
370
    15
100
AcDbLine
 10
6.5269811937
 20
5.3197213086
 30
0.0
 11
6.5269811937
 21
4.7039087492
 31
0.0
  0
LINE
  5
1C8
330
1F
100
AcDbEntity
  8
0
  6
Continuous
 62
     7
370
    15
100
AcDbLine
 10
6.4715408808
 20
5.7648771095
 30
0.0
 11
6.4746030254
 21
5.7618150382
 31
0.0
  0
LINE
  5
1C9
330
1F
100
AcDbEntity
  8
0
  6
Continuous
 62
     7
370
    15
100
AcDbLine
 10
6.4715408808
 20
4.2587529483
 30
0.0
 11
6.4746030254
 21
4.2618150196
 31
0.0
  0
LINE
  5
1CA
330
1F
100
AcDbEntity
  8
0
  6
Continuous
 62
     7
370
    15
100
AcDbLine
 10
6.4746030254
 20
4.2618150196
 30
0.0
 11
6.4746030254
 21
4.863090917
 31
0.0
  0
ELLIPSE
  5
1CB
330
1F
100
AcDbEntity
  8
0
  6
Continuous
 62
     7
370
    15
100
AcDbEllipse
 10
6.4724157873
 20
4.8630909147
 30
0.0
 11
0.0
 21
0.02500000000000036
 31
0.0
210
0.0
220
0.0
230
1.0
 40
0.0874886635
 41
4.712388980384691
 42
6.230825429619648
  0
LINE
  5
1CC
330
1F
100
AcDbEntity
  8
0
  6
Continuous
 62
     7
370
    15
100
AcDbLine
 10
6.4725302827
 20
4.8880566502
 30
0.0
 11
6.4723013387
 21
4.8881937912
 31
0.0
  0
ELLIPSE
  5
1CD
330
1F
100
AcDbEntity
  8
0
  6
Continuous
 62
     7
370
    15
100
AcDbEllipse
 10
6.4724157873
 20
4.913159532
 30
0.0
 11
0.0
 21
0.02500000000000036
 31
0.0
210
0.0
220
0.0
230
1.0
 40
0.0874886635
 41
1.570796326794897
 42
3.089232776030078
  0
LINE
  5
1CE
330
1F
100
AcDbEntity
  8
0
  6
Continuous
 62
     7
370
    15
100
AcDbLine
 10
6.4702285959
 20
4.9131595336
 30
0.0
 11
6.4702285959
 21
5.1104705242
 31
0.0
  0
ELLIPSE
  5
1CF
330
1F
100
AcDbEntity
  8
0
  6
Continuous
 62
     7
370
    15
100
AcDbEllipse
 10
6.4724157873
 20
5.1104705258
 30
0.0
 11
0.0
 21
0.02500000000000036
 31
0.0
210
0.0
220
0.0
230
1.0
 40
0.0874886635
 41
0.0523598775597171
 42
1.570796326794932
  0
LINE
  5
1D0
330
1F
100
AcDbEntity
  8
0
  6
Continuous
 62
     7
370
    15
100
AcDbLine
 10
6.4725302827
 20
5.1355734076
 30
0.0
 11
6.4723013387
 21
5.1354362667
 31
0.0
  0
ELLIPSE
  5
1D1
330
1F
100
AcDbEntity
  8
0
  6
Continuous
 62
     7
370
    15
100
AcDbEllipse
 10
6.4724157873
 20
5.1605391431
 30
0.0
 11
0.0
 21
0.02500000000000036
 31
0.0
210
0.0
220
0.0
230
1.0
 40
0.0874886635
 41
3.193952531150056
 42
4.712388980384691
  0
LINE
  5
1D2
330
1F
100
AcDbEntity
  8
0
  6
Continuous
 62
     7
370
    15
100
AcDbLine
 10
6.4746030254
 20
5.1605391408
 30
0.0
 11
6.4746030254
 21
5.7618150382
 31
0.0
  0
LINE
  5
1D3
330
1F
100
AcDbEntity
  8
0
  6
Continuous
 62
     7
370
    15
100
AcDbLine
 10
7.2154166925
 20
5.7648771095
 30
0.0
 11
7.2123545845
 21
5.7618150382
 31
0.0
  0
LINE
  5
1D4
330
1F
100
AcDbEntity
  8
0
  6
Continuous
 62
     7
370
    15
100
AcDbLine
 10
7.2123545845
 20
5.7618150382
 30
0.0
 11
7.2123545845
 21
4.2618150196
 31
0.0
  0
LINE
  5
1D5
330
1F
100
AcDbEntity
  8
0
  6
Continuous
 62
     7
370
    15
100
AcDbLine
 10
7.2154166925
 20
4.2587529483
 30
0.0
 11
7.2123545845
 21
4.2618150196
 31
0.0
  0
LINE
  5
1D6
330
1F
100
AcDbEntity
  8
0
  6
Continuous
 62
     7
370
    15
100
AcDbLine
 10
5.9684787789
 20
4.3367845802
 30
0.0
 11
5.9684787789
 21
4.6201788165
 31
0.0
  0
LINE
  5
1D7
330
1F
100
AcDbEntity
  8
0
  6
Continuous
 62
     7
370
    15
100
AcDbLine
 10
5.9684787789
 20
4.8701179016
 30
0.0
 11
5.9684787789
 21
5.1535121562
 31
0.0
  0
LINE
  5
1D8
330
1F
100
AcDbEntity
  8
0
  6
Continuous
 62
     7
370
    15
100
AcDbLine
 10
5.9684787789
 20
5.4034512414
 30
0.0
 11
5.9684787789
 21
5.6868454776
 31
0.0
  0
LINE
  5
1D9
330
1F
100
AcDbEntity
  8
0
  6
Continuous
 62
     7
370
    15
100
AcDbLine
 10
7.2184788004
 20
4.2618150196
 30
0.0
 11
7.2184788004
 21
4.2718150041
 31
0.0
  0
LINE
  5
1DA
330
1F
100
AcDbEntity
  8
0
  6
Continuous
 62
     7
370
    15
100
AcDbLine
 10
7.2184788004
 20
5.7518150537
 30
0.0
 11
7.2184788004
 21
5.7618150382
 31
0.0
  0
LINE
  5
1DB
330
1F
100
AcDbEntity
  8
0
  6
Continuous
 62
     7
370
    15
100
AcDbLine
 10
6.4684788095
 20
5.7618150382
 30
0.0
 11
6.4684788095
 21
5.7518150537
 31
0.0
  0
LINE
  5
1DC
330
1F
100
AcDbEntity
  8
0
  6
Continuous
 62
     7
370
    15
100
AcDbLine
 10
6.4684788095
 20
5.1718150372
 30
0.0
 11
6.4684788095
 21
4.8518150206
 31
0.0
  0
LINE
  5
1DD
330
1F
100
AcDbEntity
  8
0
  6
Continuous
 62
     7
370
    15
100
AcDbLine
 10
6.4684788095
 20
4.2718150041
 30
0.0
 11
6.4684788095
 21
4.2618150196
 31
0.0
  0
LINE
  5
1DE
330
1F
100
AcDbEntity
  8
0
  6
Continuous
 62
     7
370
    15
100
AcDbLine
 10
7.5284787959
 20
4.1368150303
 30
0.0
 11
7.5284787959
 21
4.2618150196
 31
0.0
  0
LINE
  5
1DF
330
1F
100
AcDbEntity
  8
0
  6
Continuous
 62
     7
370
    15
100
AcDbLine
 10
7.5284787959
 20
4.2618150196
 30
0.0
 11
7.4684787974
 21
4.2618150196
 31
0.0
  0
LINE
  5
1E0
330
1F
100
AcDbEntity
  8
0
  6
Continuous
 62
     7
370
    15
100
AcDbLine
 10
7.5284787959
 20
4.1368150303
 30
0.0
 11
7.4684787974
 21
4.1368150303
 31
0.0
  0
LINE
  5
1E1
330
1F
100
AcDbEntity
  8
0
  6
Continuous
 62
     7
370
    15
100
AcDbLine
 10
7.4684787974
 20
4.1368150303
 30
0.0
 11
7.4684787974
 21
4.2618150196
 31
0.0
  0
LINE
  5
1E2
330
1F
100
AcDbEntity
  8
0
  6
Continuous
 62
     7
370
    15
100
AcDbLine
 10
7.5284787959
 20
4.5118150349
 30
0.0
 11
7.4684787974
 21
4.5118150349
 31
0.0
  0
LINE
  5
1E3
330
1F
100
AcDbEntity
  8
0
  6
Continuous
 62
     7
370
    15
100
AcDbLine
 10
7.5284787959
 20
4.8868150304
 30
0.0
 11
7.4684787974
 21
4.8868150304
 31
0.0
  0
LINE
  5
1E4
330
1F
100
AcDbEntity
  8
0
  6
Continuous
 62
     7
370
    15
100
AcDbLine
 10
7.5284787959
 20
4.5118150349
 30
0.0
 11
7.5284787959
 21
4.8868150304
 31
0.0
  0
LINE
  5
1E5
330
1F
100
AcDbEntity
  8
0
  6
Continuous
 62
     7
370
    15
100
AcDbLine
 10
7.4684787974
 20
4.5118150349
 30
0.0
 11
7.4684787974
 21
4.8868150304
 31
0.0
  0
LINE
  5
1E6
330
1F
100
AcDbEntity
  8
0
  6
Continuous
 62
     7
370
    15
100
AcDbLine
 10
7.5284787959
 20
5.5118150229
 30
0.0
 11
7.4684787974
 21
5.5118150229
 31
0.0
  0
LINE
  5
1E7
330
1F
100
AcDbEntity
  8
0
  6
Continuous
 62
     7
370
    15
100
AcDbLine
 10
7.5284787959
 20
5.1368150274
 30
0.0
 11
7.4684787974
 21
5.1368150274
 31
0.0
  0
LINE
  5
1E8
330
1F
100
AcDbEntity
  8
0
  6
Continuous
 62
     7
370
    15
100
AcDbLine
 10
7.5284787959
 20
5.1368150274
 30
0.0
 11
7.5284787959
 21
5.5118150229
 31
0.0
  0
LINE
  5
1E9
330
1F
100
AcDbEntity
  8
0
  6
Continuous
 62
     7
370
    15
100
AcDbLine
 10
7.4684787974
 20
5.1368150274
 30
0.0
 11
7.4684787974
 21
5.5118150229
 31
0.0
  0
LINE
  5
1EA
330
1F
100
AcDbEntity
  8
0
  6
Continuous
 62
     7
370
    15
100
AcDbLine
 10
7.5284787959
 20
5.8868150275
 30
0.0
 11
7.4684787974
 21
5.8868150275
 31
0.0
  0
LINE
  5
1EB
330
1F
100
AcDbEntity
  8
0
  6
Continuous
 62
     7
370
    15
100
AcDbLine
 10
7.5284787959
 20
5.7618150382
 30
0.0
 11
7.4684787974
 21
5.7618150382
 31
0.0
  0
LINE
  5
1EC
330
1F
100
AcDbEntity
  8
0
  6
Continuous
 62
     7
370
    15
100
AcDbLine
 10
7.5284787959
 20
5.7618150382
 30
0.0
 11
7.5284787959
 21
5.8868150275
 31
0.0
  0
LINE
  5
1ED
330
1F
100
AcDbEntity
  8
0
  6
Continuous
 62
     7
370
    15
100
AcDbLine
 10
7.4684787974
 20
5.7618150382
 30
0.0
 11
7.4684787974
 21
5.8868150275
 31
0.0
  0
LINE
  5
1EE
330
1F
100
AcDbEntity
  8
0
  6
Continuous
 62
     7
370
    15
100
AcDbLine
 10
7.5284787959
 20
4.5118150349
 30
0.0
 11
7.5284787959
 21
4.2618150196
 31
0.0
  0
LINE
  5
1EF
330
1F
100
AcDbEntity
  8
0
  6
Continuous
 62
     7
370
    15
100
AcDbLine
 10
7.4684787974
 20
4.5118150349
 30
0.0
 11
7.4684787974
 21
4.2618150196
 31
0.0
  0
LINE
  5
1F0
330
1F
100
AcDbEntity
  8
0
  6
Continuous
 62
     7
370
    15
100
AcDbLine
 10
7.5284787959
 20
5.1368150274
 30
0.0
 11
7.5284787959
 21
4.8868150304
 31
0.0
  0
LINE
  5
1F1
330
1F
100
AcDbEntity
  8
0
  6
Continuous
 62
     7
370
    15
100
AcDbLine
 10
7.4684787974
 20
5.1368150274
 30
0.0
 11
7.4684787974
 21
4.8868150304
 31
0.0
  0
LINE
  5
1F2
330
1F
100
AcDbEntity
  8
0
  6
Continuous
 62
     7
370
    15
100
AcDbLine
 10
7.5284787959
 20
5.7618150382
 30
0.0
 11
7.5284787959
 21
5.5118150229
 31
0.0
  0
LINE
  5
1F3
330
1F
100
AcDbEntity
  8
0
  6
Continuous
 62
     7
370
    15
100
AcDbLine
 10
7.4684787974
 20
5.7618150382
 30
0.0
 11
7.4684787974
 21
5.5118150229
 31
0.0
  0
LINE
  5
1F4
330
1F
100
AcDbEntity
  8
0
  6
Continuous
 62
     7
370
    15
100
AcDbLine
 10
7.4394787966
 20
5.7518150537
 30
0.0
 11
7.4394787966
 21
4.2718150041
 31
0.0
  0
LINE
  5
1F5
330
1F
100
AcDbEntity
  8
0
  6
Continuous
 62
     7
370
    15
100
AcDbLine
 10
7.4684787974
 20
5.7518150537
 30
0.0
 11
7.4394787966
 21
5.7518150537
 31
0.0
  0
LINE
  5
1F6
330
1F
100
AcDbEntity
  8
0
  6
Continuous
 62
     7
370
    15
100
AcDbLine
 10
7.4394787966
 20
4.2718150041
 30
0.0
 11
7.4684787974
 21
4.2718150041
 31
0.0
  0
ARC
  5
1F7
330
1F
100
AcDbEntity
  8
0
  6
Continuous
 62
     7
370
    15
100
AcDbCircle
 10
6.2784787974
 20
5.7018150289
 30
0.0
 40
0.0500000000000007
100
AcDbArc
 50
90.0
 51
180.0
  0
ARC
  5
1F8
330
1F
100
AcDbEntity
  8
0
  6
Continuous
 62
     7
370
    15
100
AcDbCircle
 10
6.2784787974
 20
4.3218150289
 30
0.0
 40
0.0500000000000007
100
AcDbArc
 50
180.0
 51
270.0
  0
LINE
  5
1F9
330
1F
100
AcDbEntity
  8
0
  6
Continuous
 62
     7
370
    15
100
AcDbLine
 10
6.2284788153
 20
4.3218149998
 30
0.0
 11
6.2284788153
 21
5.701815058
 31
0.0
  0
LINE
  5
1FA
330
1F
100
AcDbEntity
  8
0
  6
Continuous
 62
     7
370
    15
100
AcDbLine
 10
6.4746030254
 20
5.1718150372
 30
0.0
 11
6.4634787806
 21
5.1718150372
 31
0.0
  0
LINE
  5
1FB
330
1F
100
AcDbEntity
  8
0
  6
Continuous
 62
     7
370
    15
100
AcDbLine
 10
6.4634787806
 20
5.1718150372
 30
0.0
 11
6.4634787806
 21
4.8518150206
 31
0.0
  0
LINE
  5
1FC
330
1F
100
AcDbEntity
  8
0
  6
Continuous
 62
     7
370
    15
100
AcDbLine
 10
6.4634787806
 20
4.8518150206
 30
0.0
 11
6.4746030254
 21
4.8518150206
 31
0.0
  0
LINE
  5
1FD
330
1F
100
AcDbEntity
  8
0
  6
Continuous
 62
     7
370
    15
100
AcDbLine
 10
6.2784788111
 20
5.7518150537
 30
0.0
 11
6.4746030254
 21
5.7518150537
 31
0.0
  0
LINE
  5
1FE
330
1F
100
AcDbEntity
  8
0
  6
Continuous
 62
     7
370
    15
100
AcDbLine
 10
7.2123545845
 20
5.7518150537
 30
0.0
 11
7.4394787966
 21
5.7518150537
 31
0.0
  0
LINE
  5
1FF
330
1F
100
AcDbEntity
  8
0
  6
Continuous
 62
     7
370
    15
100
AcDbLine
 10
7.4394787966
 20
4.2718150041
 30
0.0
 11
7.2123545845
 21
4.2718150041
 31
0.0
  0
LINE
  5
200
330
1F
100
AcDbEntity
  8
0
  6
Continuous
 62
     7
370
    15
100
AcDbLine
 10
6.4746030254
 20
4.2718150041
 30
0.0
 11
6.2784788111
 21
4.2718150041
 31
0.0
  0
DIMENSION
  5
201
330
1F
100
AcDbEntity
  8
0
  6
Continuous
 62
     7
370
     0
100
AcDbDimension
  2
_D
 10
3.1934787974
 20
3.7953693763
 30
0.0
 11
5.575597674
 21
3.7953693763
 31
0.0
 70
   160
  1
<>
 71
     2
 42
-1.0
  3
SLDDIMSTYLE0
100
AcDbAlignedDimension
 13
7.5284787974
 23
4.1368150289
 33
0.0
 14
3.1934787974
 24
4.6701483622
 34
0.0
100
AcDbRotatedDimension
  0
LINE
  5
20E
330
1F
100
AcDbEntity
  8
0
  6
Continuous
 62
     7
370
    15
100
AcDbLine
 10
10.6095266902
 20
4.1949786917
 30
0.0
 11
10.6095266902
 21
5.8286513661
 31
0.0
  0
LINE
  5
20F
330
1F
100
AcDbEntity
  8
0
  6
Continuous
 62
     7
370
    15
100
AcDbLine
 10
10.491039689
 20
4.1866932941
 30
0.0
 11
10.6095266902
 21
4.1949786917
 31
0.0
  0
ELLIPSE
  5
210
330
1F
100
AcDbEntity
  8
0
  6
Continuous
 62
     7
370
    15
100
AcDbEllipse
 10
10.9682122955
 20
4.1701822437
 30
0.0
 11
0.4771701649063989
 21
-0.01678652251910595
 31
0.0
210
0.0
220
0.0
230
1.0
 40
0.1047193276
 41
3.145276591789604
 42
3.147100596619909
  0
LINE
  5
211
330
1F
100
AcDbEntity
  8
0
  6
Continuous
 62
     7
370
    15
100
AcDbLine
 10
10.4910388824
 20
4.236795882
 30
0.0
 11
10.4910388824
 21
4.1867845931
 31
0.0
  0
LINE
  5
212
330
1F
100
AcDbEntity
  8
0
  6
Continuous
 62
     7
370
    15
100
AcDbLine
 10
10.4910388824
 20
5.7868341758
 30
0.0
 11
10.4910388824
 21
4.236795882
 31
0.0
  0
LINE
  5
213
330
1F
100
AcDbEntity
  8
0
  6
Continuous
 62
     7
370
    15
100
AcDbLine
 10
10.4910388824
 20
5.8368454647
 30
0.0
 11
10.4910388824
 21
5.7868341758
 31
0.0
  0
ELLIPSE
  5
214
330
1F
100
AcDbEntity
  8
0
  6
Continuous
 62
     7
370
    15
100
AcDbEllipse
 10
10.9682122955
 20
5.8534478141
 30
0.0
 11
0.4771701649063989
 21
0.01678652251910684
 31
0.0
210
0.0
220
0.0
230
1.0
 40
0.1047193276
 41
3.136084710559772
 42
3.137908715390081
  0
LINE
  5
215
330
1F
100
AcDbEntity
  8
0
  6
Continuous
 62
     7
370
    15
100
AcDbLine
 10
10.6095266902
 20
5.8286513661
 30
0.0
 11
10.491039689
 21
5.8369367637
 31
0.0
  0
LINE
  5
216
330
1F
100
AcDbEntity
  8
0
  6
Continuous
 62
     7
370
    15
100
AcDbLine
 10
10.3524957395
 20
5.88197699
 30
0.0
 11
10.4910388824
 21
5.8868150275
 31
0.0
  0
LINE
  5
217
330
1F
100
AcDbEntity
  8
0
  6
Continuous
 62
     7
370
    15
100
AcDbLine
 10
10.4910388824
 20
5.8868150275
 30
0.0
 11
10.491039689
 21
5.8868149542
 31
0.0
  0
ELLIPSE
  5
218
330
1F
100
AcDbEntity
  8
0
  6
Continuous
 62
     7
370
    15
100
AcDbEllipse
 10
10.4901650748
 20
5.8367540373
 30
0.0
 11
0.0008738174954725507
 21
0.05006097078789562
 31
0.0
210
0.0
220
0.0
230
1.0
 40
0.0174020476
 41
4.716342962801382
 42
6.282273304762244
  0
ELLIPSE
  5
219
330
1F
100
AcDbEntity
  8
0
  6
Continuous
 62
     7
370
    15
100
AcDbEllipse
 10
10.4901650748
 20
4.1868760205
 30
0.0
 11
-0.0008738174954725508
 21
0.05006097078789473
 31
0.0
210
0.0
220
0.0
230
1.0
 40
0.0174020476
 41
3.142504656004668
 42
4.708434997968017
  0
LINE
  5
21A
330
1F
100
AcDbEntity
  8
0
  6
Continuous
 62
     7
370
    15
100
AcDbLine
 10
10.491039689
 20
4.1368151036
 30
0.0
 11
10.4910388824
 21
4.1368150303
 31
0.0
  0
LINE
  5
21B
330
1F
100
AcDbEntity
  8
0
  6
Continuous
 62
     7
370
    15
100
AcDbLine
 10
10.4910388824
 20
4.1368150303
 30
0.0
 11
10.3524957395
 21
4.1416530678
 31
0.0
  0
LINE
  5
21C
330
1F
100
AcDbEntity
  8
0
  6
Continuous
 62
     7
370
    15
100
AcDbLine
 10
10.4910388824
 20
5.7618150382
 30
0.0
 11
10.3810389064
 21
5.7714387537
 31
0.0
  0
LINE
  5
21D
330
1F
100
AcDbEntity
  8
0
  6
Continuous
 62
     7
370
    15
100
AcDbLine
 10
10.3810389064
 20
4.2521913041
 30
0.0
 11
10.4910388824
 21
4.2618150196
 31
0.0
  0
ARC
  5
21E
330
1F
100
AcDbEntity
  8
0
  6
Continuous
 62
     7
370
    15
100
AcDbCircle
 10
10.4297635787
 20
4.1700395965
 30
0.0
 40
0.1814848058070185
100
AcDbArc
 50
352.1015941317
 51
7.8984058683
  0
LINE
  5
21F
330
1F
100
AcDbEntity
  8
0
  6
Continuous
 62
     7
370
    15
100
AcDbLine
 10
10.6095266902
 20
4.1451005013
 30
0.0
 11
10.491039689
 21
4.1368151036
 31
0.0
  0
LINE
  5
220
330
1F
100
AcDbEntity
  8
0
  6
Continuous
 62
     7
370
    15
100
AcDbLine
 10
10.491039689
 20
5.8868149542
 30
0.0
 11
10.6095266902
 21
5.8785295565
 31
0.0
  0
ARC
  5
221
330
1F
100
AcDbEntity
  8
0
  6
Continuous
 62
     7
370
    15
100
AcDbCircle
 10
10.4297635787
 20
5.8535904613
 30
0.0
 40
0.1814848058070202
100
AcDbArc
 50
352.1015941317
 51
7.8984058683
  0
ARC
  5
222
330
1F
100
AcDbEntity
  8
0
  6
Continuous
 62
     7
370
    15
100
AcDbCircle
 10
10.6060388927
 20
5.8286513506
 30
0.0
 40
0.0500000000000006
100
AcDbArc
 50
0.0
 51
86.0
  0
LINE
  5
223
330
1F
100
AcDbEntity
  8
0
  6
Continuous
 62
     7
370
    15
100
AcDbLine
 10
10.6095266902
 20
5.8286513661
 30
0.0
 11
10.6560389196
 21
5.8286513661
 31
0.0
  0
LINE
  5
224
330
1F
100
AcDbEntity
  8
0
  6
Continuous
 62
     7
370
    15
100
AcDbLine
 10
10.6560389196
 20
5.8286513661
 30
0.0
 11
10.6560389196
 21
4.1949786917
 31
0.0
  0
LINE
  5
225
330
1F
100
AcDbEntity
  8
0
  6
Continuous
 62
     7
370
    15
100
AcDbLine
 10
10.6095266902
 20
4.1949786917
 30
0.0
 11
10.6560389196
 21
4.1949786917
 31
0.0
  0
ARC
  5
226
330
1F
100
AcDbEntity
  8
0
  6
Continuous
 62
     7
370
    15
100
AcDbCircle
 10
10.6060388927
 20
4.1949787072
 30
0.0
 40
0.0500000000000006
100
AcDbArc
 50
274.0
 51
0.0
  0
LINE
  5
227
330
1F
100
AcDbEntity
  8
0
  6
Continuous
 62
     7
370
    15
100
AcDbLine
 10
10.421038881
 20
5.7618150382
 30
0.0
 11
10.421038881
 21
5.7518150537
 31
0.0
  0
LINE
  5
228
330
1F
100
AcDbEntity
  8
0
  6
Continuous
 62
     7
370
    15
100
AcDbLine
 10
10.421038881
 20
4.2718150041
 30
0.0
 11
10.421038881
 21
4.2618150196
 31
0.0
  0
LINE
  5
229
330
1F
100
AcDbEntity
  8
0
  6
Continuous
 62
     7
370
    15
100
AcDbLine
 10
10.4560389
 20
5.7648771095
 30
0.0
 11
10.421038881
 21
5.7618150382
 31
0.0
  0
LINE
  5
22A
330
1F
100
AcDbEntity
  8
0
  6
Continuous
 62
     7
370
    15
100
AcDbLine
 10
10.4560389
 20
4.2587529483
 30
0.0
 11
10.421038881
 21
4.2618150196
 31
0.0
  0
LINE
  5
22B
330
1F
100
AcDbEntity
  8
0
  6
Continuous
 62
     7
370
    15
100
AcDbLine
 10
10.3810389064
 20
5.7518150537
 30
0.0
 11
10.4020389105
 21
5.7518150537
 31
0.0
  0
LINE
  5
22C
330
1F
100
AcDbEntity
  8
0
  6
Continuous
 62
     7
370
    15
100
AcDbLine
 10
10.4020389105
 20
4.2718150041
 30
0.0
 11
10.4020389105
 21
5.7518150537
 31
0.0
  0
LINE
  5
22D
330
1F
100
AcDbEntity
  8
0
  6
Continuous
 62
     7
370
    15
100
AcDbLine
 10
10.4020389105
 20
4.2718150041
 30
0.0
 11
10.3810389064
 21
4.2718150041
 31
0.0
  0
LINE
  5
22E
330
1F
100
AcDbEntity
  8
0
  6
Continuous
 62
     7
370
    15
100
AcDbLine
 10
10.3810389064
 20
4.186815026
 30
0.0
 11
10.3810389064
 21
4.2718150041
 31
0.0
  0
ARC
  5
22F
330
1F
100
AcDbEntity
  8
0
  6
Continuous
 62
     7
370
    15
100
AcDbCircle
 10
10.3310388927
 20
4.1868150289
 30
0.0
 40
0.0499999999999998
100
AcDbArc
 50
270.0
 51
0.0
  0
LINE
  5
230
330
1F
100
AcDbEntity
  8
0
  6
Continuous
 62
     7
370
    15
100
AcDbLine
 10
10.3310389107
 20
4.1368150303
 30
0.0
 11
9.391038903
 21
4.1368150303
 31
0.0
  0
LINE
  5
231
330
1F
100
AcDbEntity
  8
0
  6
Continuous
 62
     7
370
    15
100
AcDbLine
 10
9.8160388942
 20
4.2618150196
 30
0.0
 11
9.391038903
 21
4.2618150196
 31
0.0
  0
ARC
  5
232
330
1F
100
AcDbEntity
  8
0
  6
Continuous
 62
     7
370
    15
100
AcDbCircle
 10
9.8160388927
 20
4.3868150289
 30
0.0
 40
0.1250000000000009
100
AcDbArc
 50
270.0
 51
90.0
  0
LINE
  5
233
330
1F
100
AcDbEntity
  8
0
  6
Continuous
 62
     7
370
    15
100
AcDbLine
 10
9.8160388942
 20
4.8868150304
 30
0.0
 11
9.391038903
 21
4.8868150304
 31
0.0
  0
ARC
  5
234
330
1F
100
AcDbEntity
  8
0
  6
Continuous
 62
     7
370
    15
100
AcDbCircle
 10
9.8160388927
 20
5.0118150289
 30
0.0
 40
0.1250000000000009
100
AcDbArc
 50
270.0
 51
90.0
  0
LINE
  5
235
330
1F
100
AcDbEntity
  8
0
  6
Continuous
 62
     7
370
    15
100
AcDbLine
 10
9.391038903
 20
5.1368150274
 30
0.0
 11
9.8160388942
 21
5.1368150274
 31
0.0
  0
LINE
  5
236
330
1F
100
AcDbEntity
  8
0
  6
Continuous
 62
     7
370
    15
100
AcDbLine
 10
9.391038903
 20
5.7618150382
 30
0.0
 11
9.391038903
 21
5.8868150275
 31
0.0
  0
LINE
  5
237
330
1F
100
AcDbEntity
  8
0
  6
Continuous
 62
     7
370
    15
100
AcDbLine
 10
9.391038903
 20
5.8868150275
 30
0.0
 11
10.3310389107
 21
5.8868150275
 31
0.0
  0
ARC
  5
238
330
1F
100
AcDbEntity
  8
0
  6
Continuous
 62
     7
370
    15
100
AcDbCircle
 10
10.3310388927
 20
5.8368150289
 30
0.0
 40
0.0499999999999989
100
AcDbArc
 50
0.0
 51
90.0
  0
LINE
  5
239
330
1F
100
AcDbEntity
  8
0
  6
Continuous
 62
     7
370
    15
100
AcDbLine
 10
10.3810389064
 20
5.7518150537
 30
0.0
 11
10.3810389064
 21
5.8368150318
 31
0.0
  0
LINE
  5
23A
330
1F
100
AcDbEntity
  8
0
  6
Continuous
 62
     7
370
    15
100
AcDbLine
 10
9.391038903
 20
4.1368150303
 30
0.0
 11
9.391038903
 21
4.2618150196
 31
0.0
  0
LINE
  5
23B
330
1F
100
AcDbEntity
  8
0
  6
Continuous
 62
     7
370
    15
100
AcDbLine
 10
9.391038903
 20
5.1368150274
 30
0.0
 11
9.391038903
 21
5.5118150229
 31
0.0
  0
LINE
  5
23C
330
1F
100
AcDbEntity
  8
0
  6
Continuous
 62
     7
370
    15
100
AcDbLine
 10
9.391038903
 20
4.5118150349
 30
0.0
 11
9.391038903
 21
4.8868150304
 31
0.0
  0
LINE
  5
23D
330
1F
100
AcDbEntity
  8
0
  6
Continuous
 62
     7
370
    15
100
AcDbLine
 10
9.391038903
 20
5.7618150382
 30
0.0
 11
9.8160388942
 21
5.7618150382
 31
0.0
  0
ARC
  5
23E
330
1F
100
AcDbEntity
  8
0
  6
Continuous
 62
     7
370
    15
100
AcDbCircle
 10
9.8160388927
 20
5.6368150289
 30
0.0
 40
0.1250000000000009
100
AcDbArc
 50
270.0
 51
90.0
  0
LINE
  5
23F
330
1F
100
AcDbEntity
  8
0
  6
Continuous
 62
     7
370
    15
100
AcDbLine
 10
9.8160388942
 20
5.5118150229
 30
0.0
 11
9.391038903
 21
5.5118150229
 31
0.0
  0
LINE
  5
240
330
1F
100
AcDbEntity
  8
0
  6
Continuous
 62
     7
370
    15
100
AcDbLine
 10
9.391038903
 20
4.5118150349
 30
0.0
 11
9.8160388942
 21
4.5118150349
 31
0.0
  0
LINE
  5
241
330
1F
100
AcDbEntity
  8
0
  6
Continuous
 62
     7
370
    15
100
AcDbLine
 10
10.4020389105
 20
5.7518150537
 30
0.0
 11
10.4910388824
 21
5.7518150537
 31
0.0
  0
LINE
  5
242
330
1F
100
AcDbEntity
  8
0
  6
Continuous
 62
     7
370
    15
100
AcDbLine
 10
10.4910388824
 20
4.2718150041
 30
0.0
 11
10.4020389105
 21
4.2718150041
 31
0.0
  0
LINE
  5
243
330
1F
100
AcDbEntity
  8
0
  6
Continuous
 62
     8
370
    15
100
AcDbLine
 10
10.4910388824
 20
5.8368454647
 30
0.0
 11
10.3810389064
 21
5.8330042358
 31
0.0
  0
LINE
  5
244
330
1F
100
AcDbEntity
  8
0
  6
Continuous
 62
     8
370
    15
100
AcDbLine
 10
10.3810389064
 20
5.7964579646
 30
0.0
 11
10.4910388824
 21
5.7868341758
 31
0.0
  0
LINE
  5
245
330
1F
100
AcDbEntity
  8
0
  6
Continuous
 62
     8
370
    15
100
AcDbLine
 10
10.3810389064
 20
4.190625822
 30
0.0
 11
10.4910388824
 21
4.1867845931
 31
0.0
  0
LINE
  5
246
330
1F
100
AcDbEntity
  8
0
  6
Continuous
 62
     8
370
    15
100
AcDbLine
 10
10.4910388824
 20
4.236795882
 30
0.0
 11
10.3810389064
 21
4.2271720932
 31
0.0
  0
DIMENSION
  5
247
330
1F
100
AcDbEntity
  8
0
  6
Continuous
 62
     7
370
     0
100
AcDbDimension
  2
_D_1
 10
8.9973381053
 20
4.1368150289
 30
0.0
 11
8.9973381053
 21
4.9467457727
 31
0.0
 70
   160
  1
<>
 71
     2
 42
-1.0
  3
SLDDIMSTYLE0
100
AcDbAlignedDimension
 13
9.3910388927
 23
5.8868150289
 33
0.0
 14
9.3910388927
 24
4.1368150289
 34
0.0
 50
90.0
100
AcDbRotatedDimension
  0
LINE
  5
252
330
1F
100
AcDbEntity
  8
0
  6
Continuous
 62
     7
370
    15
100
AcDbLine
 10
3.4184787033
 20
8.3939197008
 30
0.0
 11
3.4250000147
 21
8.2071747481
 31
0.0
  0
LINE
  5
253
330
1F
100
AcDbEntity
  8
0
  6
Continuous
 62
     7
370
    15
100
AcDbLine
 10
3.4267643943
 20
8.5124075087
 30
0.0
 11
3.4184787033
 21
8.3939197008
 31
0.0
  0
ARC
  5
254
330
1F
100
AcDbEntity
  8
0
  6
Continuous
 62
     7
370
    15
100
AcDbCircle
 10
3.474969617
 20
8.2089197111
 30
0.0
 40
0.0500000000000008
100
AcDbArc
 50
182.0
 51
270.0
  0
ARC
  5
255
330
1F
100
AcDbEntity
  8
0
  6
Continuous
 62
     7
370
    15
100
AcDbCircle
 10
3.4766424757
 20
8.5089197111
 30
0.0
 40
0.0500000000000007
100
AcDbArc
 50
90.0
 51
176.0
  0
LINE
  5
256
330
1F
100
AcDbEntity
  8
0
  6
Continuous
 62
     7
370
    15
100
AcDbLine
 10
3.6476453627
 20
8.3939197008
 30
0.0
 11
3.4184787033
 21
8.3939197008
 31
0.0
  0
LINE
  5
257
330
1F
100
AcDbEntity
  8
0
  6
Continuous
 62
     7
370
    15
100
AcDbLine
 10
3.6476453627
 20
8.2071747481
 30
0.0
 11
3.6476453627
 21
8.3939197008
 31
0.0
  0
LINE
  5
258
330
1F
100
AcDbEntity
  8
0
  6
Continuous
 62
     7
370
    15
100
AcDbLine
 10
7.4185092576
 20
8.3939197008
 30
0.0
 11
3.6476453627
 21
8.3939197008
 31
0.0
  0
LINE
  5
259
330
1F
100
AcDbEntity
  8
0
  6
Continuous
 62
     7
370
    15
100
AcDbLine
 10
7.4119879783
 20
8.2071747481
 30
0.0
 11
7.4185092576
 21
8.3939197008
 31
0.0
  0
LINE
  5
25A
330
1F
100
AcDbEntity
  8
0
  6
Continuous
 62
     7
370
    15
100
AcDbLine
 10
3.6476453627
 20
8.2071747481
 30
0.0
 11
7.4119879783
 21
8.2071747481
 31
0.0
  0
ARC
  5
25B
330
1F
100
AcDbEntity
  8
0
  6
Continuous
 62
     7
370
    15
100
AcDbCircle
 10
7.4369727488
 20
8.5656249401
 30
0.0
 40
0.3593198838438126
100
AcDbArc
 50
266.0128063359
 51
273.9871936641
  0
ELLIPSE
  5
25C
330
1F
100
AcDbEntity
  8
0
  6
Continuous
 62
     7
370
    15
100
AcDbEllipse
 10
7.4351115826
 20
8.871093114
 30
0.0
 11
0.01678652251910773
 21
0.4771701649063989
 31
0.0
210
0.0
220
0.0
230
1.0
 40
0.1047193276
 41
3.145276591789639
 42
3.147100596619909
  0
ELLIPSE
  5
25D
330
1F
100
AcDbEntity
  8
0
  6
Continuous
 62
     7
370
    15
100
AcDbEllipse
 10
7.4184178058
 20
8.3930458932
 30
0.0
 11
0.05006097078789562
 21
0.0008738174954725507
 31
0.0
210
0.0
220
0.0
230
1.0
 40
0.0174020476
 41
0.0009120024161259
 42
1.566842344378241
  0
LINE
  5
25E
330
1F
100
AcDbEntity
  8
0
  6
Continuous
 62
     7
370
    15
100
AcDbLine
 10
7.4684787419
 20
8.3939205074
 30
0.0
 11
7.4684787974
 21
8.3939197008
 31
0.0
  0
LINE
  5
25F
330
1F
100
AcDbEntity
  8
0
  6
Continuous
 62
     7
370
    15
100
AcDbLine
 10
7.4684787974
 20
8.3939197008
 30
0.0
 11
7.4619575193
 21
8.2071747481
 31
0.0
  0
LINE
  5
260
330
1F
100
AcDbEntity
  8
0
  6
Continuous
 62
     7
370
    15
100
AcDbLine
 10
3.6476453627
 20
8.5124075087
 30
0.0
 11
3.6476453627
 21
8.3939197008
 31
0.0
  0
LINE
  5
261
330
1F
100
AcDbEntity
  8
0
  6
Continuous
 62
     7
370
    15
100
AcDbLine
 10
7.4103151176
 20
8.5124075087
 30
0.0
 11
3.6476453627
 21
8.5124075087
 31
0.0
  0
LINE
  5
262
330
1F
100
AcDbEntity
  8
0
  6
Continuous
 62
     7
370
    15
100
AcDbLine
 10
7.4186005382
 20
8.3939205074
 30
0.0
 11
7.4103151176
 21
8.5124075087
 31
0.0
  0
ARC
  5
263
330
1F
100
AcDbEntity
  8
0
  6
Continuous
 62
     7
370
    15
100
AcDbCircle
 10
7.4352542198
 20
8.3326442497
 30
0.0
 40
0.1814849527944467
100
AcDbArc
 50
82.1015983784
 51
97.8984016216
  0
LINE
  5
264
330
1F
100
AcDbEntity
  8
0
  6
Continuous
 62
     7
370
    15
100
AcDbLine
 10
7.4601933219
 20
8.5124075087
 30
0.0
 11
7.4684787419
 21
8.3939205074
 31
0.0
  0
LINE
  5
265
330
1F
100
AcDbEntity
  8
0
  6
Continuous
 62
     7
370
    15
100
AcDbLine
 10
7.4119879783
 20
8.2071747481
 30
0.0
 11
7.4119879783
 21
8.1589196989
 31
0.0
  0
LINE
  5
266
330
1F
100
AcDbEntity
  8
0
  6
Continuous
 62
     7
370
    15
100
AcDbLine
 10
7.4119879783
 20
8.1589196989
 30
0.0
 11
3.6476453627
 21
8.1589196989
 31
0.0
  0
LINE
  5
267
330
1F
100
AcDbEntity
  8
0
  6
Continuous
 62
     7
370
    15
100
AcDbLine
 10
3.6476453627
 20
8.2071747481
 30
0.0
 11
3.6476453627
 21
8.1589196989
 31
0.0
  0
LINE
  5
268
330
1F
100
AcDbEntity
  8
0
  6
Continuous
 62
     7
370
    15
100
AcDbLine
 10
3.6476453627
 20
8.1589196989
 30
0.0
 11
3.4749696508
 21
8.1589196989
 31
0.0
  0
ARC
  5
269
330
1F
100
AcDbEntity
  8
0
  6
Continuous
 62
     7
370
    15
100
AcDbCircle
 10
7.4119879778
 20
8.2089197111
 30
0.0
 40
0.0500000000000007
100
AcDbArc
 50
270.0
 51
358.0
  0
LINE
  5
26A
330
1F
100
AcDbEntity
  8
0
  6
Continuous
 62
     7
370
    15
100
AcDbLine
 10
3.4766425114
 20
8.558919738
 30
0.0
 11
3.6476453627
 21
8.558919738
 31
0.0
  0
LINE
  5
26B
330
1F
100
AcDbEntity
  8
0
  6
Continuous
 62
     7
370
    15
100
AcDbLine
 10
3.6476453627
 20
8.5124075087
 30
0.0
 11
3.6476453627
 21
8.558919738
 31
0.0
  0
LINE
  5
26C
330
1F
100
AcDbEntity
  8
0
  6
Continuous
 62
     7
370
    15
100
AcDbLine
 10
3.6476453627
 20
8.558919738
 30
0.0
 11
7.4103151176
 21
8.558919738
 31
0.0
  0
LINE
  5
26D
330
1F
100
AcDbEntity
  8
0
  6
Continuous
 62
     7
370
    15
100
AcDbLine
 10
7.4103151176
 20
8.5124075087
 30
0.0
 11
7.4103151176
 21
8.558919738
 31
0.0
  0
ARC
  5
26E
330
1F
100
AcDbEntity
  8
0
  6
Continuous
 62
     7
370
    15
100
AcDbCircle
 10
7.4103151191
 20
8.5089197111
 30
0.0
 40
0.0500000000000007
100
AcDbArc
 50
4.0
 51
90.0
  0
LINE
  5
26F
330
1F
100
AcDbEntity
  8
0
  6
Continuous
 62
     7
370
    15
100
AcDbLine
 10
3.3434789298
 20
8.3939197008
 30
0.0
 11
3.1934787959
 21
8.3939197008
 31
0.0
  0
LINE
  5
270
330
1F
100
AcDbEntity
  8
0
  6
Continuous
 62
     7
370
    15
100
AcDbLine
 10
3.3369576184
 20
8.2071747481
 30
0.0
 11
3.3434789298
 21
8.3939197008
 31
0.0
  0
LINE
  5
271
330
1F
100
AcDbEntity
  8
0
  6
Continuous
 62
     7
370
    15
100
AcDbLine
 10
3.2000001072
 20
8.2071747481
 30
0.0
 11
3.3369576184
 21
8.2071747481
 31
0.0
  0
LINE
  5
272
330
1F
100
AcDbEntity
  8
0
  6
Continuous
 62
     7
370
    15
100
AcDbLine
 10
3.2000001072
 20
8.2071747481
 30
0.0
 11
3.1934787959
 21
8.3939197008
 31
0.0
  0
LINE
  5
273
330
1F
100
AcDbEntity
  8
0
  6
Continuous
 62
     7
370
    15
100
AcDbLine
 10
3.2017641935
 20
8.5124075087
 30
0.0
 11
3.1934787959
 21
8.3939197008
 31
0.0
  0
LINE
  5
274
330
1F
100
AcDbEntity
  8
0
  6
Continuous
 62
     7
370
    15
100
AcDbLine
 10
3.3351932388
 20
8.5124075087
 30
0.0
 11
3.2017641935
 21
8.5124075087
 31
0.0
  0
LINE
  5
275
330
1F
100
AcDbEntity
  8
0
  6
Continuous
 62
     7
370
    15
100
AcDbLine
 10
3.3351932388
 20
8.5124075087
 30
0.0
 11
3.3434789298
 21
8.3939197008
 31
0.0
  0
ARC
  5
276
330
1F
100
AcDbEntity
  8
0
  6
Continuous
 62
     7
370
    15
100
AcDbCircle
 10
3.249969617
 20
8.2089197111
 30
0.0
 40
0.0500000000000007
100
AcDbArc
 50
182.0
 51
270.0
  0
ARC
  5
277
330
1F
100
AcDbEntity
  8
0
  6
Continuous
 62
     7
370
    15
100
AcDbCircle
 10
3.2869879778
 20
8.2089197111
 30
0.0
 40
0.0500000000000007
100
AcDbArc
 50
270.0
 51
358.0
  0
LINE
  5
278
330
1F
100
AcDbEntity
  8
0
  6
Continuous
 62
     7
370
    15
100
AcDbLine
 10
3.2869879823
 20
8.1589196989
 30
0.0
 11
3.2499697433
 21
8.1589196989
 31
0.0
  0
ARC
  5
279
330
1F
100
AcDbEntity
  8
0
  6
Continuous
 62
     7
370
    15
100
AcDbCircle
 10
3.2516424757
 20
8.5089197111
 30
0.0
 40
0.0500000000000007
100
AcDbArc
 50
90.0
 51
176.0
  0
ARC
  5
27A
330
1F
100
AcDbEntity
  8
0
  6
Continuous
 62
     7
370
    15
100
AcDbCircle
 10
3.2853151191
 20
8.5089197111
 30
0.0
 40
0.0500000000000007
100
AcDbArc
 50
4.0
 51
90.0
  0
LINE
  5
27B
330
1F
100
AcDbEntity
  8
0
  6
Continuous
 62
     7
370
    15
100
AcDbLine
 10
3.251642604
 20
8.558919738
 30
0.0
 11
3.2853151217
 21
8.558919738
 31
0.0
  0
LINE
  5
27C
330
1F
100
AcDbEntity
  8
0
  6
Continuous
 62
     7
370
    15
100
AcDbLine
 10
3.4749696508
 20
8.1589196989
 30
0.0
 11
3.2869879823
 21
8.1589196989
 31
0.0
  0
LINE
  5
27D
330
1F
100
AcDbEntity
  8
0
  6
Continuous
 62
     7
370
    15
100
AcDbLine
 10
3.3434789298
 20
8.3939197008
 30
0.0
 11
3.4184787033
 21
8.3939197008
 31
0.0
  0
LINE
  5
27E
330
1F
100
AcDbEntity
  8
0
  6
Continuous
 62
     7
370
    15
100
AcDbLine
 10
3.2853151217
 20
8.558919738
 30
0.0
 11
3.4766425114
 21
8.558919738
 31
0.0
  0
LINE
  5
27F
330
1F
100
AcDbEntity
  8
0
  6
Continuous
 62
     7
370
    15
100
AcDbLine
 10
7.5284787959
 20
8.2339197291
 30
0.0
 11
7.4684787974
 21
8.2339197291
 31
0.0
  0
LINE
  5
280
330
1F
100
AcDbEntity
  8
0
  6
Continuous
 62
     7
370
    15
100
AcDbLine
 10
7.5284787959
 20
7.2939197214
 30
0.0
 11
7.5284787959
 21
8.2339197291
 31
0.0
  0
LINE
  5
281
330
1F
100
AcDbEntity
  8
0
  6
Continuous
 62
     7
370
    15
100
AcDbLine
 10
7.5284787959
 20
7.2939197214
 30
0.0
 11
7.4684787974
 21
7.2939197214
 31
0.0
  0
LINE
  5
282
330
1F
100
AcDbEntity
  8
0
  6
Continuous
 62
     7
370
    15
100
AcDbLine
 10
7.4684787974
 20
7.2939197214
 30
0.0
 11
7.4684787974
 21
8.2339197291
 31
0.0
  0
LINE
  5
283
330
1F
100
AcDbEntity
  8
0
  6
Continuous
 62
     7
370
    15
100
AcDbLine
 10
7.4684787974
 20
8.2839197248
 30
0.0
 11
7.5284787959
 21
8.2839197248
 31
0.0
  0
LINE
  5
284
330
1F
100
AcDbEntity
  8
0
  6
Continuous
 62
     7
370
    15
100
AcDbLine
 10
7.5284787959
 20
8.2839197248
 30
0.0
 11
7.5284787959
 21
8.2339197291
 31
0.0
  0
LINE
  5
285
330
1F
100
AcDbEntity
  8
0
  6
Continuous
 62
     7
370
    15
100
AcDbLine
 10
7.4684787974
 20
8.2339197291
 30
0.0
 11
7.4684787974
 21
8.2839197248
 31
0.0
  0
ARC
  5
286
330
1F
100
AcDbEntity
  8
0
  6
Continuous
 62
     7
370
    15
100
AcDbCircle
 10
7.4394787974
 20
8.3049197111
 30
0.0
 40
0.0890000000000001
100
AcDbArc
 50
0.0
 51
71.0974542994
  0
ARC
  5
287
330
1F
100
AcDbEntity
  8
0
  6
Continuous
 62
     7
370
    15
100
AcDbCircle
 10
7.4394787974
 20
8.3049197111
 30
0.0
 40
0.0289999999999992
100
AcDbArc
 50
0.0
 51
24.8381413496
  0
LINE
  5
288
330
1F
100
AcDbEntity
  8
0
  6
Continuous
 62
     7
370
    15
100
AcDbLine
 10
7.5284787959
 20
8.2839197248
 30
0.0
 11
7.5284787959
 21
8.3049197289
 31
0.0
  0
LINE
  5
289
330
1F
100
AcDbEntity
  8
0
  6
Continuous
 62
     7
370
    15
100
AcDbLine
 10
7.4684787974
 20
8.2839197248
 30
0.0
 11
7.4684787974
 21
8.3049197289
 31
0.0
  0
LINE
  5
28A
330
1F
100
AcDbEntity
  8
0
  6
Continuous
 62
     8
370
    15
100
AcDbLine
 10
3.4250000147
 20
8.2071747481
 30
0.0
 11
3.6476453627
 21
8.2071747481
 31
0.0
  0
LINE
  5
28B
330
1F
100
AcDbEntity
  8
0
  6
Continuous
 62
     8
370
    15
100
AcDbLine
 10
3.6476453627
 20
8.5124075087
 30
0.0
 11
3.4267643943
 21
8.5124075087
 31
0.0
  0
LINE
  5
28C
330
1F
100
AcDbEntity
  8
0
  6
Continuous
 62
     8
370
    15
100
AcDbLine
 10
3.3369576184
 20
8.2071747481
 30
0.0
 11
3.4250000147
 21
8.2071747481
 31
0.0
  0
LINE
  5
28D
330
1F
100
AcDbEntity
  8
0
  6
Continuous
 62
     8
370
    15
100
AcDbLine
 10
3.4267643943
 20
8.5124075087
 30
0.0
 11
3.3351932388
 21
8.5124075087
 31
0.0
  0
DIMENSION
  5
28E
330
1F
100
AcDbEntity
  8
0
  6
Continuous
 62
     7
370
     0
100
AcDbDimension
  2
_D_2
 10
7.9221795848
 20
7.2939197111
 30
0.0
 11
7.9221795848
 21
8.043936476
 31
0.0
 70
   160
  1
<>
 71
     2
 42
-1.0
  3
SLDDIMSTYLE0
100
AcDbAlignedDimension
 13
7.4103151191
 23
8.5589197111
 33
0.0
 14
7.4684787974
 24
7.2939197111
 34
0.0
 50
90.0
100
AcDbRotatedDimension
  0
ENDSEC
  0
SECTION
  2
OBJECTS
  0
DICTIONARY
  5
C
330
0
100
AcDbDictionary
281
     1
  3
ACAD_GROUP
350
D
  3
ACAD_LAYOUT
350
1A
  3
ACAD_MLINESTYLE
350
17
  3
ACAD_PLOTSETTINGS
350
19
  3
ACAD_PLOTSTYLENAME
350
E
  3
ACAD_SCALELIST
350
47
  0
DICTIONARY
  5
D
102
{ACAD_REACTORS
330
C
102
}
330
C
100
AcDbDictionary
281
     1
  0
DICTIONARY
  5
1A
102
{ACAD_REACTORS
330
C
102
}
330
C
100
AcDbDictionary
281
     1
  3
Layout1
350
1E
  3
Layout2
350
26
  3
Model
350
22
  0
DICTIONARY
  5
17
102
{ACAD_REACTORS
330
C
102
}
330
C
100
AcDbDictionary
281
     1
  3
Standard
350
18
  0
DICTIONARY
  5
19
102
{ACAD_REACTORS
330
C
102
}
330
C
100
AcDbDictionary
281
     1
  0
ACDBDICTIONARYWDFLT
  5
E
102
{ACAD_REACTORS
330
C
102
}
330
C
100
AcDbDictionary
281
     1
  3
Normal
350
F
100
AcDbDictionaryWithDefault
340
F
  0
DICTIONARY
  5
47
102
{ACAD_REACTORS
330
C
102
}
330
C
100
AcDbDictionary
281
     1
  3
A0
350
48
  3
A1
350
49
  3
A2
350
4A
  3
A3
350
4B
  3
A4
350
4C
  3
A5
350
4D
  3
A6
350
4E
  3
A7
350
4F
  3
A8
350
50
  3
A9
350
51
  3
B0
350
52
  3
B1
350
53
  3
B2
350
54
  3
B3
350
55
  3
B4
350
56
  3
B5
350
57
  3
B6
350
58
  3
B7
350
59
  3
B8
350
5A
  3
B9
350
5B
  3
C0
350
5C
  3
C1
350
5D
  3
C2
350
5E
  3
C3
350
5F
  3
C4
350
60
  3
C5
350
61
  3
C6
350
62
  3
C7
350
63
  3
C8
350
64
  3
C9
350
65
  3
D0
350
66
  3
D1
350
67
  3
D2
350
68
  0
LAYOUT
  5
1E
102
{ACAD_REACTORS
330
1A
102
}
330
1A
100
AcDbPlotSettings
  1

  2
none_device
  4

  6

 40
0.0
 41
0.0
 42
0.0
 43
0.0
 44
0.0
 45
0.0
 46
0.0
 47
0.0
 48
0.0
 49
0.0
140
0.0
141
0.0
142
1.0
143
1.0
 70
   688
 72
     0
 73
     0
 74
     5
  7

 75
    16
147
1.0
148
0.0
149
0.0
100
AcDbLayout
  1
Layout1
 70
     1
 71
     1
 10
0.0
 20
0.0
 11
12.0
 21
9.0
 12
0.0
 22
0.0
 32
0.0
 14
1.0000000000E+20
 24
1.0000000000E+20
 34
1.0000000000E+20
 15
-1.0000000000E+20
 25
-1.0000000000E+20
 35
-1.0000000000E+20
146
0.0
 13
0.0
 23
0.0
 33
0.0
 16
1.0
 26
0.0
 36
0.0
 17
0.0
 27
1.0
 37
0.0
 76
     0
330
1B
  0
LAYOUT
  5
26
102
{ACAD_REACTORS
330
1A
102
}
330
1A
100
AcDbPlotSettings
  1

  2
none_device
  4

  6

 40
0.0
 41
0.0
 42
0.0
 43
0.0
 44
0.0
 45
0.0
 46
0.0
 47
0.0
 48
0.0
 49
0.0
140
0.0
141
0.0
142
1.0
143
1.0
 70
   688
 72
     0
 73
     0
 74
     5
  7

 75
    16
147
1.0
148
0.0
149
0.0
100
AcDbLayout
  1
Layout2
 70
     1
 71
     2
 10
0.0
 20
0.0
 11
0.0
 21
0.0
 12
0.0
 22
0.0
 32
0.0
 14
0.0
 24
0.0
 34
0.0
 15
0.0
 25
0.0
 35
0.0
146
0.0
 13
0.0
 23
0.0
 33
0.0
 16
1.0
 26
0.0
 36
0.0
 17
0.0
 27
1.0
 37
0.0
 76
     0
330
23
  0
LAYOUT
  5
22
102
{ACAD_REACTORS
330
1A
102
}
330
1A
100
AcDbPlotSettings
  1

  2
none_device
  4
Letter_(8.50_x_11.00_Inches)
  6

 40
6.35
 41
6.35
 42
6.35000508
 43
6.35000508
 44
215.9
 45
279.4
 46
0.0
 47
0.0
 48
0.0
 49
0.0
140
0.0
141
0.0
142
1.0
143
1.0
 70
  1712
 72
     0
 73
     0
 74
     0
  7

 75
     0
147
1.0
148
0.0
149
0.0
100
AcDbLayout
  1
Model
 70
     1
 71
     0
 10
0.0
 20
0.0
 11
17.0
 21
11.0
 12
0.0
 22
0.0
 32
0.0
 14
0.0
 24
0.0
 34
0.0
 15
17.0
 25
11.0
 35
0.0
146
0.0
 13
0.0
 23
0.0
 33
0.0
 16
1.0
 26
0.0
 36
0.0
 17
0.0
 27
1.0
 37
0.0
 76
     0
330
1F
331
29
  0
MLINESTYLE
  5
18
102
{ACAD_REACTORS
330
17
102
}
330
17
100
AcDbMlineStyle
  2
Standard
 70
     0
  3

 62
   256
 51
90.0
 52
90.0
 71
     2
 49
0.5
 62
   256
  6
BYLAYER
 49
-0.5
 62
   256
  6
BYLAYER
  0
ACDBPLACEHOLDER
  5
F
102
{ACAD_REACTORS
330
E
102
}
330
E
  0
SCALE
  5
48
102
{ACAD_REACTORS
330
47
102
}
330
47
100
AcDbScale
 70
     0
300
1:1
140
1.0
141
1.0
290
     1
  0
SCALE
  5
49
102
{ACAD_REACTORS
330
47
102
}
330
47
100
AcDbScale
 70
     0
300
1:2
140
1.0
141
2.0
290
     0
  0
SCALE
  5
4A
102
{ACAD_REACTORS
330
47
102
}
330
47
100
AcDbScale
 70
     0
300
1:4
140
1.0
141
4.0
290
     0
  0
SCALE
  5
4B
102
{ACAD_REACTORS
330
47
102
}
330
47
100
AcDbScale
 70
     0
300
1:5
140
1.0
141
5.0
290
     0
  0
SCALE
  5
4C
102
{ACAD_REACTORS
330
47
102
}
330
47
100
AcDbScale
 70
     0
300
1:8
140
1.0
141
8.0
290
     0
  0
SCALE
  5
4D
102
{ACAD_REACTORS
330
47
102
}
330
47
100
AcDbScale
 70
     0
300
1:10
140
1.0
141
10.0
290
     0
  0
SCALE
  5
4E
102
{ACAD_REACTORS
330
47
102
}
330
47
100
AcDbScale
 70
     0
300
1:16
140
1.0
141
16.0
290
     0
  0
SCALE
  5
4F
102
{ACAD_REACTORS
330
47
102
}
330
47
100
AcDbScale
 70
     0
300
1:20
140
1.0
141
20.0
290
     0
  0
SCALE
  5
50
102
{ACAD_REACTORS
330
47
102
}
330
47
100
AcDbScale
 70
     0
300
1:30
140
1.0
141
30.0
290
     0
  0
SCALE
  5
51
102
{ACAD_REACTORS
330
47
102
}
330
47
100
AcDbScale
 70
     0
300
1:40
140
1.0
141
40.0
290
     0
  0
SCALE
  5
52
102
{ACAD_REACTORS
330
47
102
}
330
47
100
AcDbScale
 70
     0
300
1:50
140
1.0
141
50.0
290
     0
  0
SCALE
  5
53
102
{ACAD_REACTORS
330
47
102
}
330
47
100
AcDbScale
 70
     0
300
1:100
140
1.0
141
100.0
290
     0
  0
SCALE
  5
54
102
{ACAD_REACTORS
330
47
102
}
330
47
100
AcDbScale
 70
     0
300
2:1
140
2.0
141
1.0
290
     0
  0
SCALE
  5
55
102
{ACAD_REACTORS
330
47
102
}
330
47
100
AcDbScale
 70
     0
300
4:1
140
4.0
141
1.0
290
     0
  0
SCALE
  5
56
102
{ACAD_REACTORS
330
47
102
}
330
47
100
AcDbScale
 70
     0
300
8:1
140
8.0
141
1.0
290
     0
  0
SCALE
  5
57
102
{ACAD_REACTORS
330
47
102
}
330
47
100
AcDbScale
 70
     0
300
10:1
140
10.0
141
1.0
290
     0
  0
SCALE
  5
58
102
{ACAD_REACTORS
330
47
102
}
330
47
100
AcDbScale
 70
     0
300
100:1
140
100.0
141
1.0
290
     0
  0
SCALE
  5
59
102
{ACAD_REACTORS
330
47
102
}
330
47
100
AcDbScale
 70
     0
300
1/128" = 1'-0"
140
0.0078125
141
12.0
290
     0
  0
SCALE
  5
5A
102
{ACAD_REACTORS
330
47
102
}
330
47
100
AcDbScale
 70
     0
300
1/64" = 1'-0"
140
0.015625
141
12.0
290
     0
  0
SCALE
  5
5B
102
{ACAD_REACTORS
330
47
102
}
330
47
100
AcDbScale
 70
     0
300
1/32" = 1'-0"
140
0.03125
141
12.0
290
     0
  0
SCALE
  5
5C
102
{ACAD_REACTORS
330
47
102
}
330
47
100
AcDbScale
 70
     0
300
1/16" = 1'-0"
140
0.0625
141
12.0
290
     0
  0
SCALE
  5
5D
102
{ACAD_REACTORS
330
47
102
}
330
47
100
AcDbScale
 70
     0
300
3/32" = 1'-0"
140
0.09375
141
12.0
290
     0
  0
SCALE
  5
5E
102
{ACAD_REACTORS
330
47
102
}
330
47
100
AcDbScale
 70
     0
300
1/8" = 1'-0"
140
0.125
141
12.0
290
     0
  0
SCALE
  5
5F
102
{ACAD_REACTORS
330
47
102
}
330
47
100
AcDbScale
 70
     0
300
3/16" = 1'-0"
140
0.1875
141
12.0
290
     0
  0
SCALE
  5
60
102
{ACAD_REACTORS
330
47
102
}
330
47
100
AcDbScale
 70
     0
300
1/4" = 1'-0"
140
0.25
141
12.0
290
     0
  0
SCALE
  5
61
102
{ACAD_REACTORS
330
47
102
}
330
47
100
AcDbScale
 70
     0
300
3/8" = 1'-0"
140
0.375
141
12.0
290
     0
  0
SCALE
  5
62
102
{ACAD_REACTORS
330
47
102
}
330
47
100
AcDbScale
 70
     0
300
1/2" = 1'-0"
140
0.5
141
12.0
290
     0
  0
SCALE
  5
63
102
{ACAD_REACTORS
330
47
102
}
330
47
100
AcDbScale
 70
     0
300
3/4" = 1'-0"
140
0.75
141
12.0
290
     0
  0
SCALE
  5
64
102
{ACAD_REACTORS
330
47
102
}
330
47
100
AcDbScale
 70
     0
300
1" = 1'-0"
140
1.0
141
12.0
290
     0
  0
SCALE
  5
65
102
{ACAD_REACTORS
330
47
102
}
330
47
100
AcDbScale
 70
     0
300
1-1/2" = 1'-0"
140
1.5
141
12.0
290
     0
  0
SCALE
  5
66
102
{ACAD_REACTORS
330
47
102
}
330
47
100
AcDbScale
 70
     0
300
3" = 1'-0"
140
3.0
141
12.0
290
     0
  0
SCALE
  5
67
102
{ACAD_REACTORS
330
47
102
}
330
47
100
AcDbScale
 70
     0
300
6" = 1'-0"
140
6.0
141
12.0
290
     0
  0
SCALE
  5
68
102
{ACAD_REACTORS
330
47
102
}
330
47
100
AcDbScale
 70
     0
300
1'-0" = 1'-0"
140
12.0
141
12.0
290
     0
  0
ENDSEC
  0
EOF
